osu file format v9

[General]
AudioFilename: opera.mp3
AudioLeadIn: 0
PreviewTime: 63619
Countdown: 0
SampleSet: Soft
StackLeniency: 0.7
Mode: 0
LetterboxInBreaks: 1

[Editor]
DistanceSpacing: 1.2
BeatDivisor: 4
GridSize: 4

[Metadata]
Title:Seikai wa Hitotsu! Janai!! (TV Size)
Artist:Milky Holmes Cast
Creator:Hinacle
Version:Kitsuneko
Source:Tantei Opera Milky Holmes
Tags:Kitsuneko mimori suzuko tokui sora sasaki mikoi kitta izumi KanaRin

[Difficulty]
HPDrainRate:6
CircleSize:4
OverallDifficulty:6
ApproachRate:7
SliderMultiplier:1.64
SliderTickRate:2

[Events]
//Background and Video events
Video,2884,"milky holmes OP.avi"
0,0,"BG.jpg"
//Break Periods
//Storyboard Layer 0 (Background)
//Storyboard Layer 1 (Fail)
//Storyboard Layer 2 (Pass)
//Storyboard Layer 3 (Foreground)
//Storyboard Sound Samples
//Background Colour Transformations
3,100,163,162,255

[TimingPoints]
4690,352.941176470588,4,2,1,70,1,0
63542,-100,4,2,1,70,0,0
63984,-100,4,1,1,60,0,1
64160,-100,4,2,1,70,0,1
64601,-100,4,1,1,60,0,1
64866,-100,4,2,1,70,0,1
65307,-100,4,1,1,60,0,1
65484,-100,4,2,1,70,0,1
65660,-100,4,1,1,60,0,1
65837,-100,4,2,1,70,0,1
66013,-100,4,1,1,60,0,1
66278,-100,4,2,1,70,0,1
66719,-100,4,1,1,60,0,1
66895,-100,4,2,1,70,0,1
67425,-100,4,1,1,60,0,1
67689,-100,4,2,1,70,0,1
68131,-100,4,1,1,60,0,1
68307,-100,4,2,1,70,0,1
68484,-100,4,1,1,60,0,1
68660,-100,4,2,1,70,0,1
68837,-100,4,1,1,60,0,1
69013,-100,4,2,1,70,0,1
69807,-100,4,1,1,60,0,1
70160,-100,4,2,1,70,0,1
71219,-100,4,1,1,60,0,1
71572,-100,4,2,1,70,0,1
72631,-100,4,1,1,60,0,1
72984,-100,4,2,1,70,0,1
73337,-100,4,1,1,60,0,1
73689,-100,4,2,1,70,0,1
74748,-100,4,1,1,60,0,1
75454,-100,4,2,1,70,0,1
75895,-100,4,1,1,60,0,1
76160,-100,4,2,1,70,0,1
76601,-100,4,1,1,60,0,1
76778,-100,4,2,1,70,0,1
76954,-100,4,1,1,60,0,1
77131,-100,4,2,1,70,0,1
77307,-100,4,1,1,60,0,1
77572,-100,4,2,1,70,0,1
78013,-100,4,1,1,60,0,1
78278,-100,4,2,1,70,0,1
78719,-100,4,1,1,60,0,1
78984,-100,4,2,1,70,0,1
79425,-100,4,1,1,60,0,1
79601,-100,4,2,1,70,0,1
79778,-100,4,1,1,60,0,1
79954,-100,4,2,1,70,0,1
80131,-100,4,1,1,60,0,1
80395,-100,4,2,1,70,0,1
81189,-100,4,1,1,60,0,1
81366,-100,4,2,1,70,0,1
81542,-100,4,1,1,60,0,1
82778,-100,4,2,1,70,0,1
82954,-100,4,1,1,60,0,1
83219,-100,4,2,1,70,0,1
83660,-100,4,1,1,60,0,1
84101,-100,4,2,1,70,0,1
84366,-100,4,1,1,60,0,1
84807,-100,4,2,1,70,0,1
85689,-100,4,1,1,60,0,1
85954,-100,4,2,1,70,0,1
86484,-100,4,1,1,60,0,1
86748,-100,4,1,1,60,0,1
87542,-100,4,2,1,70,0,1
87719,-100,4,1,1,60,0,1
88425,-100,4,2,1,70,0,1
88601,-100,4,1,1,60,0,1
89219,-100,4,2,1,70,0,1
89572,-100,4,1,1,60,0,1
90807,-100,4,2,1,70,0,1
91601,-100,4,1,1,60,0,1
92042,-100,4,2,1,70,0,0

[Colours]
Combo1 : 145,240,98
Combo2 : 247,172,60
Combo3 : 252,158,201
Combo4 : 81,157,234

[HitObjects]
196,96,4690,2,0,B|280:108|360:68,2,164,4|0|0
108,56,5572,2,0,B|64:60|40:104,1,82,2|0
124,144,5925,2,0,B|72:220|112:304,1,164,2|0
196,344,6454,5,2
196,344,6631,1,0
296,344,6807,2,0,B|388:344,1,82,2|0
320,260,7160,2,0,B|408:248,1,82,2|0
336,176,7513,6,0,B|432:152|440:64,2,164,2|2|0
240,192,8395,1,0
196,104,8572,1,2
196,104,8748,1,0
96,104,8925,6,0,B|40:108|-4:152,1,82,2|0
96,196,9278,2,0,B|59:238|59:300,1,82,2|0
160,276,9631,2,0,B|164:332|208:376,2,82,2|2|2
220,196,10160,1,2
196,104,10337,6,0,B|268:56|356:80,1,164,4|2
380,176,10866,1,0
316,248,11042,2,0,B|244:296|156:272,1,164,0|2
88,80,11748,6,0,B|40:152|64:240,1,164,4|2
424,300,12453,2,0,B|472:228|448:140,1,164,4|2
256,192,13160,1,4
168,304,14042,5,2
256,348,14218,1,2
344,304,14395,1,4
256,64,14748,5,0
168,108,14925,1,2
256,152,15101,1,0
344,108,15278,1,4
256,284,15631,1,4
40,260,15984,6,0,B|100:200|196:216,2,164,4|2|0
4,168,16866,1,0
76,104,17042,1,2
172,120,17219,1,0
192,216,17395,6,0,B|364:216,1,164,0|2
456,220,17925,1,0
356,216,18101,2,0,B|400:136|356:56,1,164,0|2
140,168,18807,6,0,B|96:248|140:328,2,164,0|2|0
372,168,19866,1,2
372,168,20219,6,0,B|276:144,1,82
256,244,20572,2,0,B|96:208,2,164,2|0|2
256,48,21631,1,4
372,272,21984,5,0
180,308,22337,2,0,B|228:236|200:148,2,164,2|0|2
112,124,23395,1,2
96,320,23748,2,0,B|260:300,1,164,0|2
416,64,24454,6,0,B|252:84,1,164,4|2
320,160,24984,1,2
320,160,25160,2,0,B|224:172,1,82,4|0
300,248,25513,2,0,B|204:260,1,82,2|0
144,192,25866,5,4
144,192,26042,1,0
56,240,26219,1,4
56,240,26395,1,0
80,336,26572,5,4
176,348,26748,1,4
220,260,26925,1,4
412,104,27278,6,0,B|344:56|256:84,2,164,4|2|0
440,200,28160,1,2
412,296,28337,1,0
412,296,28513,1,2
320,260,28689,6,0,B|348:172,2,82,0|2|0
224,288,29219,2,0,B|136:288,2,82,2|0|2
288,364,29748,1,4
192,192,30101,6,0,B|28:192,2,164,0|2|0
388,192,31160,1,2
192,192,31513,6,0,B|164:280,2,82,0|2|0
216,96,32042,1,2
312,80,32219,1,0
280,172,32395,1,2
216,96,32572,2,0,B|136:76|48:104,1,164,2|4
140,296,33278,5,2
328,236,33631,2,0,B|392:292|488:292,2,164,0|2|2
252,56,34689,1,2
64,116,35042,1,2
140,296,35395,1,2
140,296,35748,5,4
228,248,35925,1,0
324,268,36101,1,4
324,268,36454,2,0,B|412:292,2,82,4|2|2
228,248,36984,1,4
228,248,37336,5,4
140,204,37513,1,2
144,108,37689,1,2
232,60,37865,1,4
232,60,38219,1,4
476,124,38572,6,0,B|404:80|308:112,3,164,0|2|0|2
320,308,39984,1,2
420,308,40160,1,0
256,204,40513,1,0
256,204,40689,6,0,B|184:248|88:216,1,164,2|2
188,44,41395,2,0,B|259:-1|356:31,2,164,0|2|0
176,144,42278,1,2
256,204,42454,1,2
256,192,42631,12,4,43866
368,96,44219,5,0
368,292,44572,1,2
196,192,44925,1,0
368,96,45278,1,2
368,292,45631,1,2
64,80,46337,6,0,B|96:48|144:56,1,82,0|0
236,80,46689,1,4
96,172,47042,1,4
456,284,47748,1,4
296,168,48454,5,4
388,136,48631,1,0
472,188,48807,1,0
456,284,48984,1,4
296,168,49337,5,4
376,228,49513,1,4
296,348,49866,6,0,B|208:348,1,82
116,344,50219,1,2
116,344,50395,1,0
64,260,50572,2,0,B|136:208|228:228,3,164,0|2|0|2
416,260,51984,6,0,B|476:188|444:104,1,164,0|2
96,108,52689,2,0,B|36:180|68:264,1,164,0|2
364,184,53395,1,0
368,84,53572,1,2
264,88,53748,1,2
256,188,53925,1,4
256,188,54278,6,0,B|160:196,2,82,0|2|0
304,276,54807,1,2
304,276,54984,1,0
204,280,55160,2,0,B|108:288,1,82,2|0
48,220,55513,6,0,B|20:136|48:60,1,164,4|0
148,60,56042,1,4
364,156,56395,6,0,B|268:148,2,82,0|2|0
464,164,56925,2,0,B|492:248|464:324,1,164,4|0
364,324,57454,1,4
88,244,57807,1,0
168,304,57984,1,2
256,264,58160,1,0
256,264,58337,1,4
256,68,58689,6,0,B|336:48|420:72,2,164,2|2|2
60,76,59748,1,2
236,168,60101,1,0
236,168,60454,1,2
40,176,60807,1,2
20,272,60984,6,0,B|108:296,1,82,4|0
212,244,61337,2,0,B|124:220,1,82,2|0
208,320,61689,2,0,B|296:344,1,82,2|0
400,292,62042,2,0,B|312:268,2,82,2|0|2
472,212,62572,5,4
380,184,62748,1,4
444,108,62925,1,4
348,84,63101,1,4
348,84,63278,1,4
176,184,63631,5,0
76,184,63807,1,2
20,104,63984,2,0,B|100:56|188:88,1,164,0|2
264,40,64513,1,0
272,136,64689,2,0,B|352:184|440:152,1,164,0|2
444,56,65219,5,0
352,96,65395,1,0
332,192,65572,1,2
380,276,65748,1,0
476,292,65925,1,2
476,292,66101,1,0
220,268,66454,6,0,B|128:296,1,82,2|0
48,320,66807,1,0
48,320,66984,1,0
48,220,67160,2,0,B|140:192,1,82,2|0
128,96,67513,2,0,B|208:64|288:88,1,164,0|2
388,72,68043,5,0
472,124,68219,1,0
472,224,68396,1,2
396,288,68572,2,0,B|432:320|476:320,1,82,0|2
472,224,68925,2,0,B|408:168|312:200,1,164,0|4
140,284,69631,5,2
48,200,69984,1,0
168,164,70337,1,2
168,164,70689,1,4
372,188,71042,5,2
288,32,71395,1,0
168,164,71748,1,2
168,164,72100,1,4
216,356,72454,6,0,B|276:296|368:316,3,164,2|0|2|0
176,268,73866,1,4
364,212,74219,1,4
172,172,74572,1,4
364,124,74925,2,0,B|272:92,1,82,0|0
192,68,75278,6,0,B|100:40|32:92,1,164,0|2
36,188,75807,1,0
36,288,75984,2,0,B|128:316|196:264,1,164,0|2
256,192,76513,5,0
344,148,76690,2,0,B|432:160,1,82,0|2
420,256,77042,2,0,B|332:240,1,82,0|2
256,192,77395,2,0,B|164:216|104:144,1,164,0|2
160,64,77925,5,0
256,88,78101,1,0
252,284,78454,1,0
344,324,78631,1,2
436,288,78807,2,0,B|488:212|452:132,1,164,0|2
356,112,79337,5,0
352,212,79513,2,0,B|256:180,1,82,0|2
252,284,79866,2,0,B|156:252,1,82,0|2
84,296,80219,2,0,B|32:224|64:136,1,164,0|4
252,88,80925,5,0
348,68,81101,1,2
404,148,81278,1,0
336,220,81454,1,2
244,184,81631,2,0,B|160:164|80:208,2,164,0|0|0
428,260,82689,1,0
348,316,82866,1,2
260,272,83042,1,4
52,52,83572,5,2
148,64,83748,1,4
460,96,84278,5,2
364,108,84454,1,4
68,240,85160,6,0,B|140:192|232:216,1,164,4|4
408,292,85866,1,0
408,292,86042,1,2
440,196,86219,1,4
344,220,86395,1,2
292,304,86572,6,0,B|220:352|128:328,1,164,0|0
256,172,87278,1,0
160,188,87454,2,0,B|140:108,2,82,0|2|4
352,152,88160,5,0
448,136,88337,1,0
424,232,88513,1,2
332,268,88689,2,0,B|256:228|168:272,2,164,0|0|4
128,136,89748,5,0
308,52,90101,1,0
204,52,90278,1,0
384,136,90631,1,0
128,248,90984,5,2
204,332,91160,1,0
308,332,91337,1,0
384,248,91513,1,2
256,244,91689,2,0,B|256:156,2,82,0|0|4
