osu file format v9

[General]
AudioFilename: opera.mp3
AudioLeadIn: 0
PreviewTime: 63619
Countdown: 0
SampleSet: Soft
StackLeniency: 0.7
Mode: 0
LetterboxInBreaks: 1

[Editor]
DistanceSpacing: 1
BeatDivisor: 4
GridSize: 4

[Metadata]
Title:Seikai wa Hitotsu! Janai!! (TV Size)
Artist:Milky Holmes Cast
Creator:Hinacle
Version:Insane
Source:Tantei Opera Milky Holmes
Tags:Kitsuneko mimori suzuko tokui sora sasaki mikoi kitta izumi KanaRin

[Difficulty]
HPDrainRate:7
CircleSize:4
OverallDifficulty:7
ApproachRate:8
SliderMultiplier:1.8
SliderTickRate:2

[Events]
//Background and Video events
Video,2884,"milky holmes OP.avi"
0,0,"BG.jpg"
//Break Periods
//Storyboard Layer 0 (Background)
//Storyboard Layer 1 (Fail)
//Storyboard Layer 2 (Pass)
//Storyboard Layer 3 (Foreground)
//Storyboard Sound Samples
//Background Colour Transformations
3,100,163,162,255

[TimingPoints]
4690,352.941176470588,4,2,1,70,1,0
15895,-100,4,2,1,65,0,0
37072,-100,4,2,1,5,0,0
38395,-133.333333333333,4,2,1,60,0,0
47042,-100,4,2,1,65,0,0
49425,-100,4,2,1,55,0,0
49601,-100,4,2,1,59,0,0
49689,-100,4,2,1,63,0,0
49778,-100,4,2,1,67,0,0
49866,-100,4,2,1,70,0,0
63984,-100,4,2,1,80,0,1
90719,-100,4,2,1,5,0,1
92042,-100,4,2,1,70,0,0

[Colours]
Combo1 : 145,240,98
Combo2 : 247,172,60
Combo3 : 252,158,201
Combo4 : 81,157,234

[HitObjects]
480,260,4690,2,0,B|404:324|312:272,1,180,4|0
256,200,5219,1,0
212,120,5395,2,0,B|172:100|124:112,1,90,2|0
40,220,5748,2,0,B|80:240|128:228,1,90
212,336,6101,2,0,B|172:316|124:328,2,90,2|0|0
300,352,6631,1,0
300,352,6719,1,0
300,352,6807,2,0,B|344:372|388:356,1,90,2|0
464,240,7160,2,0,B|420:220|376:236,1,90,2|0
288,252,7513,6,0,B|216:320|120:256,1,180,2|0
40,224,8042,2,0,B|20:268|32:312,2,90,0|2|0
56,136,8572,1,0
72,48,8748,2,0,B|156:4|252:44,1,180,2|2
332,64,9278,2,0,B|380:80|424:68,1,90
468,148,9631,5,2
464,284,9807,1,0
328,280,9984,1,2
332,144,10160,1,0
332,144,10248,1,0
332,144,10337,2,0,B|248:84|160:132,1,180,4|0
84,176,10866,2,0,B|68:220|84:264,1,90,0|2
252,320,11219,2,0,B|268:276|252:232,2,90
168,284,11748,5,2
168,284,11837,1,0
168,284,11925,2,0,B|152:240|168:196,1,90
200,112,12278,1,0
284,144,12454,1,2
284,144,12542,1,0
284,144,12631,2,0,B|328:160|376:144,1,90
444,92,12984,1,0
488,172,13160,6,0,B|412:248|472:340,1,180,4|0
308,356,13689,2,0,B|384:280|324:188,1,180,2|2
240,88,14219,1,0
124,20,14395,2,0,B|48:96|108:188,1,180,4|2
152,260,14925,5,2
284,316,15101,1,0
268,172,15278,1,2
268,172,15631,1,0
268,172,15984,6,0,B|344:112|436:168,1,180,4|8
456,256,16513,2,0,B|472:304|452:352,1,90,0|0
364,348,16866,1,0
276,336,17042,2,0,B|228:320|184:332,1,90,8|0
96,332,17395,1,2
44,260,17572,6,0,B|28:220,2,45,0|0|8
172,160,17925,2,0,B|188:120,2,45,0|0|8
300,260,18278,2,0,B|340:244,2,45,0|0|8
172,360,18631,1,0
44,260,18807,6,0,B|28:216|40:172,1,90,4|0
48,80,19160,2,0,B|88:60|136:60,1,90,8|0
224,60,19513,1,0
288,124,19689,1,0
252,208,19866,2,0,B|232:252|248:300,1,90,8|0
332,320,20219,6,0,B|424:268|384:164,1,180,2|8
348,84,20748,1,0
348,84,20837,1,0
348,84,20925,1,8
240,40,21101,5,0
240,40,21189,1,0
240,40,21278,1,8
136,92,21454,5,0
136,92,21542,1,0
136,92,21631,2,0,B|120:136|120:180,1,90,4|0
116,272,21984,2,0,B|76:292|24:280,2,90,8|0|0
204,260,22513,2,0,B|244:240|296:252,1,90,0|8
380,260,22866,1,0
468,268,23042,6,0,B|488:224|472:176,1,90,4|0
444,48,23395,2,0,B|400:28|352:44,1,90,8|0
224,72,23748,2,0,B|204:116|220:164,1,90,0|0
248,292,24101,2,0,B|292:312|340:296,1,90,8|0
352,172,24454,5,4
352,172,24542,1,0
352,172,24631,1,0
268,140,24807,2,0,B|224:120|176:136,1,90,8|0
92,152,25160,1,4
92,152,25248,1,0
92,152,25337,1,0
72,240,25513,2,0,B|56:284|72:328,1,90,8|0
164,328,25866,6,0,B|192:288,2,45,2|0|0
392,284,26219,2,0,B|352:256,2,45,8|0|0
348,56,26572,2,0,B|320:96,2,45,2|0|0
120,100,26925,2,0,B|160:128,2,45,8|0|0
44,52,27278,5,4
44,332,27631,1,4
256,192,27984,5,2
344,176,28160,2,0,B|364:220|344:264,2,90,0|8|0
328,88,28689,2,0,B|248:28|160:76,1,180,2|8
76,184,29219,1,0
144,300,29395,2,0,B|224:360|312:312,1,180,2|8
384,256,29925,5,0
384,256,30013,1,0
384,256,30101,2,0,B|404:212|388:160,1,90,2|0
252,100,30454,2,0,B|232:144|248:196,1,90,8|0
348,248,30807,6,0,B|368:204|352:152,1,90,2|0
216,92,31160,2,0,B|196:136|212:188,1,90,8|0
212,272,31513,6,0,B|132:332|32:276,1,180,4|8
124,172,32042,1,0
36,68,32219,2,0,B|116:8|216:64,1,180,4|8
284,104,32748,5,0
284,104,32837,1,0
284,104,32925,2,0,B|328:124|376:104,1,90,4|0
460,92,33278,2,0,B|508:172|464:264,1,180,8|2
412,340,33807,1,0
324,312,33984,2,0,B|236:256|152:312,1,180,8|2
76,200,34513,1,0
156,92,34689,2,0,B|244:148|328:92,1,180,8|2
452,44,35219,1,0
452,44,35307,1,0
452,44,35395,2,0,B|468:88|456:132,1,90,8|0
452,224,35748,5,4
256,352,36101,1,4
60,224,36454,1,2
76,100,36631,1,2
200,116,36807,1,2
184,240,36984,1,4
256,192,37072,12,0,38219
80,88,38572,6,0,B|48:152|80:224,1,134.999995976687,4|0
120,288,39101,1,0
188,332,39278,2,0,B|256:356|328:332,1,134.999995976687,2|0
384,180,39984,6,0,B|344:120|380:52,1,134.999995976687,2|0
300,36,40513,1,0
224,60,40689,2,0,B|164:100|96:64,1,134.999995976687,2|0
100,268,41395,6,0,B|68:280|32:272,2,67.4999979883433,2|0|0
180,252,41925,1,0
260,260,42101,2,0,B|324:296|392:264,1,134.999995976687,2|0
404,184,42631,1,0
420,104,42807,6,0,B|452:92|492:100,2,67.4999979883433,2|0|0
340,116,43337,1,0
260,104,43513,2,0,B|188:76|124:104,1,134.999995976687,2|0
48,124,44042,5,0
48,124,44131,1,0
48,124,44219,2,0,B|8:188|44:256,1,134.999995976687,4|0
84,320,44748,1,0
164,340,44925,1,2
224,284,45101,1,0
192,208,45278,1,0
232,136,45454,5,0
232,136,45631,2,0,B|292:96|364:124,1,134.999995976687,4|0
436,156,46160,1,0
468,232,46337,1,2
408,288,46513,2,0,B|412:324|404:324|408:360,2,67.4999979883433
336,256,47042,6,0,B|248:208|160:260,1,180,4|0
72,156,47572,1,0
168,60,47748,2,0,B|256:108|344:56,1,180,4|0
432,160,48278,1,0
384,236,48454,5,2
312,340,48631,1,2
236,240,48807,1,2
164,344,48984,1,2
100,120,49337,5,2
184,88,49513,1,2
184,88,49601,1,0
184,88,49689,1,2
184,88,49778,1,0
184,88,49866,2,0,B|228:104|280:88,1,90,4|0
396,184,50219,2,0,B|352:200|300:184,1,90,8|0
184,280,50572,2,0,B|228:296|280:280,2,90,0|0|8
96,264,51101,1,0
36,196,51278,6,0,B|16:152|32:104,1,90,4|0
156,40,51631,2,0,B|176:84|160:132,1,90,8|0
144,288,51984,6,0,B|124:244|140:196,1,90
264,132,52337,2,0,B|284:176|268:224,1,90,8|0
268,308,52689,6,0,B|348:368|440:324,1,180,4|8
460,236,53219,1,0
440,148,53395,2,0,B|400:128|352:128,1,90
264,124,53748,1,8
172,124,53925,2,0,B|96:192|140:288,2,180,4|2|2
252,80,54807,2,0,B|336:52,1,90,2|0
460,144,55160,2,0,B|376:172,1,90,2|0
292,208,55513,5,4
208,240,55689,2,0,B|204:284|212:284|208:332,2,90,0|8|0
120,224,56219,1,0
120,224,56307,1,0
120,224,56395,1,0
32,208,56572,2,0,B|20:164|32:120,1,90,8|0
120,96,56925,6,0,B|164:84|208:92,1,90,4|0
336,112,57278,1,8
460,140,57454,2,0,B|516:228|452:316,1,180,0|0
368,300,57984,1,2
336,292,58072,1,0
304,288,58160,1,2
272,292,58248,1,0
240,300,58337,6,0,B|196:312|148:300,1,90,4|0
68,272,58689,1,8
36,188,58866,2,0,B|20:144|36:96,1,90
184,136,59219,2,0,B|200:180|184:228,2,90,0|8|0
52,100,59748,6,0,B|36:144|48:192,1,90,4|0
60,276,60101,1,8
100,356,60278,2,0,B|144:372|188:360,1,90
216,272,60631,1,0
252,188,60807,1,8
288,108,60984,5,2
312,88,61072,1,0
344,80,61160,1,0
376,88,61248,1,0
400,104,61337,1,2
416,128,61425,1,0
428,160,61513,1,0
432,192,61602,1,0
428,224,61690,1,2
416,252,61778,1,0
400,276,61866,1,0
376,292,61955,1,0
344,300,62043,1,2
312,292,62131,1,0
284,276,62219,1,0
108,312,62572,5,4
120,168,62748,1,4
192,296,62925,1,4
60,236,63101,1,4
200,208,63278,1,4
424,92,63631,6,0,B|440:136|428:180,1,90,2|2
420,272,63984,2,0,B|352:336|252:304,1,180,4|8
168,272,64513,1,0
80,296,64689,2,0,B|16:228|56:124,1,180,4|8
140,96,65219,5,2
260,64,65395,1,0
357,143,65572,1,2
327,263,65748,1,0
207,294,65924,1,2
110,215,66101,2,0,B|44:140|104:48,1,180,4|8
192,36,66631,5,0
192,36,66719,1,0
192,36,66807,2,0,B|232:20|280:32,1,90,4|0
368,52,67160,1,8
456,72,67337,1,0
456,72,67425,1,0
456,72,67513,2,0,B|472:116|456:164,1,90,4|0
320,248,67866,2,0,B|304:204|320:156,1,90,8|0
460,244,68219,6,0,B|476:288|460:336,1,90,0|0
372,340,68572,1,8
284,356,68748,1,0
196,348,68925,2,0,B|112:292|144:188,1,180,4|8
160,100,69454,5,0
160,100,69542,1,0
160,100,69631,2,0,B|204:80|248:92,1,90,4|0
336,104,69984,2,0,B|352:148|340:192,1,90,8|0
324,280,70337,2,0,B|256:348|156:296,1,180,2|8
80,252,70866,5,0
80,252,70954,1,0
80,252,71042,1,4
40,172,71219,2,0,B|24:128|40:84,1,90,0|8
184,28,71572,2,0,B|200:72|184:116,1,90,0|2
256,340,72101,1,8
348,336,72278,5,0
348,336,72366,1,0
348,336,72454,2,0,B|396:352|440:336,1,90,4|0
492,184,72807,2,0,B|444:168|400:184,1,90,8|0
252,240,73160,6,0,B|300:256|344:240,1,90,4|0
396,88,73513,2,0,B|348:72|304:88,1,90,8|0
216,88,73866,5,4
216,88,74042,1,0
84,120,74219,5,4
84,120,74395,1,0
116,252,74572,5,4
116,252,74748,1,0
248,220,74925,5,4
248,220,75101,1,0
248,220,75278,6,0,B|328:280|416:232,1,180,4|8
428,144,75807,1,0
436,56,75984,2,0,B|356:-4|268:44,1,180,2|8
192,92,76513,5,2
92,168,76689,1,0
212,208,76866,1,2
164,92,77042,5,0
64,168,77218,1,2
184,208,77395,2,0,B|260:272|352:224,1,180,4|8
440,196,77925,5,0
440,196,78013,1,0
440,196,78101,2,0,B|456:244|440:288,1,90,4|0
376,348,78454,2,0,B|328:364|284:348,1,90,8|0
200,328,78807,2,0,B|128:264|168:160,1,180,4|8
180,72,79337,6,0,B|136:56|92:64,2,90
268,88,79866,1,8
356,76,80042,1,0
448,92,80219,1,2
448,92,80307,1,0
448,92,80395,1,2
448,92,80484,1,0
448,92,80572,2,0,B|460:140|448:184,1,90,8|0
432,272,80925,6,0,B|392:296|340:280,1,90,4|0
256,268,81278,1,8
168,252,81454,2,0,B|152:296|168:340,2,90
180,160,81984,2,0,B|196:116|180:72,1,90,8|0
92,64,82337,5,4
28,128,82513,1,0
64,212,82689,2,0,B|108:232|152:224,1,90,8|0
240,204,83042,2,0,B|324:156|412:200,1,180,4|8
424,292,83572,5,2
352,344,83748,1,2
264,324,83925,2,0,B|220:308|176:320,1,90,8|8
84,324,84278,1,2
36,248,84454,1,2
68,164,84631,1,8
156,144,84807,1,8
188,136,84895,1,0
220,132,84984,1,8
252,136,85072,1,0
284,144,85160,6,0,B|332:160|376:144,1,90,4|0
464,136,85513,2,0,B|516:220|464:312,1,180,2|2
376,304,86042,2,0,B|332:288|284:304,1,90,0|8
200,316,86395,1,0
108,308,86572,6,0,B|44:236|84:140,1,180,4|8
176,68,87101,1,0
176,68,87189,1,0
176,68,87278,1,2
288,100,87454,2,0,B|352:172|312:268,1,180,2|2
276,352,87984,6,0,B|232:368|184:356,1,90,0|0
96,232,88337,2,0,B|140:216|188:228,1,90,8|0
276,232,88689,2,0,B|348:160|292:56,1,180,4|8
208,60,89219,5,0
208,60,89307,1,0
208,60,89395,1,4
84,192,89748,5,4
256,352,90101,1,4
256,352,90278,1,4
428,192,90631,1,4
256,192,90719,12,4,92042
