osu file format v9

[General]
AudioFilename: Future after Rain.mp3
AudioLeadIn: 3000
PreviewTime: 59327
Countdown: 0
SampleSet: Soft
StackLeniency: 0.7
Mode: 0
LetterboxInBreaks: 0

[Editor]
DistanceSpacing: 0.8
BeatDivisor: 4
GridSize: 8

[Metadata]
Title:Future after Rain
Artist:Milky Holmes
Creator:digiaria
Version:Normal
Source:Tantei Opera Milky Holmes
Tags:game OP Mimori SuzukoTokui SoraSasaki MikoiKitta Izumi

[Difficulty]
HPDrainRate:4
CircleSize:3
OverallDifficulty:3
ApproachRate:4
SliderMultiplier:1
SliderTickRate:1

[Events]
//Background and Video events
0,0,"3.jpg"
//Break Periods
2,11663,20761
2,81776,90874
//Storyboard Layer 0 (Background)
//Storyboard Layer 1 (Fail)
//Storyboard Layer 2 (Pass)
//Storyboard Layer 3 (Foreground)
//Storyboard Sound Samples
//Background Colour Transformations
3,100,163,162,255

[TimingPoints]
-671,337.078651685393,4,2,1,100,1,0
43989,-200,4,2,1,100,0,0
54355,-133.333333333333,4,2,1,100,0,0
56792,-100,4,1,0,100,0,0
59411,-100,4,2,1,100,0,0
69264,-100,4,1,0,100,0,0
70107,-100,4,2,1,100,0,0
79967,-100,4,1,0,81,0,0
87314,-100,4,2,1,100,0,0
114090,-200,4,2,1,100,0,0
123289,-133.333333333333,4,2,1,100,0,0
126736,-133.333333333333,4,1,0,100,0,0
129517,-100,4,2,1,100,0,0
139377,-100,4,1,0,100,0,0
140388,-100,4,2,1,100,0,0
147045,-100,4,2,2,100,0,0
147382,-100,4,2,1,100,0,0
148394,-100,4,2,2,100,0,0
148815,-100,4,2,1,100,0,0
150079,-100,4,1,0,81,0,0

[Colours]
Combo1 : 55,155,255
Combo2 : 255,96,175
Combo3 : 0,168,0
Combo4 : 242,242,0

[HitObjects]
48,72,677,2,0,B|254:0|438:78,1,400,2|2
56,312,3373,2,0,B|262:383|446:305,1,400,2|2
328,200,5396,1,0
368,48,6070,2,0,B|256:72|192:136,1,200,2|0
56,224,7418,2,0,B|128:296|240:304,1,200,2|0
392,312,8767,1,2
304,176,9441,2,0,B|152:240,1,150,0|2
256,192,10284,12,8,11463
424,160,22081,6,0,B|272:160,1,150,0|8
152,56,23261,1,8
80,200,23935,1,8
184,320,24609,1,8
80,200,25284,2,0,B|72:136|128:96,2,100,8|2|8
200,88,26632,2,0,B|256:80|312:104,2,100,8|2|8
288,232,27980,5,8
424,320,28654,1,8
264,328,29328,2,0,B|200:304,2,50,8|0|2
288,248,30003,1,8
136,192,30677,2,0,B|224:128|336:168,1,200,8|8
200,64,32025,2,0,B|304:64,2,100,8|2|8
344,128,33373,5,8
384,200,33711,2,0,B|312:200,2,50,0|0|8
224,224,34722,1,8
80,160,35396,2,0,B|168:96|288:120,1,200,8|8
416,64,36744,1,8
336,200,37418,2,0,B|272:176|216:200,2,100,8|2|8
256,64,38767,6,0,B|152:32,2,100,8|2|8
248,224,40115,1,8
88,208,40789,1,8
88,208,41126,1,4
208,104,41800,1,4
296,184,42306,1,4
160,336,43149,6,0,B|40:336,2,100,8|8|4
280,328,44834,5,8
200,272,45677,2,0,B|128:232,1,75,0|8
136,72,47531,1,8
232,72,48373,2,0,B|304:120,1,75,0|8
296,192,49553,6,0,B|176:192,1,100,0|8
192,272,50902,2,0,B|296:272,1,100,0|8
328,248,51913,1,4
408,232,52587,2,0,B|440:200|440:160,1,75,4|4
256,192,53261,12,4,54609
184,192,54946,6,0,B|336:192,2,149.999995529652,8|8|8
48,104,56969,2,0,B|160:104,1,100,0|4
152,224,57812,1,0
320,328,58654,2,0,B|512:328,1,150,0|4
432,168,59834,6,0,B|304:64,1,150,4|8
264,224,61014,1,8
136,320,61688,2,0,B|88:272|96:224,2,100,8|2|8
296,296,63036,1,8
400,176,63711,1,8
280,64,64385,2,0,B|232:40|168:72,2,100,8|2|8
360,200,65733,6,0,B|464:200,2,100,8|2|8
232,296,67081,2,0,B|112:296,2,100,8|2|8
112,192,68430,1,8
272,192,69104,1,8
352,192,69441,2,0,B|352:352,1,150,0|4
192,336,70621,6,0,B|192:168,1,150,0|8
352,192,71800,1,8
208,112,72475,2,0,B|88:112,2,100,8|2|8
344,192,73823,1,8
344,352,74497,1,8
456,240,75171,2,0,B|368:168,2,100,8|2|8
400,88,76520,6,0,B|280:88,2,100,8|2|8
248,152,77868,2,0,B|128:152,2,100,8|2|8
248,232,78879,2,0,B|352:232,3,100,4|8|4|8
256,192,80059,12,4,81576
256,336,92194,6,0,B|256:176,1,150,0|8
256,104,93036,2,0,B|296:72|360:104,1,100,0|8
200,160,94048,1,8
120,152,94385,2,0,B|96:208|120:256,1,100,0|8
256,320,95396,1,8
416,288,96070,1,8
280,200,96744,1,8
136,128,97418,6,0,B|328:72,1,200,8|8
360,144,98430,2,0,B|424:144,2,50,0|0|8
264,272,99441,1,8
144,272,99946,2,0,B|144:208,1,50,0|8
256,104,100789,2,0,B|320:208|208:296,2,200,8|8|8
64,160,102980,6,0,B|176:48,1,150,4|8
248,192,104160,1,8
352,72,104834,1,8
400,136,105171,2,0,B|416:200,2,50,0|0|8
240,104,106182,2,0,B|176:32|32:48,2,200,8|8|8
208,304,108373,6,0,B|368:304,1,150,0|8
480,208,109553,1,8
360,208,110059,2,0,B|304:208,2,50,0|8|0
248,160,110902,2,0,B|320:88,1,100,8|4
168,48,111913,2,0,B|120:192,1,150,4|4
320,200,113261,6,0,B|232:120,2,100,8|8|4
304,240,114272,6,0,B|248:344,1,100,0|8
160,328,115789,2,0,B|112:248,1,75,0|8
136,184,116969,2,0,B|200:160,2,50,0|0|8
232,168,118486,2,0,B|312:208,1,75,0|8
288,280,119666,2,0,B|224:280,2,50,0|0|8
288,200,121014,2,0,B|216:200,2,50,0|0|8
328,200,122025,1,4
336,120,122699,2,0,B|240:120,1,75,4|4
256,192,123373,12,4,124722
88,328,125059,6,0,B|248:328,2,149.999995529652,8|8|8
136,216,127081,2,0,B|216:216,1,74.9999977648259,4|4
280,160,127924,1,0
240,80,128430,1,0
240,80,128767,2,0,B|120:80,1,112.499996647239,0|4
48,224,129946,6,0,B|136:80,1,150,0|8
280,136,131126,1,8
392,248,131800,1,8
384,328,132137,2,0,B|448:328,2,50,0|0|8
224,328,133149,5,8
72,240,133823,1,8
88,160,134160,2,0,B|152:128|200:136,1,100,2|8
176,216,134834,2,0,B|224:248|280:248,1,100,2|8
344,224,135508,6,0,B|384:168|368:112,1,100,4|8
320,72,136182,1,2
248,112,136520,1,8
128,216,137194,2,0,B|240:216,1,100,8|2
280,272,137868,1,8
288,352,138205,2,0,B|184:352,3,100,4|8|4|8
168,272,139553,2,0,B|88:144,1,150,0|4
248,160,140733,5,0
352,104,141239,2,0,B|472:104,2,100,8|2|8
352,184,142250,2,0,B|272:184,3,50,0|0|8|0
408,272,143430,2,0,B|240:272,1,150,0|8
192,224,144272,2,0,B|104:320,3,100,2|8|0|8
56,256,145621,1,2
32,176,145958,1,8
72,104,146295,6,0,B|176:104,1,100,4|8
200,208,146969,2,0,B|128:208,2,50,0|8|8
224,288,147643,1,4
288,336,147980,1,8
352,288,148317,2,0,B|424:288,2,50,0|8|8
312,216,148991,2,0,B|224:152,3,100,4|8|4|8
256,192,150171,12,4,151688
