osu file format v9

[General]
AudioFilename: Future after Rain.mp3
AudioLeadIn: 3000
PreviewTime: 59327
Countdown: 0
SampleSet: Soft
StackLeniency: 0.7
Mode: 0
LetterboxInBreaks: 0

[Editor]
DistanceSpacing: 1
BeatDivisor: 4
GridSize: 8

[Metadata]
Title:Future after Rain
Artist:Milky Holmes
Creator:digiaria
Version:Hard
Source:Tantei Opera Milky Holmes
Tags:game OP Mimori SuzukoTokui SoraSasaki MikoiKitta Izumi

[Difficulty]
HPDrainRate:5
CircleSize:4
OverallDifficulty:7
ApproachRate:6
SliderMultiplier:1.3
SliderTickRate:0.5

[Events]
//Background and Video events
0,0,"2.jpg"
//Break Periods
2,11663,21031
2,81607,91144
2,162506,182998
//Storyboard Layer 0 (Background)
//Storyboard Layer 1 (Fail)
//Storyboard Layer 2 (Pass)
//Storyboard Layer 3 (Foreground)
//Storyboard Sound Samples
//Background Colour Transformations
3,100,163,162,255

[TimingPoints]
-671,337.078651685393,4,2,1,100,1,0
254,-200,4,2,1,71,0,0
21152,-100,4,2,1,100,0,0
43989,-200,4,2,1,100,0,0
54355,-133.333333333333,4,2,1,100,0,0
57135,-100,4,2,1,100,0,0
58484,-100,4,1,0,71,0,0
58737,-100,4,1,0,81,0,0
58905,-100,4,1,0,91,0,0
59074,-100,4,1,0,100,0,0
59411,-100,4,2,1,100,0,0
66140,-100,4,2,2,100,0,0
66477,-100,4,2,1,100,0,0
67236,-100,4,2,2,100,0,0
67910,-100,4,2,1,100,0,0
69258,-100,4,1,0,71,0,0
69511,-100,4,1,0,81,0,0
69680,-100,4,1,0,90,0,0
69848,-100,4,1,0,100,0,0
70270,-100,4,2,1,100,0,0
114090,-200,4,2,1,100,0,0
124208,-133.333333333333,4,2,1,100,0,0
128590,-100,4,1,0,71,0,0
128843,-100,4,1,0,80,0,0
129012,-100,4,1,0,90,0,0
129180,-100,4,1,0,100,0,0
129517,-100,4,2,1,100,0,0
139377,-100,4,1,0,71,0,0
139629,-100,4,1,0,81,0,0
139798,-100,4,1,0,91,0,0
139967,-100,4,1,0,100,0,0
140388,-100,4,2,1,100,0,0
183450,-200,4,2,1,100,0,0
205444,-100,4,1,0,100,0,0
212017,-100,4,2,1,100,0,0
220276,-100,4,1,0,100,0,0
221118,-100,4,2,1,100,0,0
254152,-100,4,1,0,100,0,0

[Colours]
Combo1 : 55,155,255
Combo2 : 255,96,175
Combo3 : 0,168,0
Combo4 : 242,242,0

[HitObjects]
368,272,677,1,2
160,112,2025,1,2
256,352,3373,1,2
392,128,4722,2,0,B|256:128,2,130,2|0|2
208,304,7418,2,0,B|160:232|208:176,1,130,2|0
312,240,8767,2,0,B|376:240,2,65,2|0|0
240,176,9946,1,2
256,192,10115,12,8,11463
384,48,22081,6,0,B|464:136|368:240,1,195,0|8
288,312,22924,2,0,B|216:312,2,65,0|0|8
280,248,23430,2,0,B|160:224|120:128,1,195,0|8
256,136,24272,2,0,B|328:136,2,65,0|0|8
200,104,24778,2,0,B|120:216|192:312,1,195,0|8
304,272,25621,2,0,B|384:272,2,65,0|0|8
296,208,26126,2,0,B|240:144|352:88|248:16,1,195,0|8
168,112,26969,6,0,B|88:128|48:192,1,130,2|8
80,240,27475,5,0
208,232,27812,2,0,B|280:232,1,65,0|8
352,128,28317,2,0,B|432:128,2,65,0|0|8
360,64,28823,2,0,B|296:32|216:64,1,130
168,40,29329,2,0,B|80:40,1,65,8|0
72,168,29834,6,0,B|144:168,2,65,0|8|0
64,232,30340,2,0,B|64:304|144:328,2,130,0|8|0
192,224,31351,2,0,B|264:224,1,65,8|0
360,304,31857,2,0,B|288:304,1,65,0|8
200,216,32362,6,0,B|128:160|128:88,1,130,2|8
120,48,32868,5,4
120,48,33205,2,0,B|160:112,1,65,0|8
288,104,33711,2,0,B|360:120,1,65
336,184,34048,1,8
400,192,34216,1,0
480,288,34553,2,0,B|416:280,1,65,0|8
288,288,35059,2,0,B|216:336,1,65
192,272,35396,1,8
160,216,35564,2,0,B|31:68,1,195,0|8
160,40,36407,2,0,B|232:40,2,65,0|0|8
160,104,36913,1,0
256,192,37250,1,0
256,192,37418,1,8
360,120,37755,6,0,B|424:160|448:232,1,130,2|8
416,272,38261,5,0
288,296,38598,2,0,B|208:288,1,65,0|8
208,160,39104,2,0,B|128:208,2,65,0|0|8
224,96,39609,1,0
352,96,39946,2,0,B|416:160,2,65,0|8|0
272,200,40621,6,0,B|192:224,3,65,0|8|0|4
464,288,41800,1,4
280,344,42306,1,4
96,72,43149,5,8
192,160,43486,1,8
288,240,43823,1,4
288,240,44160,6,0,B|360:272,2,65,0|0|8
272,208,45003,1,0
256,176,45171,1,0
248,144,45340,1,0
296,96,45677,1,0
352,136,46014,2,0,B|384:160,3,32.5,0|8|0|4
376,224,46857,6,0,B|312:224,2,65,0|0|8
392,248,47699,1,0
392,280,47868,1,0
376,312,48036,1,0
312,328,48373,1,0
256,296,48711,2,0,B|224:296,3,32.5,0|8|0|4
240,232,49553,6,0,B|168:224|160:136,1,130,0|8
224,144,50564,1,4
224,80,50902,2,0,B|192:8|104:40,1,130,0|8
96,96,51913,1,4
200,176,52587,1,4
272,240,53093,1,4
256,192,53430,12,4,54609
120,232,54946,5,8
120,232,55284,1,10
192,304,55621,1,8
280,344,55958,1,10
280,344,56295,1,8
352,272,56632,1,10
304,184,56969,1,8
304,184,57306,5,4
224,80,57643,1,0
224,80,57812,1,4
64,176,58317,1,4
152,272,58654,2,0,B|216:272,3,65,4|4|4|4
328,112,59834,6,0,B|400:184|320:296,1,195,0|8
200,256,60677,1,0
88,184,61014,1,8
168,80,61351,1,0
168,80,61520,1,0
288,120,61857,2,0,B|384:176|408:288,1,195,0|8
432,328,62531,6,0,B|224:328,1,195,0|8
112,320,63373,2,0,B|64:264|80:200,1,130,0|8
208,216,64048,1,0
208,216,64216,1,0
320,152,64553,2,0,B|112:152,1,195,0|8
104,88,65227,6,0,B|312:88,1,195,4|8
432,80,66070,2,0,B|512:80,2,65,0|8|8
400,136,66576,2,0,B|400:352,1,195,0|8
280,352,67418,2,0,B|208:352,2,65,0|8|8
280,224,68093,6,0,B|280:72,1,130,4|8
160,40,68767,2,0,B|160:176,1,130,4|8
144,296,69441,2,0,B|216:296,3,65,0|0|0|4
120,200,70284,5,4
144,72,70621,6,0,B|248:248,1,195,0|8
312,128,71463,2,0,B|376:168|352:256,1,130,0|8
248,312,72137,2,0,B|168:312,2,65,0|0|8
304,272,72643,2,0,B|384:208|392:80,1,195,0|8
344,56,73317,6,0,B|144:56,1,195,0|8
104,176,74160,2,0,B|176:176,2,65,0|0|8
184,280,74834,1,0
184,280,75003,1,0
296,344,75340,2,0,B|88:352,1,195,0|8
48,312,76014,6,0,B|216:176,1,195,4|8
280,288,76857,1,0
400,136,77362,2,0,B|400:336,1,195,4|8
280,288,78205,1,0
208,176,78542,6,0,B|272:160,1,65
336,160,78879,1,4
240,72,79216,1,8
128,144,79553,1,4
104,272,79890,2,0,B|176:312,1,65,8|4
288,288,80396,2,0,B|360:256,1,65
400,152,80902,1,0
400,152,81070,1,0
280,192,81407,1,0
256,48,92194,6,0,B|176:112|232:232,1,195,0|8
320,320,93036,2,0,B|184:320,1,130,0|8
192,256,93542,2,0,B|200:152|88:104,1,195,0|8
32,224,94385,2,0,B|120:328,1,130,0|8
184,328,94890,2,0,B|384:328,1,195,0|8
280,248,95733,2,0,B|152:248,1,130,0|8
152,184,96239,1,0
152,312,96576,1,0
152,312,96744,1,8
224,208,97081,5,2
296,96,97418,1,8
344,48,97587,6,0,B|344:256,1,195,0|8
216,264,98430,1,0
216,264,98598,1,0
216,264,98767,1,8
88,248,99104,1,0
176,152,99441,1,8
176,152,99609,1,0
96,56,99946,6,0,B|168:56,1,65,0|8
280,104,100452,1,0
296,232,100789,1,8
176,264,101126,1,0
120,144,101463,2,0,B|96:72,1,65,8|0
224,48,101969,2,0,B|288:48,1,65,0|8
216,160,102475,5,2
120,248,102812,1,8
96,312,102980,6,0,B|304:312,1,195,4|8
256,184,103823,2,0,B|336:184,1,65
376,144,104160,1,8
400,80,104328,2,0,B|176:80,1,195,0|8
128,184,105171,2,0,B|48:184,1,65
80,248,105508,1,8
136,272,105677,6,0,B|328:216,1,195,0|8
352,88,106520,2,0,B|352:168,3,65,0|0|8|0
264,56,107362,1,0
264,56,107531,1,8
248,184,107868,5,2
376,224,108205,1,8
424,272,108373,5,0
296,312,108711,2,0,B|232:256,1,65,0|8
160,176,109216,2,0,B|128:264,1,65
80,208,109553,1,8
64,144,109722,1,0
152,48,110059,2,0,B|216:48,2,65,0|8|0
264,112,110733,2,0,B|328:112,2,65,0|8|0
232,168,111239,1,4
48,352,111913,1,4
232,320,112418,1,4
432,64,113261,5,8
368,176,113598,1,8
240,216,113935,1,4
184,248,114272,6,0,B|216:304|296:312,1,130,0|8
320,296,115115,1,0
352,280,115284,1,0
368,256,115452,1,0
392,200,115789,1,0
360,144,116126,1,0
360,144,116295,2,0,B|328:120,2,32.5,8|0|4
272,48,116969,6,0,B|200:48,2,65,0|0|8
288,80,117812,1,0
296,112,117980,1,0
288,144,118149,1,0
248,192,118486,1,0
200,152,118823,2,0,B|160:136,3,32.5,0|8|0|4
168,208,119666,6,0,B|232:232,2,65,0|0|8
120,256,120677,2,0,B|168:304,3,65,4|0|0|8
232,304,122025,1,4
312,208,122699,1,4
312,112,123205,1,4
256,192,123542,12,4,124722
112,96,125059,5,8
184,160,125396,1,8
280,128,125733,1,8
336,208,126070,1,8
400,280,126407,2,0,B|464:280,2,48.7499985471368,8|0|8
320,344,127081,5,4
352,256,127418,2,0,B|424:184,1,97.4999970942737,4|8
420,187,127924,1,4
368,104,128261,1,0
368,104,128430,1,4
264,112,128767,2,0,B|176:136,3,65,4|4|4|4
416,328,129946,6,0,B|200:328,1,195,0|8
304,232,130789,2,0,B|304:96,1,130,0|8
200,184,131463,1,0
200,184,131632,1,0
200,312,131969,1,0
392,304,132643,6,0,B|456:208|368:112,1,195,0|8
256,72,133486,2,0,B|328:72,5,65,0|0|8|0|0|0
352,200,134666,1,0
136,48,135340,6,0,B|336:48,1,195,4|8
248,136,136182,1,0
384,272,136688,2,0,B|160:272,1,195,4|8
280,184,137531,1,0
168,240,137868,6,0,B|144:176,2,65,8|0|4
248,136,138542,1,8
376,160,138879,1,4
312,272,139216,1,8
184,232,139553,2,0,B|104:208,3,65,0|0|0|4
384,200,140733,6,0,B|344:296|200:288,1,195,0|8
240,160,141576,2,0,B|288:104,3,65,0|0|8|0
304,48,142250,1,0
360,80,142418,1,0
240,48,142755,1,0
64,240,143430,5,0
160,328,143767,2,0,B|240:336,1,65,0|8
352,320,144272,2,0,B|448:216,1,130,0|8
384,104,144946,2,0,B|240:56,1,130,0|8
200,56,145452,1,0
400,224,146126,6,0,B|336:312|216:312,1,195,4|8
168,312,146800,2,0,B|96:304,1,65
88,112,147475,2,0,B|168:56|272:120,1,195,4|8
328,152,148149,2,0,B|376:208,1,65
248,232,148654,6,0,B|160:232,2,65,8|0|4
248,104,149328,1,8
376,88,149666,1,4
344,216,150003,1,8
344,216,150171,2,0,B|288:312|168:296,1,195,4|0
64,240,151014,2,0,B|104:160,1,65
216,144,151520,1,0
280,136,151688,5,8
400,184,152025,1,10
376,312,152362,2,0,B|448:296,2,65,8|8|10
256,272,153036,6,0,B|128:224,1,130,8|10
136,88,153711,1,8
200,88,153879,1,8
136,88,154048,1,10
232,168,154385,5,8
232,168,154722,1,10
320,264,155059,1,8
376,232,155227,1,8
432,200,155396,1,10
424,72,155733,5,8
296,40,156070,1,10
384,136,156407,2,8,B|344:192,1,65
280,168,156744,1,10
200,64,157081,6,0,B|200:192,1,130,8|10
328,224,157755,2,0,B|400:224,2,65,4|4|8
256,328,158430,2,0,B|128:328,1,130,8|10
112,200,159104,2,0,B|112:120,2,65,4|4|8
216,120,159778,2,0,B|280:120,2,65,8|0|4
216,248,160452,2,0,B|136:248,2,65,8|0|4
344,280,161126,6,0,B|392:216,1,65,8|4
352,104,161632,1,4
224,72,161969,1,4
128,160,162306,1,4
256,48,184048,6,0,B|256:112,1,65,4|8
256,176,184722,2,0,B|184:176,1,65,2|8
128,184,185396,2,0,B|88:184,2,32.5,2|0|8
136,248,186070,2,0,B|168:248,2,32.5,2|0|8
72,256,186744,2,0,B|32:200,1,65,2|8
72,152,187418,2,0,B|136:120,1,65,2|8
168,72,188093,2,0,B|200:72,2,32.5,2|0|8
184,136,188767,2,0,B|216:136,2,32.5,2|0|8
176,200,189441,6,0,B|216:264,1,65,4|8
272,280,190115,1,2
272,280,190452,1,8
336,264,190789,2,0,B|392:216,1,65,2|8
408,160,191463,2,0,B|448:160,2,32.5,2|0|8
352,128,192137,1,2
352,128,192475,1,8
288,112,192812,1,2
288,112,193149,1,8
248,64,193486,2,0,B|208:64,2,32.5,2|0|8
312,56,194160,2,0,B|376:56,1,65,2|8
424,96,194834,6,0,B|440:168,3,65,4|8|2|8
432,224,196182,2,0,B|376:264,1,65,2|8
344,312,196857,2,0,B|272:312,1,65,2|8
240,256,197531,2,0,B|168:240,3,65,2|8|2|8
160,176,198879,2,0,B|120:176,2,32.5,2|0|8
136,120,199553,6,0,B|192:80,1,65,2|8
248,112,200227,2,0,B|248:176,1,65,4|8
272,240,200902,2,0,B|304:240,2,32.5,2|0|8
232,288,201576,2,0,B|160:288,1,65,2|8
112,248,202250,2,0,B|112:176,1,65,2|8
160,136,202924,1,2
160,136,203093,1,0
160,136,203261,1,8
200,88,203598,2,0,B|232:88,2,32.5,2|0|8
152,48,204272,2,0,B|80:40,1,65,2|8
48,96,204946,2,0,B|48:136,2,32.5,2|0|8
112,208,205621,5,4
112,208,205789,1,0
240,216,206126,1,0
240,216,206295,1,0
368,216,206632,2,0,B|448:216,5,65
240,192,207980,5,4
128,120,208317,6,0,B|56:120,3,65
240,192,209328,5,4
256,192,209666,12,4,211014
256,192,212531,5,8
256,192,212868,1,8
256,192,213205,2,0,B|256:120,1,65,8|4
136,72,213711,6,0,B|272:72,1,130,0|8
392,112,214385,2,0,B|320:232,1,130,0|8
200,264,215059,1,0
200,264,215227,1,0
120,160,215564,2,0,B|200:96|320:72,1,195,0|8
360,80,216239,6,0,B|360:208,1,130,4|0
360,272,216744,1,8
360,272,217081,1,0
168,272,217587,2,0,B|168:112,1,130,4|0
168,80,218093,1,8
168,80,218430,1,0
272,160,218767,5,8
320,208,218935,1,0
352,264,219104,2,0,B|216:264,1,130,4|8
224,136,219778,2,0,B|88:136,1,130,4|8
136,256,220452,2,0,B|232:312|344:280,1,195,0|4
96,40,221632,6,0,B|96:240,1,195,0|8
224,240,222475,2,0,B|272:176,2,65,0|0|8
320,320,223149,1,0
320,320,223317,1,0
320,320,223654,1,0
320,64,224328,6,0,B|200:40|136:152,1,195,0|8
224,240,225171,1,0
224,240,225340,1,0
224,240,225508,1,8
344,288,225845,2,0,B|400:240,1,65
416,120,226351,1,0
144,304,227194,5,4
144,304,228542,1,4
392,232,229216,1,4
144,152,229890,2,0,B|248:56,3,130,4|0|4|0
296,96,231070,1,4
72,328,231913,1,0
72,328,232081,1,0
256,192,232418,12,4,233935
256,192,234272,5,8
360,120,234609,2,0,B|408:168,2,65,0|0|8
296,96,235115,1,0
168,72,235452,2,0,B|120:136,1,65,0|8
192,240,235958,2,0,B|264:240,3,65,0|0|8|0
440,296,236969,5,8
344,208,237306,2,0,B|264:168,2,65,0|0|8
344,208,237812,1,0
224,264,238149,2,0,B|144:264,1,65,0|8
128,136,238654,2,0,B|192:136,3,65,0|0|8|0
128,320,239666,5,8
240,256,240003,2,0,B|312:248,2,65,0|0|8
240,256,240508,1,0
128,192,240845,1,0
128,192,241014,1,8
96,64,241351,2,0,B|240:72,1,130,0|8
225,71,241857,1,0
384,112,242362,5,8
424,240,242699,2,0,B|272:272,1,130,0|8
296,266,243205,1,0
184,200,243542,1,0
184,200,243711,1,8
168,72,244048,2,0,B|240:72,4,65,0|0|8|0|4
248,184,245059,5,8
336,280,245396,2,0,B|208:336,1,130,0|8
168,288,245902,1,0
72,200,246239,2,0,B|72:136,1,65,0|8
192,72,246744,2,0,B|256:72,3,65,0|0|8|0
336,248,247755,5,8
208,216,248093,2,0,B|96:296,1,130,0|8
64,240,248598,1,0
80,112,248935,1,0
80,112,249104,1,8
160,216,249441,1,0
160,216,249609,1,0
224,240,249778,1,8
224,240,249946,2,0,B|280:184,1,65,0|4
320,80,250452,5,8
192,64,250789,2,0,B|120:64,3,65,0|0|8|0
72,184,251632,2,0,B|96:248,1,65,0|8
224,272,252137,2,0,B|304:280,4,65,0|0|8|0|4
376,152,253317,1,4
184,192,253823,1,4
256,192,254497,12,4,255508
