osu file format v7

[General]
AudioFilename: Baka_to_Test_to_Shoukanjuu_-_Baka_Go_Home_TV_Size.mp3
AudioLeadIn: 0
PreviewTime: 36313
Countdown: 1
SampleSet: Normal
StackLeniency: 0.7
Mode: 0
LetterboxInBreaks: 1

[Editor]
DistanceSpacing: 0.800000011920929
BeatDivisor: 4
GridSize: 8

[Metadata]
Title:Baka Go Home (TV Size)
Artist:Milktub
Creator:salazar84
Version:Fool
Source:Baka To Test To Shoukanjuu
Tags:Anime

[Difficulty]
HPDrainRate:2
CircleSize:4
OverallDifficulty:0
SliderMultiplier:1.7
SliderTickRate:0.5

[Events]
//Background and Video events
Video,0,"Baka go Home.wmv"
0,0,"Baka%20to%20Test%20to%20Shoukanjuu%20-%20OP%20-%20Large%2001.jpg"
//Break Periods
//Storyboard Layer 0 (Background)
//Storyboard Layer 1 (Fail)
//Storyboard Layer 2 (Pass)
//Storyboard Layer 3 (Foreground)
//Storyboard Sound Samples
//Background Colour Transformations
3,100,163,162,255

[TimingPoints]
1574,380.710659898477,4,1,0,100,1,0
1574,-100,4,1,0,100,0,1
6713,-100,4,1,0,100,0,0
7665,-100,4,1,0,100,0,1
12804,-100,4,1,0,100,0,0
54683,-100,4,1,0,100,0,1
66104,-100,4,1,0,100,0,0
84759,-100,4,1,0,100,0,1
85235,-100,4,1,0,100,0,0

[Colours]
Combo1 : 0,0,255
Combo2 : 255,0,0
Combo3 : 128,0,0
Combo4 : 0,128,128
Combo5 : 255,128,64

[HitObjects]
40,96,1574,1,0
104,96,1954,1,0
104,176,2335,1,0
144,176,2525,1,0
200,176,2811,1,0
256,176,3192,1,0
336,176,3572,1,0
24,144,4619,5,2
24,144,4810,1,2
152,144,5381,1,2
152,144,5571,1,2
248,224,6142,1,2
288,224,6332,1,2
360,224,6713,1,6
24,256,7665,5,0
128,256,8046,1,0
224,272,8426,1,0
224,224,8617,1,0
224,128,8997,1,0
328,128,9378,1,0
448,128,9759,1,0
32,192,10711,5,2
32,192,10901,1,2
160,192,11472,1,2
160,192,11662,1,2
280,192,12233,1,2
320,192,12424,1,2
424,192,12804,1,6
0,32,13851,6,0,L|96:32,1,85
160,32,14613,2,0,L|160:128,1,85
160,184,15374,1,0
192,184,15565,1,0
288,184,16136,2,0,L|384:184,1,85
464,208,16897,1,0
464,240,17087,1,0
400,320,17659,2,0,L|304:320,1,85
232,320,18325,1,0
216,320,18515,2,0,L|216:96,2,212.5,0|2|2
512,160,19943,6,0,L|416:160,1,85
384,224,20704,1,0
384,224,20895,1,0
320,160,21466,2,0,L|224:160,1,85
192,224,22227,1,0
192,224,22417,1,0
128,160,22988,2,0,L|32:160,1,85
16,240,23750,1,0
16,240,23940,1,0
64,288,24321,2,4,L|160:288,3,85,4|0|4|0
0,32,26034,6,0,L|0:128,1,85
64,120,26415,2,0,L|64:24,1,85
128,32,26796,2,0,L|128:128,1,85
192,120,27176,2,0,L|192:32,1,85
256,32,27557,2,0,L|256:128,1,85
328,112,27938,2,0,L|328:16,1,85
384,32,28318,2,0,L|384:152,1,85
448,120,28699,2,0,L|448:16,1,85
448,104,29080,2,0,L|448:200,1,85
416,248,29461,2,0,L|416:152,1,85
360,200,29841,2,0,L|360:312,1,85
288,288,30222,1,0
288,288,30412,2,0,L|64:288,3,212.5,0|2|2|2
32,288,32126,6,0,L|117:288,1,85
120,224,32506,2,0,L|35:224,1,85
32,160,32887,2,0,L|117:160,1,85
120,96,33268,2,0,L|35:96,1,85
40,32,33648,2,0,L|125:32,1,85
192,32,34029,2,0,L|277:32,1,85
277,96,34410,2,0,L|192:96,1,85
195,160,34790,2,0,L|280:160,1,85
277,224,35171,2,0,L|192:224,1,85
195,288,35552,2,0,L|280:288,1,85
280,352,35933,2,0,L|368:352,1,85
448,104,36504,5,0
448,184,36694,1,0
448,256,36884,1,0
448,344,37075,1,0
160,352,37836,1,0
160,280,38027,1,0
160,208,38217,1,0
160,136,38407,1,0
160,64,38598,1,0
64,88,39835,5,0
64,152,40120,1,0
64,224,40406,1,0
96,256,40596,1,0
128,288,40787,1,0
160,320,40977,1,0
256,192,41358,5,0
256,192,41738,1,0
256,192,42119,1,0
256,192,42500,1,0
416,64,42881,5,0
416,112,43071,1,0
416,208,43452,1,0
384,248,43642,1,0
352,288,43832,1,0
320,320,44023,1,0
256,192,44403,5,0
256,192,44784,1,0
256,192,45165,1,0
256,192,45546,1,0
416,32,46021,5,0
416,32,46307,1,0
416,72,46593,1,0
416,96,46783,1,0
416,128,46973,2,0,L|416:224,1,85
416,232,47354,1,0
416,256,47544,1,0
416,288,47735,2,0,L|320:288,1,85
64,96,48306,5,0
64,96,48591,1,0
64,96,48782,1,0
64,96,48972,2,0,L|256:96,1,170
234,96,49543,1,0
234,96,49733,2,0,L|234:296,1,170
234,266,50304,1,0
234,266,50495,1,0
234,266,50685,1,0
234,266,50876,1,0
234,266,51066,2,0,L|493:266,1,255
489,266,51827,1,0
489,266,52018,1,0
512,201,52398,5,0
512,160,52589,1,0
511,115,52779,1,0
416,128,53160,1,0
384,128,53350,1,0
352,128,53541,1,0
320,128,53731,1,0
288,128,53921,1,0
256,128,54112,1,0
224,128,54302,1,0
152,8,54778,6,0,L|0:8|120:192|0:376|240:376,1,807.5
256,192,56967,5,0
256,192,57157,1,0
256,192,57348,1,0
288,8,57823,6,0,L|512:8|400:192|512:384|328:384,1,807.5
256,192,60013,5,0
256,192,60203,1,0
256,192,60393,1,0
256,192,60584,1,0
240,32,60869,6,0,L|120:72|80:208|128:336|296:376|424:336|424:216,1,807.5
424,240,63058,5,0
424,240,63249,1,0
424,240,63439,1,0
512,104,63820,6,0,L|256:104|256:192|520:192|520:304|296:304,1,935
296,304,66104,1,0
480,32,66865,5,0
480,32,67246,1,0
480,32,67532,2,0,L|480:256,1,212.5
480,288,68388,5,0
480,288,68769,1,0
480,288,69150,2,0,L|288:288,1,170
320,288,69911,5,0
320,288,70292,1,0
320,288,70672,2,0,L|128:288,1,170
160,288,71434,5,0
160,288,71815,1,0
160,288,72195,2,0,L|160:192,2,85
376,112,72957,5,0
176,112,73337,1,0
176,296,73718,1,0
368,296,74099,1,0
256,192,74480,1,0
256,192,74860,1,0
256,192,75241,1,0
256,192,75622,1,0
256,192,76002,12,0,78667
256,192,78953,12,0,82760
