osu file format v7

[General]
AudioFilename: Baka_to_Test_to_Shoukanjuu_-_Baka_Go_Home_TV_Size.mp3
AudioLeadIn: 0
PreviewTime: 36313
Countdown: 1
SampleSet: Normal
StackLeniency: 0.7
Mode: 0
LetterboxInBreaks: 1

[Editor]
DistanceSpacing: 0.800000011920929
BeatDivisor: 4
GridSize: 8

[Metadata]
Title:Baka Go Home (TV Size)
Artist:Milktub
Creator:salazar84
Version:Baka
Source:Baka To Test To Shoukanjuu
Tags:Anime

[Difficulty]
HPDrainRate:7
CircleSize:5
OverallDifficulty:5
SliderMultiplier:1.7
SliderTickRate:1

[Events]
//Background and Video events
Video,0,"Baka go Home.wmv"
0,0,"Baka%20to%20Test%20to%20Shoukanjuu%20-%20OP%20-%20Large%2001.jpg"
//Break Periods
//Storyboard Layer 0 (Background)
//Storyboard Layer 1 (Fail)
//Storyboard Layer 2 (Pass)
//Storyboard Layer 3 (Foreground)
//Storyboard Sound Samples
//Background Colour Transformations
3,100,163,162,255

[TimingPoints]
1574,380.710659898477,4,1,0,100,1,0
1574,-100,4,1,0,100,0,1
6713,-100,4,1,0,100,0,0
7665,-100,4,1,0,100,0,1
12804,-100,4,1,0,100,0,0
54683,-100,4,1,0,100,0,1
66104,-100,4,1,0,100,0,0
84759,-100,4,1,0,100,0,1
85235,-100,4,1,0,100,0,0

[Colours]
Combo1 : 0,0,255
Combo2 : 255,0,0
Combo3 : 128,0,0
Combo4 : 0,128,128
Combo5 : 255,128,64

[HitObjects]
512,192,1574,5,0
416,192,1954,1,0
328,192,2335,1,0
288,192,2525,1,0
192,192,2906,2,0,L|256:192,2,42.5
192,192,3287,2,0,L|192:128,2,42.5
192,192,3667,2,0,L|128:192,2,42.5
432,192,4619,5,2
400,192,4809,1,2
368,192,5000,1,2
64,192,5380,1,2
104,192,5571,1,2
136,192,5761,1,2
256,64,6142,1,2
256,96,6332,1,2
256,192,6713,1,2
432,64,7665,5,0
440,136,8045,2,0,L|496:160|464:240|512:344|480:344,1,255
424,336,8997,1,0
392,336,9092,1,0
360,336,9188,1,0
312,272,9378,1,0
288,272,9473,1,0
264,272,9568,1,0
256,200,9759,1,0
224,200,9854,1,0
200,200,9949,1,0
192,104,10711,6,2,L|336:232,1,170
320,104,11473,2,2,L|176:224,1,170
192,288,12234,1,0
232,288,12425,1,0
320,288,12805,1,0
472,48,13851,5,0
472,80,14042,1,0
472,112,14232,1,0
472,144,14422,1,0
472,176,14613,2,0,L|472:232,1,42.5
472,280,14994,2,0,L|416:280,2,42.5
352,280,15374,5,0
312,280,15565,1,0
272,280,15755,1,0
240,280,15945,1,0
192,280,16136,2,0,L|136:280,1,42.5
80,280,16516,2,0,L|80:232,2,42.5
0,8,16897,5,0
32,40,17087,1,0
64,72,17278,1,0
88,104,17468,1,0
112,128,17659,2,0,L|160:176,1,42.5
192,192,18039,2,0,L|256:192,2,42.5
296,192,18420,1,0
344,192,18610,1,0
368,192,18705,2,0,L|544:192,2,170,0|2|2
56,296,19943,5,0
80,272,20133,1,0
112,296,20324,1,0
136,272,20514,1,0
168,296,20704,2,0,L|232:296,1,42.5
456,184,21466,5,0
424,160,21656,1,0
392,184,21846,1,0
360,152,22132,1,0
360,152,22227,2,0,L|160:152,1,170
232,40,22988,5,0
272,64,23179,1,0
232,88,23369,1,0
272,112,23560,1,0
232,136,23750,1,0
264,160,24131,2,0,L|264:272,4,85,0|4|4|4|0
32,256,26034,5,0
56,232,26225,1,0
88,256,26415,1,0
112,232,26605,1,0
136,256,26796,1,0
168,232,26891,1,0
96,112,27557,5,0
120,88,27747,1,0
152,112,27938,1,0
176,88,28128,1,0
200,112,28223,1,0
232,88,28414,1,0
264,88,28699,1,0
360,56,29080,5,0
392,80,29270,1,0
352,96,29461,1,0
392,120,29651,1,0
352,136,29841,1,0
384,152,30127,1,0
352,184,30412,1,0
352,184,30603,2,0,L|176:184,3,170,0|2|2|2
32,48,32126,6,0,L|120:120,1,85
97,101,32506,2,0,L|16:184,1,85
32,192,32887,1,0
32,208,32982,1,0
424,48,33648,6,0,L|336:120,1,85
358,101,34029,2,0,L|439:191,1,85
416,184,34410,1,0
416,200,34505,1,0
416,248,34791,1,0
336,64,35171,5,0
288,64,35362,1,0
240,64,35552,1,0
192,64,35742,1,0
144,64,35933,2,0,L|96:64|96:120,1,85
96,168,36313,5,0
136,168,36504,1,0
144,168,36599,1,0
152,168,36694,1,0
160,168,36789,1,0
168,168,36884,1,0
176,168,36980,1,0
184,168,37075,1,0
264,176,37455,6,0,L|264:128,2,42.5
344,168,37836,5,0
368,168,38027,1,0
376,168,38122,1,0
384,168,38217,1,0
392,168,38312,1,0
400,168,38407,1,0
408,168,38502,1,0
416,168,38598,1,0
8,48,39740,5,0
96,48,40120,1,0
136,48,40406,1,0
176,48,40596,1,0
216,48,40787,1,0
256,48,40977,1,0
312,48,41167,2,0,L|360:48,2,42.5
440,48,41548,2,0,L|440:112,2,42.5
440,152,41929,2,0,L|440:208,2,42.5
440,256,42310,2,0,L|440:304,2,42.5
368,272,42785,5,0
304,272,43071,1,0
264,272,43166,1,0
216,272,43452,1,0
176,272,43642,1,0
136,272,43832,1,0
96,272,44023,1,0
96,208,44403,5,0
96,144,44689,1,0
104,104,44784,1,0
120,72,45070,1,0
152,48,45260,1,0
184,40,45450,1,0
232,32,45641,1,0
416,56,45926,5,0
384,88,46117,2,0,L|336:136,1,42.5
320,152,46497,1,0
288,176,46688,1,0
256,200,46878,1,0
224,224,47068,1,0
192,248,47259,1,0
160,272,47449,1,0
120,296,47639,1,0
88,312,47830,1,0
48,8,48211,5,0
48,48,48591,1,0
48,88,48782,1,0
48,120,48972,2,0,L|112:120|152:120|152:192,1,170
152,208,49543,1,0
152,240,49733,2,0,L|152:336|232:336,1,170
256,336,50304,1,0
296,336,50495,1,0
336,336,50685,1,0
376,336,50876,1,0
416,336,51066,2,0,L|504:336|504:168|448:168,1,297.5
416,168,51922,5,0
368,168,52113,2,0,L|368:80|280:80,1,170
256,80,52684,1,0
208,80,52874,1,0
256,184,53160,5,0
256,184,53541,1,0
256,184,53921,1,0
256,184,54302,1,0
256,184,54683,6,0,L|376:184,1,85
256,184,55063,2,0,L|344:112,1,85
256,184,55444,2,0,L|256:64,1,85
256,184,55825,2,0,L|168:96,1,85
256,184,56205,2,0,L|144:184,1,85
256,184,56586,2,0,L|256:304,1,85
256,269,56967,2,0,L|357:269,3,85
352,336,57728,6,0,L|464:336,1,85
440,280,58109,2,0,L|328:280,1,85
352,224,58490,2,0,L|456:224,1,85
440,168,58870,2,0,L|336:168,1,85
352,112,59251,2,0,L|448:112,1,85
440,56,59632,2,0,L|344:56,1,85
256,56,60013,1,0
256,56,60203,1,0
256,56,60393,1,0
256,56,60584,1,0
152,32,60774,6,0,L|48:32,1,85
72,88,61155,2,0,L|184:88,1,85
160,144,61535,2,0,L|40:144,1,85
72,200,61916,2,0,L|184:200,1,85
160,256,62297,2,0,L|56:256,1,85
72,312,62678,2,0,L|184:312,1,85
256,312,63058,1,0
256,312,63249,1,0
256,312,63439,1,0
256,312,63629,1,0
512,184,63820,6,0,L|400:184,1,85
432,128,64200,2,0,L|344:128,1,85
352,184,64581,2,0,L|248:184,1,85
264,128,64962,2,0,L|176:128,1,85
176,184,65343,2,0,L|64:184,1,85
88,128,65723,2,0,L|-8:128,1,85
3,128,66104,1,0
32,264,66961,5,0
32,264,67246,1,0
32,264,67532,2,0,L|88:200|160:288|216:192|296:304,1,425
320,296,68864,1,0
360,296,69150,1,0
400,296,69340,1,0
440,272,69530,1,0
448,232,69721,1,0
448,192,69911,1,0
448,160,70197,5,0
448,112,70577,1,0
424,80,70958,1,0
376,64,71339,1,0
328,64,71719,1,0
272,64,72005,2,0,L|184:64,3,85
256,184,72957,5,0
256,184,73337,1,0
256,184,73718,1,0
256,184,74099,1,0
176,104,74480,2,0,L|80:104,1,85
112,232,74860,2,0,L|216:232,1,85
352,232,75241,2,0,L|448:232,1,85
432,104,75622,2,0,L|328:104,1,85
256,192,76002,12,0,78667
256,192,78953,12,2,82094
256,192,82284,5,2
256,192,82475,1,2
256,192,82855,5,2
256,192,83046,1,2
256,192,83236,1,2
376,288,83617,5,2
336,288,83808,1,2
304,288,83998,1,2
272,288,84189,1,2
240,288,84379,1,2
208,288,84569,1,2
176,288,84760,1,6
