osu file format v5

[General]
AudioFilename: 01-milk_inc-forever-gti.mp3
AudioLeadIn: 1985
PreviewTime: -1
Countdown: 0
SampleSet: Soft
StackLeniency: 0.2
Mode: 0
LetterboxInBreaks: 1

[Editor]
DistanceSpacing: 0.899999976158142
BeatDivisor: 4
GridSize: 16

[Metadata]
Title:Forever
Artist:Milk Inc.
Creator:yeahyeahyeahhh
Version:Soon
Source:
Tags:Milk Inc, Dance, Trance, Forever, 0_o

[Difficulty]
HPDrainRate:4
CircleSize:4
OverallDifficulty:4
SliderMultiplier:1.4
SliderTickRate:1

[Events]
//Background and Video events
0,0,"B001W9SY06.jpg"
Video,530,"Milk Inc. - Forever.avi"
//Break Periods
2,35854,39477
2,112997,125191
2,136568,138905
//Storyboard Layer 0 (Background)
//Storyboard Layer 1 (Fail)
//Storyboard Layer 2 (Pass)
//Storyboard Layer 3 (Foreground)
Sprite,Foreground,Centre,"0_o.png",320,240 M,0,15082,,565,415 F,0,15082,15940,0,1 F,0,15940,17225,1 F,0,17225,18511,1,0 F,0,18511,,0
//Storyboard Sound Samples
//Background Colour Transformations
3,100,0,0,0

[TimingPoints]
940,428.571428571429,4,2,0,74,1,0
14975,-200,4,2,0,81,0,0
28582,-100,4,1,0,100,0,0
40368,-100,4,1,0,100,0,0
56225,-100,4,1,0,0,0,0
56654,-100,4,1,0,50,0,0
85368,-100,4,1,0,100,0,1
125225,-100,4,1,0,80,0,0
133582,-100,4,1,0,61,0,0
134225,-100,4,1,0,48,0,0
139797,-100,4,1,0,71,0,0
146868,-100,4,1,0,80,0,0
150297,-100,4,1,0,91,0,0
153725,-100,4,1,0,80,0,0
153940,-100,4,1,0,100,0,1
167440,-100,4,1,0,100,0,0
167654,-100,4,1,0,100,0,1

[Colours]
Combo1 : 158,33,115
Combo2 : 187,113,0
Combo3 : 70,201,67
Combo4 : 20,50,154

[HitObjects]
64,96,15082,2,0,B|128:48|208:96,1,140,4|2
224,144,16368,2,0,B|256:208|336:224,1,140
400,240,17654,5,8
304,320,18511,2,2,B|208:368|208:256|112:320,1,175
80,336,20011,2,0,B|32:288|96:240|64:144,1,175
160,112,21940,5,4
256,32,22582,1,2
352,112,23225,1,0
256,224,24511,1,2
256,224,24940,1,0
256,192,25368,12,0,27940
48,32,28797,6,0,B|173:17|334:121|368:272,1,420,4|0
352,320,30297,2,0,B|192:320,2,140
416,288,31368,5,4
464,176,31797,1,8
464,48,32225,2,2,B|336:0|160:112|32:32,1,420
18,101,33725,2,2,B|108:132|151:131|205:128|272:111,1,210
350,107,34797,2,0,B|440:86|517:156,1,140,4|8
480,256,35654,1,4
256,96,40797,5,0
368,192,41225,1,0
256,288,41654,1,0
128,192,42082,1,0
64,80,42511,6,0,B|208:80,1,140,4|8
253,119,43154,1,0
298,162,43368,2,0,B|442:162,1,140,0|8
480,280,44225,6,2,B|416:328|360:280,1,105,2|0
320,216,44868,2,2,B|296:152|216:144,1,105,2|0
176,80,45511,2,4,B|88:104|72:200,1,140
56,296,46368,5,8
104,336,46582,1,0
156,301,46797,2,0,B|313:301,1,140,0|8
342,257,47440,1,0
296,208,47654,2,0,B|144:208,2,140,4|8|4
360,208,48725,1,0
424,208,48940,2,2,B|480:144|416:64,1,140
304,48,49797,5,8
240,64,50011,1,0
192,112,50225,2,0,B|128:176|200:248,1,140,0|8
288,312,51082,6,2,B|360:288|368:216,1,105,2|0
360,144,51725,2,2,B|336:88|272:64,1,105,2|0
264,192,52368,2,4,B|112:192,1,140
160,72,53225,5,8
352,72,53654,1,8
256,208,54082,1,8
256,192,54511,12,0,56225
96,80,57511,5,0
168,176,57940,2,0,B|320:176,1,140,4|0
368,176,58582,2,0,B|432:264|352:320,1,140,0|0
312,336,59225,1,4
240,232,59654,6,4,B|176:184|96:224,1,140,4|0
56,256,60297,2,0,B|8:184|56:104,1,140,0|0
80,72,60940,1,8
176,144,61368,6,4,B|256:136|320:80,1,140
344,48,62011,2,2,B|432:64|464:112|472:168|456:224,1,210
440,256,62868,1,4
336,328,63297,2,0,B|240:328,1,70,0|8
264,200,63940,2,0,B|96:200,1,140,0|8
128,72,64797,6,0,B|32:72|16:176,1,140,4|0
48,208,65440,2,2,B|40:304|168:344,1,140,2|0
168,288,66082,1,4
176,160,66511,6,4,B|216:80|328:88,1,140
328,136,67154,2,2,B|344:216|440:248,1,140,2|0
464,256,67797,1,8
328,320,68225,6,0,B|240:344|160:312,2,140,0|8|0
376,280,69297,1,0
400,224,69511,1,8
376,168,69725,2,2,B|288:120|264:216|120:120,1,210
88,72,70797,5,4
16,192,71225,1,8
88,320,71654,2,2,B|232:320,1,140,4|0
256,264,72297,2,2,B|112:264,1,140,0|0
144,208,72940,2,4,B|288:208,1,140,4|4
344,96,73797,1,8
448,160,74225,6,4,B|488:240|432:304,1,140
312,320,75082,2,2,B|176:288|176:184|352:192|296:88|176:64,1,350
136,176,76582,2,0,B|128:264|48:312,1,140,4|0
24,256,77225,1,8
24,128,77654,5,4
128,64,78082,1,4
248,48,78511,2,6,B|336:48|400:136,1,140,6|4
400,160,79154,2,2,B|312:176|240:264,1,140,2|0
304,280,79797,2,0,B|464:280,2,140,12|0|8
256,160,81082,1,0
208,280,81511,1,0
256,192,81725,12,0,83654
304,64,84511,5,0
432,128,85368,6,0,B|488:216|408:280,2,140,4|8|0
368,128,86440,1,0
312,160,86654,1,0
264,200,86868,2,2,B|168:224|80:184,1,140
64,168,87511,1,0
48,296,87940,5,4
160,344,88368,1,8
240,248,88797,2,2,B|216:168|128:144,2,140
264,304,89868,1,0
312,344,90082,1,0
376,352,90297,2,2,B|416:272|336:208|392:144|392:144,1,210,2|2
320,40,91368,6,0,B|168:40,1,140,4|8
80,112,92225,6,4,B|24:184|40:264|72:312|144:328|176:336|224:336|280:328|328:280,1,420
344,256,93725,2,2,B|384:176|480:152,1,140
496,128,94368,1,8
384,56,94797,5,4
256,56,95225,1,2
128,56,95654,1,8
256,192,95868,12,0,97368
256,64,98225,5,0
128,80,98654,1,0
40,168,99082,6,0,B|-16:256|64:320,2,140,4|8|4
104,176,100154,1,0
168,192,100368,1,8
224,160,100582,2,2,B|320:136|408:176,1,140
416,192,101225,1,8
376,312,101654,5,4
256,264,102082,1,8
144,208,102511,2,2,B|88:152|176:104|144:80,2,140,6|2|2
176,256,103582,1,0
216,296,103797,1,2
272,320,104011,2,2,B|360:344|448:312|488:192,1,210,2|2
440,128,105082,6,0,B|376:88|296:120,2,140,4|8|4
368,232,106368,5,0
256,296,106797,2,2,B|176:296|136:216,1,140
112,168,107440,2,4,B|96:96|128:48|200:32,1,140
216,24,108082,1,8
328,72,108511,5,4
216,128,108940,1,8
256,248,109368,1,8
256,192,109582,12,4,112797
472,104,126511,6,4,B|400:64|312:112,1,140,4|0
288,136,127154,2,0,B|280:224|192:272,1,140
160,272,127797,1,0
128,72,129082,5,0
184,184,129511,1,0
232,304,129940,2,0,B|280:328|312:272|360:312|416:336,1,140,4|0
424,336,130582,2,2,B|472:272|384:240|456:160,1,140,0|2
440,72,131440,1,4
160,128,132511,5,0
256,48,132940,1,4
352,128,133368,1,0
352,128,134011,1,0
352,128,134654,1,0
256,248,135940,1,0
256,248,136368,1,0
32,128,140225,5,4
256,328,141940,1,4
480,128,143654,1,4
256,32,145368,1,0
256,128,145797,1,0
256,224,146225,1,0
256,320,146654,1,0
152,328,147082,6,0,B|0:328,1,140,4|8
80,240,147940,2,0,B|248:240,1,140,0|8
256,144,148797,1,0
292,240,149225,2,0,B|432:240,2,140,8|4|8
360,136,150511,5,0
320,24,150940,1,8
192,24,151368,1,8
152,136,151797,1,8
256,200,152225,6,0,B|256:352,2,140
256,72,153511,1,0
136,32,153940,6,0,B|48:40|8:136,2,140,4|8|0
200,48,155011,1,0
248,88,155225,1,8
288,136,155440,2,2,B|304:200|360:240|400:256,1,140
432,264,156082,1,8
328,336,156511,5,4
216,272,156940,1,8
112,200,157368,2,2,B|56:264|128:352,2,140,2|8|2
168,168,158440,1,0
224,136,158654,1,8
280,104,158868,2,2,B|344:56|384:128|440:128|496:96,1,210
392,192,159940,6,0,B|240:192,1,140,4|8
160,104,160797,6,4,B|72:112|48:192,1,140,4|8
96,296,161654,2,0,B|120:352|184:368|240:336,1,140,0|8
248,288,162297,2,2,B|256:200|344:176,1,140
376,136,162940,1,8
400,32,163368,6,4,L|256:0|120:32,1,280
136,136,164654,1,8
256,176,165082,1,8
384,136,165511,1,8
256,96,165940,5,0
256,224,166368,2,2,L|256:376,2,140
328,120,167654,6,0,B|256:80|168:128,2,140,4|8|0
376,160,168725,1,0
400,216,168940,1,2
392,280,169154,2,2,B|336:344|240:336,1,140
199,336,169797,2,0,B|132:344|76:280,1,140,8|0
144,176,170654,5,8
80,64,171082,2,2,B|160:40|232:64,1,140
272,88,171725,1,0
320,128,171940,2,4,B|336:216|408:256,1,140
424,296,172582,2,2,B|344:336|264:296,1,140
232,264,173225,2,0,B|168:224|56:272,2,140,8|4|8
152,360,174511,6,2,B|64:360|16:304|0:248|16:184|56:136,1,280
80,120,175582,1,0
144,136,175797,1,0
176,184,176011,2,4,B|200:272|256:328|344:344,1,210,4|8
432,344,177082,5,4
480,224,177511,1,2
448,104,177940,2,2,B|360:48|256:32|160:40|32:104,1,420
256,192,179440,12,4,181368
