osu file format v12

[General]
AudioFilename: Milk - Momotto Paradise! (Short Ver.).mp3
AudioLeadIn: 0
PreviewTime: 76195
Countdown: 0
SampleSet: None
StackLeniency: 0.7
Mode: 0
LetterboxInBreaks: 0

[Editor]
Bookmarks: 10220,30674,41593,52492,68866,77038,87871,87947,100220,105674
DistanceSpacing: 1.7
BeatDivisor: 4
GridSize: 4

[Metadata]
Title:Momotto Paradise! (Short Ver.)
TitleUnicode:ももっと☆ぱらだいす!(Short Ver.)
Artist:Milk
ArtistUnicode:みるく
Creator:Nyar
Version:Nyaradise! AR10
Source:妹ぱらだいす!2
Tags:eroge
BeatmapID:259402
BeatmapSetID:96867

[Difficulty]
HPDrainRate:8
CircleSize:4
OverallDifficulty:7
ApproachRate:10
SliderMultiplier:2.04
SliderTickRate:2

[Events]
//Background and Video events
Video,0,"video.avi"
0,0,"bg.png",0,0
//Break Periods
//Storyboard Layer 0 (Background)
//Storyboard Layer 1 (Fail)
//Storyboard Layer 2 (Pass)
//Storyboard Layer 3 (Foreground)
//Storyboard Sound Samples
//Background Colour Transformations
3,100,163,162,255

[TimingPoints]
10230,340.909090909091,4,1,1,100,1,0
10911,-100,4,1,2,100,0,0
10997,-100,4,1,1,100,0,0
11764,-100,4,1,1,100,0,0
12445,-100,4,1,1,70,0,0
24036,-100,4,1,1,100,0,0
25059,-100,4,1,1,70,0,0
30343,-55.5555555555556,4,1,1,70,0,0
30599,-100,4,2,1,5,0,0
30684,-100,4,1,1,70,0,0
33752,-100,4,1,3,70,0,0
33837,-100,4,1,1,70,0,0
52502,-100,4,2,1,80,0,0
55230,-100,4,2,2,80,0,0
56820,-100,4,2,1,80,0,0
61025,-100,4,2,2,80,0,0
61252,-100,4,2,1,80,0,0
61707,-100,4,2,2,80,0,0
61934,-100,4,2,1,80,0,0
62389,-100,4,2,2,80,0,0
62616,-100,4,2,1,80,0,0
63411,-200,4,2,1,80,0,0
63752,-200,4,1,2,80,0,0
63866,-200,4,2,1,80,0,0
64093,-100,4,2,1,80,0,0
65116,-133.333333333333,4,2,2,80,0,0
65343,-100,4,2,1,80,0,0
66139,-200,4,2,1,80,0,0
66480,-200,4,1,2,80,0,0
66593,-200,4,2,1,80,0,0
66820,-100,4,2,1,80,0,0
67843,-133.333333333333,4,2,2,80,0,0
68184,-100,4,2,1,80,0,0
75684,1363.63636363636,4,2,1,70,1,0
76366,340.909090909091,4,2,1,5,1,0
76536,-100,4,1,1,70,0,0
77048,340.909090909091,4,1,1,70,1,0
86252,-100,4,1,3,70,0,0
86337,-100,4,1,1,70,0,0
104832,-200,4,1,1,70,0,0
105173,-100,4,1,1,70,0,0
107474,-100,4,2,1,5,0,0

[HitObjects]
146,335,10229,1,8,2:0:0:0:
256,280,10400,1,0,2:0:0:0:
146,335,10570,1,8,2:0:0:0:
146,335,10741,2,0,P|81:270|122:180,1,204,0|0,2:0|2:0,0:0:0:0:
306,273,11252,1,8,2:0:0:0:
407,257,11423,1,0,2:0:0:0:
407,257,11764,5,4,3:0:0:0:
321,358,11934,1,4,3:0:0:0:
170,297,12105,1,4,3:0:0:0:
193,103,12275,1,4,3:0:0:0:
65,166,12445,5,8,0:0:0:0:
67,181,12531,1,8,0:0:0:0:
68,196,12616,1,2,0:0:0:0:
69,211,12701,1,8,0:0:0:0:
71,226,12786,1,8,0:0:0:0:
72,241,12872,1,8,0:0:0:0:
73,256,12957,2,0,P|117:273|171:266,1,102,4|0,0:0|0:0,0:0:0:0:
358,205,13298,1,8,0:0:0:0:
358,205,13468,2,0,P|272:239|214:161,1,204
230,17,13980,5,8,0:0:0:0:
214,161,14150,1,0,0:0:0:0:
412,105,14320,2,0,P|363:102|311:103,1,102,0|0,0:0|0:0,0:0:0:0:
114,144,14661,1,8,0:0:0:0:
114,144,14832,2,0,P|71:229|131:306,1,204,0|8,0:0|0:0,0:0:0:0:
246,263,15343,1,0,0:0:0:0:
348,330,15514,1,8,0:0:0:0:
348,330,15599,1,0,0:0:0:0:
348,330,15684,2,0,P|405:323|449:322,1,102,0|0,0:0|0:0,0:0:0:0:
232,373,16025,6,0,P|180:376|130:374,1,102,8|0,0:0|0:0,0:0:0:0:
77,286,16366,1,0,0:0:0:0:
274,343,16536,2,0,P|331:262|283:182,1,204,8|4,0:0|0:2,0:0:0:0:
282,181,17218,5,0,0:0:0:0:
162,260,17389,1,8,0:0:0:0:
24,222,17559,1,4,0:2:0:0:
24,222,17900,5,0,0:0:0:0:
60,359,18070,1,10,0:0:0:0:
117,382,18156,1,0,0:0:0:0:
178,382,18241,1,8,0:0:0:0:
232,355,18326,1,8,0:0:0:0:
260,301,18411,2,0,P|255:251|253:199,1,102,4|0,0:0|0:0,0:0:0:0:
487,294,18752,1,8,0:0:0:0:
487,294,18923,2,0,P|399:255|341:329,1,204
357,139,19434,5,8,0:0:0:0:
267,314,19605,1,0,0:0:0:0:
267,314,19690,1,0,0:0:0:0:
267,314,19775,2,0,P|262:261|259:213,1,102,0|0,0:0|0:0,0:0:0:0:
266,28,20116,1,8,0:0:0:0:
157,197,20286,2,0,P|188:133|168:56,1,153,0|8,0:0|0:0,0:0:0:0:
115,24,20627,2,0,P|65:26|13:32,1,102,0|8,0:0|0:0,0:0:0:0:
271,119,20968,1,0,0:0:0:0:
366,58,21139,2,0,P|419:58|467:60,2,102,0|0|8,0:0|0:0|0:0,0:0:0:0:
213,215,21650,5,0,0:0:0:0:
127,220,21991,1,8,0:0:0:0:
41,224,22332,2,0,P|-13:167|31:63,1,204,4|0,0:0|0:0,0:0:0:0:
167,171,22843,5,8,0:0:0:0:
270,104,23014,1,0,0:0:0:0:
470,124,23184,2,0,P|423:124|368:130,1,102,2|8,0:0|0:0,0:0:0:0:
170,271,23525,5,2,0:0:0:0:
259,319,23695,1,8,0:0:0:0:
173,373,23866,1,4,0:0:0:0:
453,188,24036,5,4,3:0:0:0:
340,258,24207,1,4,3:0:0:0:
445,337,24377,1,4,3:0:0:0:
258,156,24548,5,4,3:0:0:0:
170,271,24718,1,4,3:0:0:0:
56,224,24889,1,4,3:0:0:0:
56,224,25059,2,0,P|15:137|73:51,1,204,4|0,0:0|0:0,0:0:0:0:
160,134,25570,1,8,0:0:0:0:
252,89,25741,2,0,P|302:89|353:93,1,102
461,255,26082,5,0,0:0:0:0:
478,154,26252,1,8,0:0:0:0:
461,255,26423,2,0,P|405:297|330:275,1,153,0|0,0:0|0:0,0:0:0:0:
275,246,26764,2,0,P|222:246|173:249,1,102,0|8,0:0|0:0,0:0:0:0:
71,263,27105,1,0,0:0:0:0:
31,356,27275,1,0,0:0:0:0:
2,150,27445,1,8,0:0:0:0:
2,150,27531,1,0,0:0:0:0:
2,150,27616,1,8,0:0:0:0:
193,183,27786,6,0,P|142:262|47:241,1,204,4|0,0:0|0:0,0:0:0:0:
117,79,28298,2,0,P|168:80|218:83,1,102,4|0,0:2|0:0,0:0:0:0:
389,234,28639,5,4,0:2:0:0:
304,156,28809,1,0,0:0:0:0:
402,10,28980,2,0,P|401:61|399:111,1,102,4|0,0:2|0:0,0:0:0:0:
384,325,29320,5,4,0:2:0:0:
266,226,29491,1,0,0:0:0:0:
479,156,29661,1,0,0:0:0:0:
384,325,29832,1,4,0:2:0:0:
384,325,30173,5,0,0:0:0:0:
384,325,30258,1,0,0:0:0:0:
384,325,30343,2,0,P|289:237|168:294,1,275.399991595459,2|0,0:0|0:0,0:0:0:0:
147,348,30684,1,4,0:0:0:0:
248,339,30855,1,0,0:0:0:0:
87,160,31025,5,8,0:0:0:0:
68,282,31195,1,0,0:0:0:0:
87,160,31366,2,0,P|141:153|188:150,1,102
369,269,31707,2,0,P|315:271|268:269,1,102,8|0,0:0|0:0,0:0:0:0:
452,209,32048,5,0,0:0:0:0:
281,72,32218,1,0,0:0:0:0:
361,147,32389,1,8,0:0:0:0:
412,25,32559,1,0,0:0:0:0:
306,233,32730,2,0,P|255:233|204:230,1,102
19,173,33070,2,0,P|67:171|121:170,1,102,8|0,0:0|0:0,0:0:0:0:
250,320,33411,5,0,0:0:0:0:
250,320,33582,2,0,P|331:372|422:332,1,204,0|0,0:0|0:0,0:0:0:0:
467,240,34093,1,0,0:0:0:0:
438,102,34264,1,0,0:0:0:0:
438,102,34349,1,0,0:0:0:0:
438,102,34434,2,0,P|387:85|339:77,1,102,8|0,0:0|0:0,0:0:0:0:
100,119,34775,2,0,P|184:181|273:155,1,204,0|8,0:0|0:0,0:0:0:0:
83,256,35286,1,0,0:0:0:0:
242,322,35457,2,0,P|192:328|141:340,1,102
319,271,35798,5,8,0:0:0:0:
344,315,35883,1,0,0:0:0:0:
390,336,35968,1,0,0:0:0:0:
440,334,36053,1,8,0:0:0:0:
482,304,36139,2,0,P|481:202|476:100,1,204,4|8,0:0|0:0,0:0:0:0:
376,203,36650,1,0,0:0:0:0:
267,146,36820,2,0,P|264:195|263:248,1,102
264,360,37161,5,8,0:0:0:0:
362,286,37332,1,0,0:0:0:0:
162,350,37502,2,0,P|101:282|134:184,1,204,4|8,0:0|0:0,0:0:0:0:
352,134,38014,1,0,0:0:0:0:
239,251,38184,1,0,0:0:0:0:
207,37,38355,5,0,0:0:0:0:
352,134,38525,1,8,0:0:0:0:
467,95,38695,1,0,0:0:0:0:
467,95,38781,1,0,0:0:0:0:
467,95,38866,2,0,P|468:149|466:196,1,102,4|0,0:0|0:0,0:0:0:0:
390,333,39207,2,0,P|425:253|369:161,1,204,8|0,0:0|0:0,0:0:0:0:
299,382,39718,1,8,0:0:0:0:
201,350,39889,1,0,0:0:0:0:
201,350,40059,2,0,P|193:302|192:248,1,102,0|0,0:0|0:0,0:0:0:0:
273,61,40400,5,0,0:0:0:0:
194,146,40570,1,8,0:0:0:0:
9,82,40741,5,0,0:0:0:0:
9,82,40826,1,8,0:0:0:0:
9,82,40911,2,0,P|61:81|111:85,1,102,0|8,0:0|0:0,0:0:0:0:
279,203,41252,1,0,0:0:0:0:
250,256,41337,1,8,0:0:0:0:
192,279,41423,1,8,0:0:0:0:
131,271,41508,1,8,0:0:0:0:
85,229,41593,1,4,0:0:0:0:
231,72,41764,5,0,0:0:0:0:
427,155,41934,5,8,0:0:0:0:
427,155,42275,1,0,0:0:0:0:
430,240,42445,1,0,0:0:0:0:
432,326,42616,1,8,0:0:0:0:
432,326,42786,2,0,P|362:358|291:313,1,153,4|0,0:0|0:0,0:0:0:0:
250,287,43127,2,0,P|197:281|148:278,1,102,0|8,0:0|0:0,0:0:0:0:
5,294,43468,1,0,0:0:0:0:
77,379,43639,1,0,0:0:0:0:
104,158,43809,1,8,0:0:0:0:
339,225,43980,5,2,0:0:0:0:
310,278,44065,1,0,0:0:0:0:
252,301,44150,1,8,0:0:0:0:
191,293,44235,1,0,0:0:0:0:
145,251,44320,1,4,0:0:0:0:
281,145,44491,5,0,0:0:0:0:
171,12,44661,5,8,0:0:0:0:
171,12,45002,1,0,0:0:0:0:
166,99,45173,1,0,0:0:0:0:
162,184,45343,1,8,0:0:0:0:
162,184,45514,2,0,P|216:230|288:205,1,153,4|0,0:0|0:0,0:0:0:0:
336,167,45855,2,0,P|341:222|340:268,1,102,0|8,0:0|0:0,0:0:0:0:
334,380,46195,1,0,0:0:0:0:
447,297,46366,5,0,0:0:0:0:
447,297,46451,1,8,0:0:0:0:
447,297,46536,1,0,0:0:0:0:
334,380,46707,37,10,0:0:0:0:
217,258,46877,5,0,0:0:0:0:
209,297,46962,1,8,0:0:0:0:
198,336,47048,2,0,P|149:336|96:329,1,102,4|0,0:0|0:0,0:0:0:0:
23,193,47389,2,0,P|74:190|125:191,1,102,8|0,0:0|0:0,0:0:0:0:
286,300,47730,2,0,P|342:302|387:298,1,102
502,145,48070,6,0,P|427:210|333:188,1,204,8|0,0:0|0:0,0:0:0:0:
256,118,48582,1,0,0:0:0:0:
170,53,48752,2,0,P|119:49|68:49,1,102,8|0,0:0|0:0,0:0:0:0:
259,149,49093,5,0,0:0:0:0:
366,101,49264,1,0,0:0:0:0:
366,101,49434,2,0,P|369:53|371:-1,1,102,8|0,0:0|0:0,0:0:0:0:
354,202,49775,5,4,0:0:0:0:
266,314,49945,1,8,0:0:0:0:
266,314,50116,2,0,L|262:212|258:110,1,204,8|0,0:0|0:0,0:0:0:0:
253,7,50627,1,8,0:0:0:0:
24,65,50968,6,0,P|120:44|167:125,1,204,4|8,0:0|0:0,0:0:0:0:
145,209,51480,1,0,0:0:0:0:
124,293,51650,1,8,0:0:0:0:
105,377,51820,2,0,L|172:372,2,68,0|8|0,0:0|0:0|0:0,0:0:0:0:
234,319,52161,6,0,L|305:324,1,68,8|0,0:0|0:0,0:0:0:0:
374,363,52389,1,8,0:0:0:0:
453,346,52502,2,0,P|490:288|466:230,1,136,8|0,0:0|0:0,0:0:0:0:
404,202,52843,2,0,P|338:203|268:208,1,136,8|0,0:0|0:0,0:0:0:0:
164,299,53184,6,0,P|127:299|96:296,1,68,8|0,0:0|0:0,0:0:0:0:
47,230,53411,1,0,0:0:0:0:
74,152,53525,2,0,P|134:110|190:125,1,136,8|0,0:0|0:0,0:0:0:0:
266,239,53866,6,0,P|329:258|397:253,1,136,8|0,0:0|0:0,0:0:0:0:
462,231,54207,2,0,P|497:186|478:114,1,136,8|0,0:0|0:0,0:0:0:0:
419,80,54548,2,0,L|337:83,1,68,8|0,0:0|0:0,0:0:0:0:
293,140,54775,2,0,L|225:138,1,68,0|8,0:0|0:0,0:0:0:0:
191,49,55002,2,0,L|123:51,1,68
57,102,55230,5,2,0:0:0:0:
61,187,55911,1,2,0:0:0:0:
66,273,56593,1,2,0:0:0:0:
204,337,56820,5,0,0:0:0:0:
150,340,56934,1,8,0:0:0:0:
262,229,57161,5,0,0:0:0:0:
323,233,57275,1,8,0:0:0:0:
127,246,57502,5,0,0:0:0:0:
124,177,57616,1,2,0:1:0:0:
309,361,57843,5,0,0:0:0:0:
309,361,57957,2,0,P|378:301|345:205,1,204,8|8,0:0|0:0,0:0:0:0:
118,344,58525,1,0,0:0:0:0:
111,317,58639,1,8,0:0:0:0:
106,290,58752,1,0,0:0:0:0:
103,262,58866,1,0,0:0:0:0:
102,234,58980,2,0,P|158:274|221:263,1,136,8|0,0:0|0:0,0:0:0:0:
281,231,59320,2,0,P|331:164|295:57,1,204,8|8,0:0|0:0,0:0:0:0:
180,272,59889,6,0,L|183:204,1,68,0|8,0:0|0:0,0:0:0:0:
78,153,60116,2,0,P|81:189|83:221,1,68
153,315,60343,2,0,P|218:325|288:325,1,136,8|0,0:0|0:0,0:0:0:0:
348,294,60684,1,8,0:0:0:0:
362,90,61025,1,2,0:0:0:0:
436,168,61252,1,0,0:0:0:0:
436,168,61366,1,8,0:0:0:0:
76,216,61707,5,2,0:0:0:0:
203,114,61934,1,0,0:0:0:0:
149,111,62048,1,8,0:0:0:0:
251,287,62275,1,0,0:0:0:0:
311,282,62389,1,2,0:0:0:0:
431,153,62616,1,0,0:0:0:0:
438,221,62730,1,0,0:0:0:0:
421,44,63070,5,2,0:0:0:0:
421,44,63411,2,0,P|328:9|261:75,1,204,8|8,0:0|0:0,0:0:0:0:
250,160,64434,1,8,0:0:0:0:
250,160,64775,2,0,P|252:193|253:227,1,68,8|0,0:0|0:0,0:0:0:0:
259,309,65002,1,0,0:0:0:0:
323,359,65116,2,0,P|347:313|345:265,1,102.000003890991,2|0,0:0|0:0,0:0:0:0:
202,367,65457,2,0,P|142:296|164:192,1,204,8|2,0:0|0:1,0:0:0:0:
355,23,66139,6,0,P|348:126|345:226,1,204,8|8,0:0|0:0,0:0:0:0:
344,313,67161,1,8,0:0:0:0:
344,313,67502,2,0,P|311:308|276:304,1,68,8|0,0:0|0:0,0:0:0:0:
208,352,67730,1,0,0:0:0:0:
134,318,67843,2,0,P|95:249|118:184,1,153.000005836487,2|8,0:0|0:0,0:0:0:0:
267,75,68525,5,2,0:1:0:0:
459,190,68866,6,0,P|458:228|456:257,1,68,8|0,0:0|0:0,0:0:0:0:
422,317,69093,1,0,0:0:0:0:
384,344,69207,1,8,0:0:0:0:
342,363,69320,1,0,0:0:0:0:
296,374,69434,1,0,0:0:0:0:
249,374,69548,1,8,0:0:0:0:
203,368,69661,1,0,0:0:0:0:
159,351,69775,1,0,0:0:0:0:
122,323,69889,1,10,0:0:0:0:
90,289,70002,1,0,0:0:0:0:
67,247,70116,1,0,0:0:0:0:
62,111,70230,6,0,L|63:202,1,68,8|0,0:0|0:0,0:0:0:0:
67,247,70457,1,0,0:0:0:0:
94,288,70570,1,8,0:0:0:0:
136,315,70684,1,0,0:0:0:0:
184,329,70798,1,0,0:0:0:0:
233,328,70911,1,8,0:0:0:0:
281,315,71025,1,0,0:0:0:0:
323,290,71139,1,0,0:0:0:0:
354,253,71252,1,10,0:0:0:0:
371,207,71366,1,0,0:0:0:0:
379,159,71480,1,0,0:0:0:0:
386,23,71593,6,0,P|386:57|385:90,1,68,8|8,0:0|0:0,0:0:0:0:
379,159,71820,1,0,0:0:0:0:
364,210,71934,1,8,0:0:0:0:
337,255,72048,1,0,0:0:0:0:
294,285,72161,1,8,0:0:0:0:
244,303,72275,1,0,0:0:0:0:
191,308,72389,1,8,0:0:0:0:
138,300,72502,1,0,0:0:0:0:
90,276,72616,1,8,0:0:0:0:
54,235,72730,1,0,0:0:0:0:
37,184,72843,1,8,0:0:0:0:
35,130,72957,1,0,0:0:0:0:
47,78,73070,1,8,0:0:0:0:
82,38,73184,1,0,0:0:0:0:
130,15,73298,1,8,0:0:0:0:
182,12,73411,1,0,0:0:0:0:
234,22,73525,1,8,0:0:0:0:
279,49,73639,1,0,0:0:0:0:
302,96,73752,1,8,0:0:0:0:
313,147,73866,1,0,0:0:0:0:
305,199,73980,1,8,0:0:0:0:
276,243,74093,1,0,0:0:0:0:
233,274,74207,1,8,0:0:0:0:
100,297,74320,6,0,P|137:298|169:297,1,68,8|0,0:0|0:0,0:0:0:0:
223,359,74548,2,0,P|255:358|291:358,1,68,0|8,0:0|0:0,0:0:0:0:
432,332,74775,6,0,P|411:334|366:326,1,68,0|0,0:0|0:0,0:0:0:0:
321,179,75002,2,0,L|324:247,1,68,8|0,0:0|0:0,0:0:0:0:
493,189,75230,2,0,P|485:158|486:122,1,68,0|8,0:0|0:0,0:0:0:0:
420,18,75457,2,0,P|381:13|352:11,1,68,0|0,0:0|0:0,0:0:0:0:
200,103,75684,6,0,P|202:155|201:204,1,102,8|0,0:0|0:0,0:0:0:0:
165,278,76536,5,8,0:0:0:0:
197,329,76621,1,8,0:0:0:0:
253,352,76706,1,2,0:0:0:0:
314,352,76792,1,8,0:0:0:0:
370,329,76877,1,8,0:0:0:0:
399,275,76962,1,8,0:0:0:0:
404,214,77047,2,0,P|404:166|401:112,1,102,4|0,0:0|0:0,0:0:0:0:
188,105,77388,5,8,0:0:0:0:
188,105,77559,2,0,P|237:20|329:39,1,204
376,196,78070,1,8,0:0:0:0:
347,294,78241,2,0,P|297:300|246:289,1,102
91,156,78582,2,0,L|192:149,1,102,0|8,0:0|0:0,0:0:0:0:
395,277,78923,2,0,P|446:205|415:100,1,204,0|8,0:0|0:0,0:0:0:0:
236,57,79434,5,0,0:0:0:0:
153,147,79604,1,8,0:0:0:0:
153,147,79690,1,0,0:0:0:0:
153,147,79775,2,0,P|152:200|152:248,1,102,0|0,0:0|0:0,0:0:0:0:
299,359,80116,2,0,P|318:311|312:262,1,102,8|0,0:0|0:0,0:0:0:0:
273,167,80457,2,0,P|321:145|369:136,1,102,0|8,0:0|0:0,0:0:0:0:
165,338,80798,2,0,P|106:339|65:325,1,102,0|8,0:0|0:0,0:0:0:0:
66,325,81309,5,0,0:0:0:0:
258,261,81479,1,8,0:0:0:0:
451,197,81650,1,4,0:2:0:0:
451,197,81991,5,8,0:0:0:0:
367,33,82161,1,2,0:0:0:0:
371,52,82246,1,0,0:0:0:0:
374,72,82332,1,8,0:0:0:0:
376,92,82417,1,8,0:0:0:0:
377,112,82502,2,0,P|316:191|230:159,1,204,4|8,0:0|0:0,0:0:0:0:
41,87,83013,1,0,0:0:0:0:
41,87,83184,2,0,P|94:77|142:74,1,102
328,201,83525,5,8,0:0:0:0:
339,302,83695,1,0,0:0:0:0:
403,381,83866,2,0,P|457:324|451:254,1,153
423,199,84207,2,0,P|423:148|428:97,1,102,8|0,0:0|0:0,0:0:0:0:
247,22,84548,6,0,P|269:69|266:119,1,102
189,226,84888,1,8,0:0:0:0:
60,192,85059,1,0,0:0:0:0:
60,192,85144,1,0,0:0:0:0:
60,192,85229,2,0,P|54:144|51:90,1,102,0|0,0:0|0:0,0:0:0:0:
261,142,85570,2,0,P|213:155|167:134,1,102,8|0,0:0|0:0,0:0:0:0:
355,49,85911,1,0,0:0:0:0:
355,49,86082,2,0,P|463:40|516:108,1,204
472,266,86593,5,8,0:2:0:0:
443,276,86678,1,0,0:0:0:0:
413,283,86763,1,8,0:0:0:0:
383,290,86849,1,8,0:0:0:0:
353,296,86934,1,8,0:2:0:0:
322,299,87019,1,8,0:0:0:0:
291,301,87104,1,0,0:0:0:0:
260,302,87190,1,8,0:0:0:0:
229,301,87275,2,0,L|226:250,1,51,0|8,0:2|0:0,0:0:0:0:
308,229,87445,2,0,L|305:178,1,51,8|8,0:0|0:0,0:0:0:0:
222,168,87616,2,0,L|219:117,1,51,10|0,0:2|0:0,0:0:0:0:
301,96,87786,2,0,L|298:45,1,51,8|0,0:0|0:0,0:0:0:0:
395,197,87957,6,0,P|395:149|392:95,1,102,4|0,0:0|0:0,0:0:0:0:
249,14,88298,1,8,0:0:0:0:
249,14,88468,2,0,P|187:86|213:183,1,204
389,290,88979,1,8,0:0:0:0:
234,359,89150,2,0,P|285:370|335:364,1,102
138,282,89491,2,0,P|87:284|37:289,1,102,0|8,0:0|0:0,0:0:0:0:
238,229,89832,2,0,P|289:157|258:52,1,204,0|8,0:0|0:0,0:0:0:0:
17,96,90343,5,0,0:0:0:0:
88,23,90513,1,8,0:0:0:0:
88,23,90599,1,0,0:0:0:0:
88,23,90684,2,0,P|142:18|189:16,1,102,0|0,0:0|0:0,0:0:0:0:
349,52,91025,2,0,P|352:107|339:151,1,102,8|0,0:0|0:0,0:0:0:0:
252,265,91366,5,0,0:0:0:0:
139,177,91536,1,8,0:0:0:0:
229,1,91707,2,0,P|235:52|240:103,1,102,0|8,0:0|0:0,0:0:0:0:
239,102,92218,5,0,0:0:0:0:
188,342,92388,1,8,0:0:0:0:
353,289,92559,1,4,0:2:0:0:
353,289,92900,5,8,0:0:0:0:
168,359,93070,1,2,0:0:0:0:
186,363,93155,1,0,0:0:0:0:
206,365,93241,1,8,0:0:0:0:
226,366,93326,1,8,0:0:0:0:
246,367,93411,2,0,P|244:320|240:265,1,102,4|0,0:0|0:0,0:0:0:0:
217,82,93752,1,8,0:0:0:0:
107,277,93923,2,0,P|166:226|132:118,1,204,0|0,0:0|0:0,0:0:0:0:
259,202,94434,5,8,0:0:0:0:
351,160,94604,1,0,0:0:0:0:
351,160,94690,1,0,0:0:0:0:
351,160,94775,2,0,P|355:111|356:58,1,102
199,10,95116,1,8,0:0:0:0:
68,106,95286,2,0,P|67:186|89:254,1,153
137,294,95627,2,0,P|189:300|238:298,1,102,0|8,0:0|0:0,0:0:0:0:
432,233,95968,5,0,0:0:0:0:
432,233,96138,2,0,P|438:185|441:131,1,102
343,26,96479,1,8,0:0:0:0:
265,92,96650,5,0,0:0:0:0:
268,178,96991,1,8,0:0:0:0:
271,264,97332,2,0,P|211:343|132:302,1,204,4|0,0:0|0:0,0:0:0:0:
81,146,97843,5,8,0:0:0:0:
201,165,98013,1,0,0:0:0:0:
322,181,98184,2,0,P|316:124|309:79,1,102,2|8,0:0|0:0,0:0:0:0:
440,22,98525,5,2,0:0:0:0:
322,181,98695,1,8,0:0:0:0:
455,233,98866,1,4,0:0:0:0:
309,79,99036,5,4,3:0:0:0:
165,147,99207,1,4,3:0:0:0:
349,251,99377,1,4,3:0:0:0:
179,302,99548,1,4,3:0:0:0:
281,373,99718,5,4,3:0:0:0:
256,192,99888,1,4,3:0:0:0:
231,11,100059,2,0,P|155:83|70:54,1,204,4|0,0:0|0:0,0:0:0:0:
127,175,100570,1,8,0:0:0:0:
71,345,100741,2,0,P|66:295|66:244,1,102
198,322,101082,5,0,0:0:0:0:
402,248,101252,1,8,0:0:0:0:
401,247,101423,2,0,P|342:293|274:271,1,153,0|0,0:0|0:0,0:0:0:0:
236,221,101763,2,0,P|235:171|238:118,1,102,0|8,0:0|0:0,0:0:0:0:
306,29,102104,1,0,0:0:0:0:
141,152,102275,1,0,0:0:0:0:
335,146,102445,1,8,0:0:0:0:
335,146,102530,1,0,0:0:0:0:
335,146,102616,1,8,0:0:0:0:
168,27,102786,6,0,P|77:5|14:82,1,204,4|0,0:0|0:0,0:0:0:0:
61,266,103298,2,0,P|77:224|68:170,1,102,4|0,0:2|0:0,0:0:0:0:
322,247,103638,5,4,0:2:0:0:
199,338,103809,1,0,0:0:0:0:
164,91,103979,2,0,P|159:142|156:192,1,102,4|0,0:2|0:0,0:0:0:0:
305,357,104320,5,4,0:2:0:0:
469,299,104491,1,0,0:0:0:0:
427,131,104661,1,0,0:0:0:0:
243,275,104832,6,0,P|240:227|238:173,1,102,4|0,0:2|0:0,0:0:0:0:
330,218,105343,1,0,0:0:0:0:
73,172,105513,1,2,0:0:0:0:
256,192,105599,12,0,107474,0:0:0:0:
