osu file format v6

[General]
AudioFilename: Milk & Sugar pres. MS2 - Stay Around (For This) [edit].mp3
AudioLeadIn: 0
PreviewTime: 39438
Countdown: 1
SampleSet: Soft
StackLeniency: 0.2
Mode: 0
LetterboxInBreaks: 1

[Editor]
Bookmarks: 31938,39438,46938,54438,61938,69438,76938,84438,91938,99438,106938,114438,121938
DistanceSpacing: 1.60000002384186
BeatDivisor: 2
GridSize: 8

[Metadata]
Title:Stay Around (For This)
Artist:Milk & Sugar pres. MS2
Creator:Jeshua-Ishvara
Version:Easy Pie
Source:
Tags:

[Difficulty]
HPDrainRate:3
CircleSize:4
OverallDifficulty:2
SliderMultiplier:0.8
SliderTickRate:1

[Events]
//Background and Video events
0,0,"BG - Milk Two.jpg"
//Break Periods
2,62138,71628
//Storyboard Layer 0 (Background)
//Storyboard Layer 1 (Fail)
//Storyboard Layer 2 (Pass)
//Storyboard Layer 3 (Foreground)
//Storyboard Sound Samples
//Background Colour Transformations
3,100,0,0,0

[TimingPoints]
1938.97864232367,468.75,4,2,0,71,1,0
31938,-100,4,2,0,71,0,1
39438,-100,4,2,0,71,0,0
106938,-100,4,2,0,71,0,1
114438,-100,4,2,0,71,0,0
151887,-100,4,2,0,71,0,1
159387,-100,4,2,0,71,0,0

[Colours]
Combo1 : 102,32,19
Combo2 : 255,159,64
Combo3 : 155,50,0
Combo4 : 215,21,21

[HitObjects]
256,192,31938,1,2
128,192,32407,5,8
256,192,32876,1,8
384,192,33345,5,0
320,192,33579,1,0
256,192,33813,1,2
256,320,34282,5,8
256,192,34751,1,8
256,63,35220,5,0
256,127,35454,1,0
256,192,35688,1,2
384,192,36157,5,8
256,192,36626,1,8
127,192,37095,5,0
191,192,37329,1,0
255,191,37563,1,2
256,64,38032,5,8
256,192,38501,2,0,B|256:288|360:288,1,160,8|2
448,192,39907,5,8
319,192,40376,1,8
192,192,40845,5,0
256,192,41079,1,0
320,192,41313,1,2
408,280,41782,5,8
280,280,42251,1,8
152,280,42720,5,0
216,280,42954,1,0
280,280,43188,1,2
192,192,43657,5,8
64,192,44126,1,8
64,64,44595,5,0
128,64,44829,1,0
192,64,45063,2,0,B|232:104,7,40
264,136,46938,1,8
352,224,47407,5,2
223,224,47876,1,2
96,224,48345,5,0
160,224,48579,1,0
224,224,48813,2,0,B|88:88,1,160,8|2
32,24,50220,1,0
96,24,50454,1,0
160,24,50688,2,0,B|289:155,1,160,8|2
360,232,52095,5,0
408,280,52329,1,0
456,328,52563,1,8
328,328,53032,1,2
200,328,53501,2,0,B|128:264|192:184,1,160,2|8
280,96,54907,5,2
408,96,55376,1,2
408,224,55845,5,0
408,160,56079,1,0
408,96,56313,1,8
280,96,56782,5,2
152,96,57251,1,2
24,96,57720,5,0
88,96,57954,1,0
152,96,58188,1,8
280,96,58657,5,2
192,192,59126,1,2
96,280,59595,5,0
144,232,59829,1,0
192,192,60063,1,8
256,192,60532,12,4,61938
256,192,73188,12,4,74829
256,64,76001,5,2
256,64,76236,1,2
256,64,76470,1,2
256,64,76705,1,2
256,64,76938,1,2
256,192,77407,5,2
16,240,78345,1,2
256,336,79282,1,2
120,200,79985,1,2
120,200,80220,1,2
376,240,81157,5,2
160,104,82095,1,2
288,328,83032,1,2
384,160,83735,1,2
384,160,83970,1,2
128,200,84907,5,2
376,264,85845,1,2
280,32,86782,1,2
144,168,87485,1,2
144,168,87720,1,2
336,336,88657,5,2
88,280,89595,1,2
144,32,90532,1,2
328,88,91235,1,2
328,88,91470,1,2
256,192,91938,1,4
448,360,92876,5,4
512,292,93228,1,4
444,224,93579,1,4
399,179,93813,1,4
217,360,94751,5,4
153,292,95103,1,4
221,224,95454,1,4
266,179,95688,1,4
80,0,96626,5,4
148,67,96978,1,4
80,135,97329,1,4
35,180,97563,1,4
216,0,98501,5,4
148,68,98853,1,4
216,136,99204,1,4
261,181,99438,1,4
64,344,100376,5,4
64,248,100728,1,4
144,296,101079,1,4
208,296,101313,1,4
392,120,102251,5,4
296,120,102603,1,4
344,40,102954,1,4
280,40,103188,2,2,B|248:40,12,26.6666666666667,2|2|2|2|2|2|2|2|2|2|2|2|2
464,224,106001,5,4
368,224,106353,6,2,B|344:224|344:224,3,20,2|2|2|2
288,224,106938,1,4
160,224,107407,5,2
224,224,107642,1,0
289,224,107876,1,2
416,224,108345,5,2
288,224,108813,2,0,B|424:88,1,160,8|2
488,16,110220,1,2
360,16,110688,2,0,B|231:147,1,160,8|2
160,224,112095,5,2
64,320,112563,1,8
192,320,113032,1,2
256,320,113267,1,0
320,320,113501,2,0,B|392:256|328:176,1,160,2|8
240,88,114907,5,2
176,88,115142,1,0
112,88,115376,1,2
112,216,115845,5,2
112,88,116313,1,8
240,88,116782,5,2
304,88,117017,1,0
368,88,117251,1,2
496,88,117720,5,2
368,88,118188,1,8
240,88,118657,5,2
288,128,118892,1,0
328,176,119126,1,2
416,264,119595,5,2
328,176,120063,2,0,B|328:216|328:216|288:216|288:216|288:256|288:256|248:256|248:256|248:296|248:296|208:296|208:296|208:336|208:336|160:336,1,320,8|4
