osu file format v9

[General]
AudioFilename: WHY (Serious Remix).mp3
AudioLeadIn: 0
PreviewTime: 63746
Countdown: 1
SampleSet: Soft
StackLeniency: 0.7
Mode: 0
LetterboxInBreaks: 1

[Editor]
Bookmarks: 1871,33746,63746,78746,93746,108746,123746,138746,153746,168746,185621,213746,217261
DistanceSpacing: 1
BeatDivisor: 4
GridSize: 8

[Metadata]
Title:Why (Serious Mix)
Artist:Miliyah Kato
Creator:dkun
Version:My Heart!
Source:
Tags:mmzz sync

[Difficulty]
HPDrainRate:7
CircleSize:4
OverallDifficulty:7
ApproachRate:8
SliderMultiplier:2.1
SliderTickRate:1

[Events]
//Background and Video events
0,0,"waiting-beach-lonely-alone.jpg"
//Break Periods
2,138946,152996
2,168946,184871
//Storyboard Layer 0 (Background)
//Storyboard Layer 1 (Fail)
//Storyboard Layer 2 (Pass)
//Storyboard Layer 3 (Foreground)
//Storyboard Sound Samples
//Background Colour Transformations
3,100,163,162,255

[TimingPoints]
18746,468.75,4,2,0,60,1,0
63746,-100,4,2,0,70,0,1
78746,-100,4,2,0,70,0,0
108746,-100,4,2,0,70,0,1
123628,-100,4,2,0,70,0,0
123746,-100,4,2,0,70,0,1
138746,-100,4,2,0,70,0,0
185621,-100,4,2,0,70,0,1
213746,-100,4,2,0,70,0,0

[Colours]
Combo1 : 128,128,64
Combo2 : 128,64,0

[HitObjects]
160,128,18746,1,2
208,48,18980,1,2
304,48,19214,1,2
352,128,19449,1,8
208,248,19917,5,0
256,328,20152,1,0
296,248,20386,1,8
256,64,20855,5,2
256,64,21089,1,8
256,160,21324,1,0
256,160,21441,1,0
256,160,21558,1,8
336,224,21792,1,0
256,288,22027,1,8
168,224,22261,1,0
336,104,22730,6,0,B|392:128|360:224,2,105
176,104,23667,2,0,B|120:128|152:224,2,105
384,136,24605,5,0
312,200,24839,1,8
256,120,25074,1,0
256,120,25191,1,0
256,120,25308,1,8
208,200,25542,1,0
128,136,25777,1,8
128,136,26011,1,8
128,328,26480,5,0
184,256,26714,1,0
256,320,26949,1,8
256,320,27417,5,0
328,256,27652,1,0
384,328,27886,1,8
256,192,28355,1,0
256,192,28589,1,8
256,96,28824,2,0,B|256:32,2,52.5,0|0|8
176,192,29292,1,0
256,264,29527,1,8
336,192,29761,1,8
176,296,30230,5,0
256,344,30464,1,0
336,296,30699,1,8
256,248,30933,1,0
256,152,31167,2,0,B|256:40,2,105,0|0|8
256,248,31871,1,0
176,304,32105,2,0,B|216:352,2,52.5,0|0|8
336,304,32574,2,0,B|296:352,2,52.5,0|0|8
368,216,33042,1,0
368,216,33277,1,8
424,136,33511,1,0
336,104,33746,5,0
256,48,33980,1,0
176,104,34214,1,0
88,136,34449,1,8
160,192,34683,2,0,B|144:256|248:296,1,105
352,192,35152,2,0,B|368:256|264:296,1,105
256,192,35621,12,2,37027
120,136,37496,5,2
168,56,37730,1,0
256,32,37964,1,0
344,56,38199,1,0
392,136,38433,1,0
256,160,38667,2,0,B|256:304,1,105
168,304,39136,1,0
256,344,39371,1,2
344,304,39605,1,0
256,344,39839,1,0
256,48,40308,1,2
168,304,40777,5,2
256,264,41011,1,0
344,304,41246,1,2
376,216,41480,1,0
320,144,41714,1,0
256,72,41949,1,0
192,144,42183,1,0
136,216,42417,1,0
200,280,42652,2,0,B|312:280,1,105
256,192,43121,12,0,44527
160,264,44996,5,2
208,344,45230,1,0
304,344,45464,1,0
352,264,45699,1,0
256,248,45933,2,0,B|256:112,1,105
152,72,46402,2,0,B|256:32|360:72,1,210,0|2
472,192,47339,1,0
256,344,47808,1,0
40,192,48277,1,0
360,120,48746,5,0
304,40,48980,1,8
208,40,49214,1,0
152,120,49449,1,8
256,168,49683,2,0,B|256:112,2,52.5
256,272,50152,1,8
152,120,50621,5,0
208,40,50856,1,8
304,40,51089,1,0
360,120,51324,1,8
256,160,51558,1,0
256,160,51675,1,0
256,160,51792,1,0
256,272,52027,1,8
152,272,52496,6,0,B|120:336|240:360,1,105,0|8
360,272,52964,2,0,B|392:336|272:360,1,105,0|8
256,264,53433,2,0,B|256:208,2,52.5
256,136,53902,1,8
352,272,54371,5,0
304,352,54605,1,8
208,352,54839,1,0
160,272,55074,1,8
256,232,55308,2,0,B|256:288,2,52.5
256,136,55777,1,8
440,144,56246,6,0,B|488:200|424:256,3,105,0|8|0|8
376,304,57183,1,0
376,304,57300,1,0
376,304,57417,1,0
296,352,57652,1,8
72,240,58121,6,0,B|24:184|88:128,3,105,0|8|0|8
136,80,59058,1,0
136,80,59175,1,0
136,80,59292,1,0
216,32,59527,1,8
360,136,59996,5,0
312,56,60230,1,8
208,56,60464,1,0
152,136,60699,1,8
256,144,60933,1,0
256,240,61167,1,8
256,336,61402,1,0
256,336,61636,1,8
256,192,61871,12,0,63277
152,312,63746,2,0,B|256:352|360:312,1,210,0|2
440,264,64449,1,0
328,120,64917,5,0
328,120,65152,1,0
256,56,65386,1,0
184,120,65621,1,0
184,120,65855,1,0
120,192,66089,1,0
136,288,66324,2,0,B|168:360|248:352,1,105
376,288,66792,2,0,B|344:360|264:352,1,105
152,72,67496,6,0,B|256:32|360:72,1,210,0|2
432,136,68199,1,0
216,184,68667,5,0
296,232,68902,1,0
216,280,69136,1,0
296,328,69371,2,0,B|352:360|408:320,1,105
480,280,69839,1,0
400,232,70074,1,0
480,184,70308,1,0
256,48,70777,1,0
360,312,71246,6,0,B|256:352|152:312,1,210,0|2
72,272,71949,1,0
176,96,72417,5,0
256,48,72652,1,0
336,96,72886,1,0
256,152,73121,2,0,B|256:280,1,105
152,328,73589,2,0,B|256:368|360:328,1,210,0|2
448,312,74292,1,0
376,248,74527,1,0
184,120,74996,6,0,B|128:64,2,52.5
256,192,75464,1,0
328,120,75699,6,0,B|384:64,2,52.5
256,192,76167,1,0
328,264,76402,6,0,B|384:320,2,52.5
256,192,76870,1,0
184,264,77105,6,0,B|128:320,2,52.5,0|0|4
256,192,77573,1,0
256,192,77808,12,2,78746
208,304,79449,6,0,B|256:352|312:296,2,105
144,240,80152,1,0
184,152,80386,1,0
256,88,80621,1,0
256,88,81089,1,0
256,88,81558,1,0
256,88,82027,5,0
328,152,82261,1,0
368,240,82496,1,0
304,304,82730,2,0,B|256:352|200:296,2,105
368,240,83433,2,0,B|368:128,1,105
280,168,83902,2,0,B|280:40,1,105
184,48,84371,1,0
48,192,84839,1,0
256,344,85308,1,0
472,192,85777,1,0
152,264,86246,5,0
208,344,86480,1,0
304,344,86714,1,0
360,264,86949,1,0
256,248,87183,2,0,B|256:136,1,105
152,72,87652,2,0,B|256:32|360:72,1,210,2|2
464,192,88589,1,0
256,344,89058,1,0
40,192,89527,1,0
360,120,89996,5,0
304,48,90230,1,0
208,48,90464,1,0
152,120,90699,1,0
208,200,90933,2,0,B|256:248|320:184,2,105
120,224,91636,1,0
160,312,91871,1,0
160,312,91988,1,0
160,312,92105,1,0
256,336,92339,1,0
448,192,92808,1,0
256,48,93277,1,0
184,264,93746,6,0,B|160:328|240:360,1,105
256,264,94214,2,0,B|256:208,2,52.5
328,264,94683,2,0,B|352:328|272:360,1,105
256,264,95152,1,0
152,88,95621,6,0,B|264:24|368:104,1,210
416,160,96324,1,0
336,208,96558,2,0,B|336:280,2,52.5
256,264,97027,1,0
360,88,97496,6,0,B|248:24|144:104,1,210
72,144,98199,2,0,B|72:256,1,105
168,320,98667,2,0,B|120:368,2,52.5
256,256,99136,1,0
360,280,99371,5,0
304,352,99605,1,0
208,352,99839,1,0
144,280,100074,1,0
256,256,100308,2,0,B|256:144,1,105
256,56,100777,1,0
112,128,101246,5,0
168,48,101480,1,0
256,88,101714,1,0
256,88,101949,1,0
344,48,102183,1,0
344,48,102300,1,0
344,48,102417,1,0
400,128,102652,1,0
352,296,103121,6,0,B|248:352|136:288,1,210
104,216,103824,1,0
176,160,104058,1,0
176,160,104175,1,0
176,160,104292,1,0
248,104,104527,1,0
464,192,104996,5,0
256,344,105464,1,0
40,192,105933,1,0
256,40,106402,1,0
408,152,106871,5,0
336,216,107105,1,0
256,264,107339,1,0
176,216,107574,1,0
104,152,107808,1,0
256,40,108277,1,0
352,64,108746,6,0,B|256:8|152:64,1,210
72,120,109449,1,0
184,264,109917,5,0
184,264,110152,1,2
256,328,110386,1,0
328,264,110621,1,2
328,264,110855,1,0
392,192,111089,1,2
376,96,111324,2,0,B|344:24|264:32,1,105
136,96,111792,2,0,B|168:24|248:32,1,105,2|0
360,296,112496,6,0,B|256:352|144:288,1,210
80,248,113199,1,0
296,200,113667,5,0
216,152,113902,1,2
296,104,114136,1,0
216,56,114371,2,0,B|160:24|104:64,1,105,2|0
32,104,114839,1,0
112,152,115074,1,2
32,200,115308,1,0
256,336,115777,1,0
152,72,116246,6,0,B|256:32|360:72,1,210,0|2
440,112,116949,1,0
336,288,117417,5,0
256,336,117652,1,0
176,288,117886,1,0
256,232,118121,2,2,B|256:104,1,105,2|0
360,56,118589,2,0,B|256:16|152:56,1,210,0|2
64,72,119292,1,0
136,136,119527,1,2
304,304,119996,6,0,B|248:344|192:296,1,105
136,240,120464,1,0
152,136,120699,2,0,B|256:96|360:136,1,210,4|2
432,192,121402,1,0
352,240,121636,1,0
184,104,122105,5,0
256,40,122339,1,0
328,104,122574,1,0
256,168,122808,1,0
256,168,123042,1,0
256,264,123277,1,0
152,72,123746,6,0,B|256:32|360:72,1,210,4|2
440,120,124449,1,0
328,264,124917,5,0
328,264,125152,1,8
256,328,125386,1,0
184,264,125621,1,8
184,264,125855,1,0
120,192,126089,1,8
136,96,126324,2,0,B|168:24|248:32,1,105,8|0
376,96,126792,2,0,B|344:24|264:32,1,105,8|0
152,312,127496,6,0,B|256:352|360:312,1,210,4|2
432,248,128199,1,0
216,200,128667,5,0
296,152,128902,1,8
216,104,129136,1,0
296,56,129371,2,0,B|352:24|408:64,1,105,8|0
480,104,129839,1,0
400,152,130074,1,8
480,200,130308,1,0
256,336,130777,1,8
360,72,131246,6,0,B|256:32|152:72,1,210,4|2
72,112,131949,1,0
176,288,132417,5,0
256,336,132652,1,8
336,288,132886,1,0
256,232,133121,2,0,B|256:104,1,105,8|0
152,56,133589,2,0,B|256:16|360:56,1,210,8|2
448,72,134292,1,8
376,136,134527,1,0
208,304,134996,6,0,B|264:344|320:296,1,105
376,240,135464,1,0
360,136,135699,2,0,B|256:96|152:136,1,210,0|2
80,192,136402,1,0
160,240,136636,1,0
256,40,137105,6,0,B|256:152,1,105
256,248,137574,1,0
256,192,137808,12,4,138746
256,40,153746,5,0
40,192,154214,1,0
256,344,154683,1,0
472,192,155152,1,0
256,40,155621,6,0,B|200:48|160:96,1,105
256,40,156089,2,0,B|312:48|352:96,1,105
256,144,156558,2,0,B|256:256,1,105
256,352,157027,1,0
256,40,157496,5,0
256,40,157613,1,0
256,40,157730,1,0
216,136,157964,1,0
296,192,158199,1,0
216,248,158433,1,0
296,296,158667,1,0
216,344,158902,1,0
256,160,159371,6,0,B|256:96,2,52.5
160,176,159839,1,0
208,256,160074,1,0
304,256,160308,1,0
352,176,160542,1,0
352,176,160777,1,0
256,344,161246,5,0
168,136,161714,1,0
208,48,161949,1,0
304,48,162183,1,0
344,136,162417,1,0
256,128,162652,2,0,B|256:248,1,105
360,312,163121,2,0,B|256:352|152:312,1,210,0|2
88,240,163824,1,0
32,168,164058,1,0
88,96,164292,1,0
144,168,164527,1,0
416,136,164996,5,4
344,80,165230,1,0
256,48,165464,1,0
256,48,165699,1,0
168,80,165933,1,0
96,136,166167,1,0
256,192,166402,2,0,B|256:136,2,52.5
256,344,166871,5,4
40,192,167339,1,0
256,40,167808,1,0
472,192,168277,1,0
256,344,168746,1,4
256,344,185621,6,0,B|256:208,1,105,4|0
336,288,186089,2,0,B|336:160,1,105
184,120,186792,5,4
184,120,187027,1,0
256,56,187261,2,0,B|256:184,1,105
336,112,187730,2,0,B|336:224,1,105
376,288,188199,2,0,B|344:360|264:352,1,105
136,288,188667,2,0,B|168:360|248:352,1,105
360,72,189371,6,0,B|256:32|152:72,1,210,0|2
80,136,190074,1,0
256,192,190542,6,0,B|408:192,1,105
328,280,191011,1,0
256,344,191246,2,0,B|200:376|144:336,1,105
80,288,191714,2,0,B|80:168,1,105
80,88,192183,1,0
256,192,192652,1,0
152,312,193121,6,0,B|256:352|360:312,1,210,4|2
440,272,193824,1,0
336,96,194292,5,0
256,48,194527,1,0
176,96,194761,1,0
256,152,194996,2,0,B|256:280,1,105
360,328,195464,2,0,B|256:368|152:328,1,210,0|2
64,312,196167,1,0
136,248,196402,1,0
304,80,196871,6,0,B|248:40|192:88,1,105,4|0
136,144,197339,1,0
152,256,197574,2,0,B|256:296|360:256,1,210,0|2
432,192,198277,1,0
352,144,198511,1,0
184,280,198980,5,0
256,344,199214,1,0
328,280,199449,1,0
256,216,199683,1,0
256,216,199917,1,0
256,120,200152,1,0
152,72,200621,6,0,B|256:32|360:72,1,210,4|2
440,120,201324,1,0
328,264,201792,5,0
328,264,202027,1,0
256,328,202261,1,0
184,264,202496,1,0
184,264,202730,1,0
120,192,202964,1,0
136,96,203199,2,0,B|168:24|248:32,1,105
376,96,203667,2,0,B|344:24|264:32,1,105
152,312,204371,6,0,B|256:352|360:312,1,210,4|2
432,248,205074,1,0
216,200,205542,5,0
296,152,205777,1,0
216,104,206011,1,0
296,56,206246,2,0,B|352:24|408:64,1,105
480,104,206714,1,0
400,152,206949,1,0
480,200,207183,1,0
256,336,207652,1,0
360,64,208121,6,0,B|256:24|152:64,1,210,4|2
72,112,208824,1,0
176,288,209292,5,0
256,336,209527,1,0
336,288,209761,1,0
256,232,209996,2,0,B|256:104,1,105
152,56,210464,2,0,B|256:16|360:56,1,210,0|2
448,72,211167,1,0
376,136,211402,1,0
208,304,211871,6,0,B|264:344|320:296,1,105
376,240,212339,1,0
360,128,212574,2,0,B|256:88|152:128,1,210,0|2
80,192,213277,1,0
160,240,213511,1,0
328,104,213980,5,0
256,40,214214,1,0
184,104,214449,1,0
256,192,214683,12,2,217496
