osu file format v9

[General]
AudioFilename: WHY (Serious Remix).mp3
AudioLeadIn: 0
PreviewTime: 63746
Countdown: 1
SampleSet: Soft
StackLeniency: 0.7
Mode: 0
LetterboxInBreaks: 1

[Editor]
Bookmarks: 18746,33746,48746,63746,78746,93746,108746,123746,138746,153746,168746,185621,213746
DistanceSpacing: 1.1
BeatDivisor: 4
GridSize: 8

[Metadata]
Title:Why (Serious Mix)
Artist:Miliyah Kato
Creator:dkun
Version:Hearts in Sync!
Source:
Tags:mmzz sync

[Difficulty]
HPDrainRate:4
CircleSize:4
OverallDifficulty:5
ApproachRate:6
SliderMultiplier:1.6
SliderTickRate:1

[Events]
//Background and Video events
0,0,"waiting-beach-lonely-alone.jpg"
//Break Periods
2,33746,47696
2,108946,122696
2,138746,152696
2,168746,179883
//Storyboard Layer 0 (Background)
//Storyboard Layer 1 (Fail)
//Storyboard Layer 2 (Pass)
//Storyboard Layer 3 (Foreground)
//Storyboard Sound Samples
//Background Colour Transformations
3,100,163,162,255

[TimingPoints]
18746,468.75,4,2,0,60,1,0
52496,-100,4,2,0,75,0,0
56246,-100,4,2,0,60,0,0
63746,-100,4,2,0,100,0,1
78746,-100,4,2,0,60,0,0
123746,-100,4,2,0,100,0,1
138746,-100,4,2,0,100,0,0
153746,-100,4,2,0,60,0,0
157496,-100,4,2,0,65,0,0
161246,-100,4,2,0,70,0,0
164996,-100,4,2,0,75,0,0
183746,-100,4,2,0,15,0,0
185621,-100,4,2,0,100,0,1
213746,-100,4,2,0,100,0,0
215621,-100,4,2,0,40,0,0

[Colours]
Combo1 : 128,128,64
Combo2 : 128,64,0

[HitObjects]
184,128,18746,2,0,B|208:104|256:80|304:104|328:128,1,160,2|8
256,184,19449,2,0,B|280:208|328:232|376:208|400:184,2,160,0|0|2
184,128,20621,5,0
48,240,21089,1,8
216,296,21558,1,0
216,296,22027,2,0,B|255:312|272:352,2,80,8|0|0
120,144,22964,6,0,B|200:104|280:144,1,160,8|0
432,224,23902,2,0,B|352:264|272:224,1,160,8|0
120,312,24839,2,0,B|200:352|280:312,1,160,8|2
256,136,25777,1,2
256,136,26246,6,0,B|328:120|360:176|360:176|392:120|464:136,1,240,4|2
352,272,27417,2,0,B|304:282|283:245|283:245|261:282|214:272,1,160,0|2
64,56,28589,1,0
224,120,29058,1,8
80,216,29527,1,0
240,280,29996,6,0,B|264:304|312:328|360:304|384:280,1,160,0|8
480,136,30933,2,0,B|456:112|408:88|360:112|336:136,1,160,0|8
168,72,31871,2,0,B|144:96|96:120|48:96|24:72,2,160,0|8|2
264,224,33277,1,0
256,192,48746,5,4
176,352,49214,2,0,B|256:392|336:352,1,160,8|2
256,192,50152,1,8
96,112,50620,6,0,B|56:192|96:272,1,160,4|8
256,192,51558,1,0
336,32,52026,2,0,B|256:-8|176:32,1,160,8|2
256,192,52964,5,0
336,352,53433,2,0,B|256:392|176:352,1,160,0|2
104,192,54371,2,0,B|256:96|408:192,1,320,0|2
256,288,55777,1,0
256,288,56246,6,0,B|96:344,1,160,4|8
144,168,57183,2,0,B|295:115,1,160,0|8
256,288,58121,6,0,B|416:344,1,160,0|8
368,168,59058,2,0,B|216:115,1,160,0|8
112,256,59996,6,0,B|160:304|256:352|352:304|400:256,1,320,4|0
256,152,61402,1,8
256,192,61871,12,8,63277
256,192,63746,5,4
80,192,64214,2,0,B|80:128|80:128|112:96|112:96|112:32,1,160,8|0
168,208,65152,2,0,B|168:272|168:272|136:304|136:304|136:368,1,160,8|0
312,320,66089,2,0,B|362:320|362:320|394:352|394:352|458:352,2,160,8|0|8
256,152,67496,5,4
432,152,67964,2,0,B|432:88|432:88|400:56|400:56|400:-8,1,160,8|0
344,168,68902,2,0,B|344:232|344:232|376:264|376:264|376:328,1,160,8|0
200,280,69839,2,0,B|149:280|149:280|117:312|117:312|53:312,2,160,8|0|8
256,112,71246,5,4
256,112,71714,2,0,B|330:149|410:109,1,160,8|0
416,288,72652,2,0,B|336:328|256:288,1,160,8|0
120,192,73589,1,8
120,368,74058,1,0
256,192,74996,12,0,76871
256,192,77339,12,0,78746
256,192,79683,6,0,B|336:192|336:192|392:192|392:136,2,160,2|8|0
96,264,81089,2,8,B|72:240|48:192|72:144|96:120,2,160,8|0|8
256,344,82496,2,0,B|360:336|360:336|408:256,1,160,2|8
472,136,83433,2,0,B|368:144|368:144|320:224,1,160,0|8
160,192,84371,1,2
256,192,86246,6,0,B|408:240,1,160,2|8
320,88,87183,2,0,B|168:40,1,160,0|8
80,192,88121,1,0
216,304,88589,1,8
272,136,89058,1,0
408,24,89526,5,8
405,198,89996,2,0,B|253:294|101:198,1,320
256,104,91402,1,8
104,200,91871,2,0,B|256:296|413:194,1,320,2|2
256,104,93277,1,8
256,104,93746,6,0,B|272:88|272:88|288:104|288:104|304:88|304:88|320:104|320:104|336:88|336:88|344:96|392:104,1,160,4|8
256,232,94683,2,0,B|240:248|240:248|224:232|224:232|208:248|208:248|192:232|192:232|176:248|176:248|168:240|120:232,1,160,0|8
256,360,95621,1,0
424,296,96089,1,8
256,232,96558,1,0
88,296,97027,1,8
256,232,97496,6,8,B|232:208|208:160|232:112|256:88,2,160,2|8|0
424,168,98902,1,8
352,320,99371,2,8,B|376:344|424:368|472:344|496:320,2,160,2|8|0
256,184,100777,1,8
64,192,101246,6,0,B|168:320,1,160,4|8
352,312,102183,2,0,B|476:211,1,160,0|8
304,176,103121,2,0,B|200:48,1,160,0|8
128,208,104058,2,0,B|3:308,1,160,0|8
176,344,104996,5,2
336,272,105464,1,8
192,176,105933,1,2
344,88,106402,1,8
256,192,106871,12,4,108746
328,192,123746,6,0,B|304:216|256:240|208:216|184:192,2,160,4|8|0
200,312,125152,2,0,B|176:288|128:264|80:288|56:312,2,160,8|0|8
376,312,126558,1,0
288,160,127027,1,8
440,72,127496,6,0,B|288:-24|136:72,1,320,6|0
136,248,128902,2,0,B|285:342|437:246,1,320,10|8
288,160,130308,1,0
136,72,130777,1,8
288,160,131246,6,0,B|362:122|442:162,1,160,4|8
288,256,132183,2,0,B|213:293|133:253,2,160,0|8|0
216,96,133589,1,8
392,128,134058,1,0
360,304,134527,1,8
360,304,134996,6,0,B|200:304,1,160,4|8
48,216,135933,2,0,B|208:216,1,160,0|8
360,128,136871,2,0,B|200:128,1,160,0|8
48,40,137808,2,0,B|208:40,1,160,2|8
256,192,153746,5,4
88,136,154214,2,0,B|144:80|144:80|248:80,1,160,8|0
392,136,155152,2,0,B|336:192|336:192|232:192,1,160,8|0
120,304,156089,5,8
288,360,156558,1,0
432,256,157027,1,8
264,200,157496,6,0,B|264:112|264:112|264:48|192:48,1,160,4|8
88,160,158433,2,0,B|88:248|88:248|88:312|160:312,1,160,0|8
264,200,159371,6,0,B|344:240|424:200,1,160,0|8
416,24,160308,2,0,B|336:-16|256:24,1,160,0|8
112,112,161246,5,4
256,216,161714,1,8
256,216,162183,2,0,B|256:56,2,160,2|8|4
400,312,163589,2,0,B|376:336|328:360|280:336|256:312,2,160,8|0|8
328,152,164996,5,4
160,192,165464,2,0,B|160:352,1,160,8|0
328,312,166402,2,0,B|328:152,1,160,8|4
176,64,167339,1,8
40,176,167808,1,0
176,288,168277,1,8
256,192,180933,12,0,183746
256,192,185621,5,4
432,192,186089,2,0,B|432:128|432:128|400:96|400:96|400:32,1,160,8|0
344,208,187027,2,0,B|344:272|344:272|376:304|376:304|376:368,1,160,8|0
200,320,187964,2,0,B|150:320|150:320|118:352|118:352|54:352,2,160,8|0|8
256,152,189371,5,4
80,152,189839,2,0,B|80:88|80:88|112:56|112:56|112:-8,1,160,8|0
168,168,190777,2,0,B|168:232|168:232|136:264|136:264|136:328,1,160,8|0
312,280,191714,2,0,B|363:280|363:280|395:312|395:312|459:312,2,160,8|0|8
256,112,193121,5,4
256,112,193589,2,0,B|182:149|102:109,1,160,8|0
96,288,194527,2,0,B|176:328|256:288,1,160,8|0
392,192,195464,1,8
392,368,195933,1,0
240,280,196402,1,8
256,192,196871,12,0,198746
256,192,199214,12,4,200621
256,192,201089,6,0,B|344:192|344:192|400:144,1,160,8|0
256,40,202027,2,0,B|168:40|168:40|112:88,1,160,8|0
128,264,202964,2,0,B|144:256|144:256|160:264|160:264|176:256|176:256|192:264|192:264|208:256|208:256|224:264|224:264|240:256|240:256|256:264|256:264|280:256,1,160,8|0
392,136,203902,1,8
216,136,204371,6,8,B|199:141|199:141|183:133|183:133|167:141|167:141|151:133|151:133|135:141|135:141|119:133|119:133|103:141|103:141|87:133|87:133|71:141,2,160,4|8|0
360,232,205777,1,8
360,56,206246,2,0,B|288:40|288:40|216:72|184:56,1,160,0|8
80,184,207183,2,0,B|152:200|152:200|224:168|256:184,1,160,0|8
160,336,208121,5,4
336,328,208589,1,8
352,152,209058,1,0
176,168,209527,2,8,B|32:64,2,160,8|0|8
232,336,210933,2,0,B|316:307|345:222,1,160,0|8
256,192,211871,12,0,213746
256,192,214214,12,4,215621
