osu file format v14

[General]
AudioFilename: Mili - YUBIKIRI-GENMAN.mp3
AudioLeadIn: 0
PreviewTime: 66242
Countdown: 0
SampleSet: Soft
StackLeniency: 0.7
Mode: 0
LetterboxInBreaks: 0
WidescreenStoryboard: 1

[Editor]
DistanceSpacing: 1.7
BeatDivisor: 4
GridSize: 4
TimelineZoom: 1

[Metadata]
Title:YUBIKIRI-GENMAN
TitleUnicode:YUBIKIRI-GENMAN
Artist:Mili
ArtistUnicode:Mili
Creator:Pappy
Version:Promise
Source:Deemo
Tags:rayark yamato kasai hamoloid hamo
BeatmapID:891419
BeatmapSetID:410821

[Difficulty]
HPDrainRate:5
CircleSize:3.9
OverallDifficulty:7
ApproachRate:7.5
SliderMultiplier:1.8
SliderTickRate:1

[Events]
//Background and Video events
0,0,"bg.jpeg",0,0
//Break Periods
2,86578,98499
2,142469,162403
//Storyboard Layer 0 (Background)
//Storyboard Layer 1 (Fail)
//Storyboard Layer 2 (Pass)
//Storyboard Layer 3 (Foreground)
//Storyboard Sound Samples

[TimingPoints]
900,410.958904109589,4,2,1,40,1,0
900,-200,4,2,1,40,0,0
14050,-166.666666666667,4,2,1,40,0,0
66653,-133.333333333333,4,2,1,40,0,0
79804,-200,4,2,1,20,0,0
86379,-166.666666666667,4,2,1,40,0,0
164461,-200,4,2,1,40,0,0
165283,-133.333333333333,4,2,1,40,0,0
178434,-100,4,2,1,40,0,0
188297,-133.333333333333,4,2,1,40,0,0
191584,-200,4,2,1,20,0,0
198160,-200,4,2,1,20,0,0
221173,422.535211267606,4,2,1,20,1,0
221173,-200,4,2,1,20,0,0
222018,535.714285714286,4,2,1,20,1,0
222018,-200,4,2,1,20,0,0
222821,504.201680672269,4,2,1,20,1,0
223073,526.315789473684,4,2,1,20,1,0
223073,504.201680672269,4,2,1,20,1,0
223073,-200,4,2,1,20,0,0
223325,550.45871559633,4,2,1,20,1,0
223600,-200,4,2,1,20,0,0
224150,600,4,2,1,20,1,0
224450,705.882352941176,4,2,1,20,1,0
224450,-200,4,2,1,20,0,0
224802,810.810810810811,4,2,1,20,1,0
224802,-200,4,2,1,20,0,0
225207,1016.94915254237,4,2,1,20,1,0

[Colours]
Combo1 : 255,255,128
Combo2 : 128,255,128

[HitObjects]
120,148,900,6,0,L|168:140,1,45,2|0,0:0|0:0,0:0:0:0:
164,232,1310,1,0,0:0:0:0:
69,228,1516,2,0,L|38:190,1,45,2|0,0:0|0:0,0:0:0:0:
40,108,1927,1,2,0:0:0:0:
48,88,2132,1,0,0:0:0:0:
56,68,2338,1,2,0:0:0:0:
140,36,2543,6,0,P|176:44|192:56,1,45,2|0,0:0|0:0,0:0:0:0:
132,124,2954,1,0,0:0:0:0:
220,132,3160,2,0,P|238:119|251:101,1,45,2|0,0:0|0:0,0:0:0:0:
268,12,3571,1,2,0:0:0:0:
288,16,3776,1,0,0:0:0:0:
308,20,3982,1,2,0:0:0:0:
396,40,4187,6,0,B|401:62|401:62|402:86,1,45,2|0,0:0|0:0,0:0:0:0:
336,144,4598,1,0,0:0:0:0:
253,180,4804,2,0,B|248:158|248:158|248:136,1,45,2|0,0:0|0:0,0:0:0:0:
327,234,5215,1,2,0:0:0:0:
336,256,5420,1,0,0:0:0:0:
344,276,5626,1,2,0:0:0:0:
380,360,5831,6,0,L|336:356,1,45,2|0,0:0|0:0,0:0:0:0:
256,312,6242,1,0,0:0:0:0:
176,352,6447,2,0,L|132:356,1,45,2|0,0:0|0:0,0:0:0:0:
68,292,6858,1,2,0:0:0:0:
136,232,7064,1,0,0:0:0:0:
51,204,7269,1,2,0:0:0:0:
130,123,7475,6,0,P|138:105|144:80,1,45,2|0,0:0|0:0,0:0:0:0:
56,72,7886,1,0,0:0:0:0:
232,60,8091,2,0,L|244:16,1,45,2|0,0:0|0:0,0:0:0:0:
320,64,8502,1,2,0:0:0:0:
332,84,8708,1,0,0:0:0:0:
344,104,8913,1,2,0:0:0:0:
384,184,9119,6,0,P|344:196|328:192,1,45,2|0,0:0|0:0,0:0:0:0:
434,110,9530,1,0,0:0:0:0:
475,190,9735,2,0,P|505:218|509:234,1,45,2|0,0:0|0:0,0:0:0:0:
428,264,10146,1,2,0:0:0:0:
420,284,10352,1,0,0:0:0:0:
412,304,10557,1,2,0:0:0:0:
329,339,10763,6,0,P|323:318|324:295,1,45,2|0,0:0|0:0,0:0:0:0:
352,212,11173,1,0,0:0:0:0:
225,212,11379,2,0,P|246:216|265:228,1,45,2|0,0:0|0:0,0:0:0:0:
352,212,11790,1,2,0:0:0:0:
356,188,11995,1,0,0:0:0:0:
360,164,12201,1,2,0:0:0:0:
432,112,12406,6,0,P|448:140|448:164,1,45,2|0,0:0|0:0,0:0:0:0:
351,76,12817,1,0,0:0:0:0:
224,44,13023,2,0,L|268:36,1,45,2|0,0:0|0:0,0:0:0:0:
264,128,13434,1,2,0:0:0:0:
171,120,13639,1,0,0:0:0:0:
224,44,13845,1,2,0:0:0:0:
211,204,14050,5,2,0:0:0:0:
240,224,15283,2,0,L|296:220,1,53.9999983520508,0|2,0:0|0:0,0:0:0:0:
324,248,16721,6,0,P|324:280|316:308,2,53.9999983520508,0|2|0,0:0|0:0|0:0,0:0:0:0:
293,220,18571,2,0,P|293:188|301:160,1,53.9999983520508,2|0,0:0|0:0,0:0:0:0:
352,92,18982,5,2,0:0:0:0:
352,92,19187,2,0,L|408:104,1,53.9999983520508
260,82,19598,2,0,L|204:70,1,53.9999983520508,2|0,0:0|0:0,0:0:0:0:
128,28,20009,1,2,0:0:0:0:
128,28,20215,2,0,P|118:56|119:82,1,53.9999983520508,2|0,0:0|0:0,0:0:0:0:
172,152,20626,6,0,P|164:248|155:263,1,107.999996704102,2|0,0:0|0:0,0:0:0:0:
63,297,21242,2,0,P|107:266|160:256,1,107.999996704102,2,0:0,0:0:0:0:
248,272,21858,2,0,P|288:276|308:272,1,53.9999983520508,2|0,0:0|0:0,0:0:0:0:
380,224,22269,6,0,P|392:296|376:328,1,107.999996704102,2|0,0:0|0:0,0:0:0:0:
300,272,22886,2,0,P|279:255|264:234,2,53.9999983520508,2|0|0,2:0|2:0|2:0,2:0:0:0:
380,224,23502,2,0,P|377:197|381:170,1,53.9999983520508,2|0,2:0|2:0,2:0:0:0:
470,245,23913,6,0,L|488:356,1,107.999996704102,2|0,2:0|2:0,2:0:0:0:
396,360,24530,2,0,B|392:336|392:336|308:352,1,107.999996704102,2|0,0:0|0:0,0:0:0:0:
260,276,25146,2,0,L|321:263,1,53.9999983520508,2|0,0:0|0:0,0:0:0:0:
427,213,25557,6,0,P|400:210|376:200,1,53.9999983520508,2|0,0:0|0:0,0:0:0:0:
320,128,25968,1,0,0:0:0:0:
292,132,26379,1,2,0:0:0:0:
168,48,26584,1,2,0:0:0:0:
219,188,26790,1,2,0:0:0:0:
143,136,26995,1,2,0:0:0:0:
260,45,27201,6,0,P|313:33|364:16,1,107.999996704102,6|0,0:0|0:0,0:0:0:0:
484,95,27817,2,0,P|431:107|380:124,1,107.999996704102,2|0,0:0|0:0,0:0:0:0:
288,128,28434,1,2,0:0:0:0:
288,128,28639,1,2,0:0:0:0:
219,188,28845,6,0,P|215:252|243:288,1,107.999996704102,2|0,0:0|0:0,0:0:0:0:
398,250,29461,2,0,P|356:218|304:220,1,107.999996704102,2|0,0:0|0:0,0:0:0:0:
304,354,30078,2,0,P|320:333|328:308,1,53.9999983520508,2|2,0:0|0:0,0:0:0:0:
305,166,30489,6,0,P|299:192|304:219,1,53.9999983520508,2|0,0:0|0:0,0:0:0:0:
328,307,30900,1,0,0:0:0:0:
384,192,31105,2,0,P|390:166|385:139,1,53.9999983520508,2|0,0:0|0:0,0:0:0:0:
361,51,31516,1,0,0:0:0:0:
234,61,31721,1,2,0:0:0:0:
208,48,31927,1,2,0:0:0:0:
180,32,32132,6,0,B|160:96|160:96|128:124,1,107.999996704102,2|0,0:0|0:0,0:0:0:0:
48,168,32749,2,0,P|40:220|72:280,1,107.999996704102,2|0,0:0|0:0,0:0:0:0:
144,312,33365,2,0,P|192:316|208:312,1,53.9999983520508,2|0,0:0|0:0,0:0:0:0:
368,312,33776,6,0,P|320:316|304:312,1,53.9999983520508,2|0,0:0|0:0,0:0:0:0:
256,244,34187,1,0,0:0:0:0:
400,224,34393,2,0,P|448:220|464:224,1,53.9999983520508,2|0,0:0|0:0,0:0:0:0:
512,292,34804,1,0,0:0:0:0:
508,144,35009,2,0,L|492:92,1,53.9999983520508,2|0,0:0|0:0,0:0:0:0:
460,4,35420,6,0,P|416:32|360:32,1,107.999996704102,2|0,0:0|0:0,0:0:0:0:
268,32,36036,2,0,B|244:80,1,53.9999983520508,2|0,0:0|0:0,0:0:0:0:
200,160,36447,1,0,0:0:0:0:
128,36,36653,2,0,B|152:84,1,53.9999983520508,2|0,0:0|0:0,0:0:0:0:
250,235,37064,6,0,P|203:251|145:232,1,107.999996704102,2|0,0:0|0:0,0:0:0:0:
296,152,37680,2,0,P|333:184|345:244,1,107.999996704102,2|0,0:0|0:0,0:0:0:0:
200,160,38297,2,0,P|200:128|220:96,1,53.9999983520508,2|0,0:0|0:0,0:0:0:0:
288,64,38708,5,2,0:0:0:0:
304,48,39119,2,0,L|360:40,1,53.9999983520508,2|0,0:0|0:0,0:0:0:0:
344,132,39530,2,0,L|398:148,1,53.9999983520508
344,224,39941,2,0,L|386:261,1,53.9999983520508,0|2,0:0|0:0,0:0:0:0:
304,304,40352,6,0,B|264:268|264:268|256:276|256:276|224:240|168:248,1,161.999995056153,2|0,0:0|0:0,0:0:0:0:
76,248,41173,2,0,P|40:204|60:108,1,161.999995056153,2|0,0:0|0:0,0:0:0:0:
124,172,41995,5,2,0:0:0:0:
136,180,42612,1,0,0:0:0:0:
216,224,42817,2,0,L|328:216,1,107.999996704102,2|0,0:0|0:0,0:0:0:0:
409,250,43434,1,0,0:0:0:0:
467,178,43639,5,2,0:0:0:0:
327,124,44050,1,2,0:0:0:0:
409,250,44461,1,2,0:0:0:0:
416,101,44872,1,2,0:0:0:0:
323,216,45283,6,0,P|317:253|320:273,1,53.9999983520508
240,316,45694,2,0,P|210:292|192:284,1,53.9999983520508,2|0,0:0|0:0,0:0:0:0:
194,194,46105,2,0,P|229:180|244:168,1,53.9999983520508
114,241,46516,2,0,P|78:254|63:266,1,53.9999983520508,2|0,0:0|0:0,0:0:0:0:
125,333,46927,2,0,B|164:343|198:313|198:313|235:282|275:292,1,161.999995056153
360,252,47749,2,0,P|432:240|500:300,1,161.999995056153,2|0,0:0|0:0,0:0:0:0:
412,332,48571,5,2,0:0:0:0:
396,308,49187,1,0,0:0:0:0:
320,360,49393,2,0,L|212:344,1,107.999996704102,2|0,0:0|0:0,0:0:0:0:
124,332,50009,1,0,0:0:0:0:
180,260,50215,6,0,P|148:208|140:200,1,53.9999983520508,2|0,0:0|0:0,0:0:0:0:
212,144,50626,2,0,L|200:92,1,53.9999983520508
300,144,51036,2,0,L|312:92,1,53.9999983520508,2|0,0:0|0:0,0:0:0:0:
331,260,51447,2,0,P|343:235|359:213,1,53.9999983520508
424,280,51858,5,0,0:0:0:0:
364,348,52064,1,0,0:0:0:0:
272,336,52269,2,0,L|216:348,1,53.9999983520508,2|0,0:0|0:0,0:0:0:0:
240,252,52680,5,0,0:0:0:0:
300,184,52886,1,0,0:0:0:0:
392,196,53091,2,0,L|448:184,1,53.9999983520508,2|0,0:0|0:0,0:0:0:0:
357,111,53502,6,0,P|360:48|340:8,1,107.999996704102,2|0,0:0|0:0,0:0:0:0:
272,72,54119,1,0,0:0:0:0:
203,135,54324,2,0,P|181:86|187:33,1,107.999996704102,2|0,0:0|0:0,0:0:0:0:
272,72,54941,1,0,0:0:0:0:
288,164,55146,6,0,P|256:207|207:229,1,107.999996704102,2|0,0:0|0:0,0:0:0:0:
124,268,55763,1,0,0:0:0:0:
40,228,55968,2,0,L|56:116,1,107.999996704102,2|0,0:0|0:0,0:0:0:0:
140,80,56584,1,0,0:0:0:0:
228,108,56790,6,0,P|208:144|194:156,1,53.9999983520508,2|0,0:0|0:0,0:0:0:0:
140,80,57201,2,0,P|118:44|115:26,1,53.9999983520508
208,17,57612,2,0,P|249:16|266:22,1,53.9999983520508,2|0,0:0|0:0,0:0:0:0:
372,94,58023,2,0,P|345:96|318:90,1,53.9999983520508
428,16,58434,6,0,P|465:73|465:114,1,107.999996704102,0|2,0:0|0:0,0:0:0:0:
416,182,59050,1,0,0:0:0:0:
456,264,59256,1,0,0:0:0:0:
467,106,59667,1,2,0:0:0:0:
416,182,59872,1,0,0:0:0:0:
324,175,60078,6,0,P|256:184|216:172,1,107.999996704102,2|0,0:0|0:0,0:0:0:0:
136,136,60694,1,0,0:0:0:0:
136,136,60899,2,0,P|127:178|159:242,1,107.999996704102,2|0,0:0|0:0,0:0:0:0:
219,173,61516,1,0,0:0:0:0:
352,120,61721,6,0,L|460:128,1,107.999996704102,2|0,0:0|0:0,0:0:0:0:
512,200,62338,1,0,0:0:0:0:
437,301,62543,2,0,P|376:309|333:287,1,107.999996704102,2|0,0:0|0:0,0:0:0:0:
396,220,63160,1,0,0:0:0:0:
440,120,63365,6,0,L|416:64,1,53.9999983520508,2|0,0:0|0:0,0:0:0:0:
310,50,63776,2,0,L|332:100,1,53.9999983520508
244,170,64187,2,0,L|222:120,1,53.9999983520508,2|0,0:0|0:0,0:0:0:0:
115,100,64598,2,0,L|136:149,1,53.9999983520508
176,232,65009,5,2,0:0:0:0:
50,310,65214,1,0,0:0:0:0:
198,321,65420,1,2,0:0:0:0:
84,225,65625,1,0,0:0:0:0:
120,369,65831,1,2,0:0:0:0:
159,345,66447,1,0,0:0:0:0:
276,273,66653,6,0,L|412:284,1,135.000005149842,6|0,0:0|0:0,0:0:0:0:
500,232,67269,1,2,0:0:0:0:
392,148,67475,2,0,P|392:84|436:30,1,135.000005149842,2|0,0:0|0:0,0:0:0:0:
487,117,68091,1,2,0:0:0:0:
304,28,68297,6,0,P|248:59|179:48,1,135.000005149842,2|0,2:0|2:0,2:0:0:0:
80,32,68913,2,0,P|60:32|46:34,2,33.7500012874604,2|2|2,0:0|0:0|0:0,0:0:0:0:
132,40,69735,1,2,0:0:0:0:
89,152,69941,6,0,P|89:212|141:268,1,135.000005149842,2|0,0:0|0:0,0:0:0:0:
232,228,70557,1,2,0:0:0:0:
216,328,70763,1,2,0:0:0:0:
354,243,70968,2,0,P|302:213|227:230,1,135.000005149842,2|2,0:0|0:0,0:0:0:0:
436,316,71584,6,0,L|452:180,1,135.000005149842,2|0,0:0|0:0,0:0:0:0:
356,144,72201,1,2,0:0:0:0:
512,24,72406,2,0,P|508:60|498:90,1,67.5000025749208,2|0,0:0|0:0,0:0:0:0:
470,102,73023,1,2,0:0:0:0:
327,156,73228,6,0,P|260:140|200:168,1,135.000005149842,2|0,0:0|0:0,0:0:0:0:
270,241,73845,1,2,0:0:0:0:
373,248,74050,1,2,0:0:0:0:
315,333,74256,1,0,0:0:0:0:
476,255,74461,1,2,0:0:0:0:
373,248,74667,1,2,0:0:0:0:
431,163,74872,6,0,P|396:84|412:32,1,135.000005149842,2|0,0:0|0:0,0:0:0:0:
497,87,75489,1,2,0:0:0:0:
316,172,75694,2,0,L|248:164,2,67.5000025749208,2|0|2,0:0|0:0|0:0,0:0:0:0:
373,248,76310,1,0,0:0:0:0:
430,324,76516,6,0,L|498:332,1,67.5000025749208,2|2,0:0|0:0,0:0:0:0:
512,300,77132,2,0,P|488:232|500:168,1,135.000005149842,2|0,0:0|0:0,0:0:0:0:
500,68,77749,2,0,P|488:24|472:4,1,67.5000025749208,2|0,0:0|0:0,0:0:0:0:
404,80,78160,5,2,0:0:0:0:
264,32,78365,1,0,0:0:0:0:
340,148,78571,1,2,0:0:0:0:
177,75,78776,1,0,0:0:0:0:
368,176,78982,5,2,0:0:0:0:
183,93,79187,1,0,0:0:0:0:
272,259,79393,1,2,0:0:0:0:
59,141,79598,1,0,0:0:0:0:
267,15,79804,5,2,0:0:0:0:
215,89,80420,1,2,0:0:0:0:
128,64,80626,2,0,P|124:108|144:148,1,90,2|0,0:0|0:0,0:0:0:0:
228,180,81447,2,0,P|247:219|243:263,1,90,2|0,0:0|0:0,0:0:0:0:
160,236,82269,1,2,0:0:0:0:
178,330,82680,1,2,0:0:0:0:
264,356,83091,6,0,B|315:363|344:336|344:336|344:348|344:348|376:320|424:328,1,180,2|0,0:0|0:0,0:0:0:0:
440,308,84735,2,0,B|456:260|440:220|440:220|420:176|440:132,1,180,2|0,0:0|0:0,0:0:0:0:
432,112,86173,6,0,L|388:104,1,45,0|2,0:0|0:0,0:0:0:0:
136,128,99324,5,2,0:0:0:0:
236,88,99530,2,0,P|296:92|344:84,1,107.999996704102,2|0,0:0|0:0,0:0:0:0:
444,44,100146,1,2,0:0:0:0:
428,150,100352,2,0,P|394:199|377:245,1,107.999996704102,2|0,0:0|0:0,0:0:0:0:
360,352,100968,1,2,0:0:0:0:
276,285,101173,6,0,P|249:231|218:193,1,107.999996704102,2|0,0:0|0:0,0:0:0:0:
136,124,101790,2,0,P|116:88|112:60,1,53.9999983520508,2|2,0:0|0:0,0:0:0:0:
212,68,102406,1,0,0:0:0:0:
212,68,102611,1,2,0:0:0:0:
212,68,102817,6,0,P|253:68|279:79,1,53.9999983520508,2|0,0:0|0:0,0:0:0:0:
222,161,103434,1,2,0:0:0:0:
222,161,103639,2,0,P|200:196|178:213,1,53.9999983520508,2|0,0:0|0:0,0:0:0:0:
104,248,104256,5,2,0:0:0:0:
100,296,104462,2,0,L|93:357,1,53.9999983520508,2|0,0:0|0:0,0:0:0:0:
240,280,105077,1,2,0:0:0:0:
271,316,105283,2,0,L|309:364,1,53.9999983520508,2|0,0:0|0:0,0:0:0:0:
412,336,105694,5,0,0:0:0:0:
484,296,105899,1,2,0:0:0:0:
433,229,106105,2,0,L|452:116,1,107.999996704102,2|0,0:0|0:0,0:0:0:0:
391,68,106721,1,2,0:0:0:0:
374,145,106927,2,0,L|355:32,1,107.999996704102,2|0,0:0|0:0,0:0:0:0:
276,56,107543,1,2,0:0:0:0:
196,72,107749,6,0,B|152:80|120:72|120:72|96:72|80:80,1,107.999996704102,2|0,0:0|0:0,0:0:0:0:
112,156,108365,1,2,0:0:0:0:
124,236,108571,2,0,P|104:292|56:208,2,215.999993408203,2|0|2,0:0|0:0|0:0,0:0:0:0:
112,152,110420,1,0,0:0:0:0:
160,80,110626,1,0,0:0:0:0:
244,56,110831,1,0,0:0:0:0:
328,36,111036,6,0,P|328:76|324:96,1,53.9999983520508,2|0,0:0|0:0,0:0:0:0:
72,76,111447,2,0,P|100:47|117:36,1,53.9999983520508
160,120,111858,1,2,0:0:0:0:
184,204,112064,1,0,0:0:0:0:
164,288,112269,1,0,0:0:0:0:
104,352,112475,1,0,0:0:0:0:
39,231,112680,6,0,B|40:300|108:324|176:296|172:228|172:228|236:230|268:184,1,323.999990112305,2|0,0:0|0:0,0:0:0:0:
324,132,114119,1,0,0:0:0:0:
344,212,114324,2,0,L|416:232,1,53.9999983520508,2|0,0:0|0:0,0:0:0:0:
468,188,114735,1,0,0:0:0:0:
468,268,114941,2,0,L|488:148,1,107.999996704102,2|0,0:0|0:0,0:0:0:0:
444,42,115557,2,0,L|436:96,1,53.9999983520508,2|0,0:0|0:0,0:0:0:0:
364,132,115968,5,2,0:0:0:0:
288,164,116173,1,0,0:0:0:0:
214,125,116379,1,0,0:0:0:0:
196,43,116584,1,2,0:0:0:0:
170,36,117201,1,2,0:0:0:0:
90,11,117406,1,2,0:0:0:0:
20,56,117612,6,0,L|32:120,1,53.9999983520508,2|0,0:0|0:0,0:0:0:0:
48,188,118023,1,0,0:0:0:0:
138,264,118228,2,0,L|126:200,1,53.9999983520508,2|0,0:0|0:0,0:0:0:0:
110,132,118639,1,0,0:0:0:0:
161,22,118845,2,0,L|170:75,1,53.9999983520508,2|0,0:0|0:0,0:0:0:0:
228,192,119256,6,0,P|280:199|328:175,1,107.999996704102,6|0,0:0|0:0,0:0:0:0:
303,12,119872,2,0,P|270:54|267:107,1,107.999996704102,2|0,0:0|0:0,0:0:0:0:
400,120,120489,2,0,P|367:92|347:84,1,53.9999983520508,2|0,0:0|0:0,0:0:0:0:
411,210,120899,6,0,P|451:195|468:182,2,53.9999983520508,2|0|0,0:0|0:0|0:0,0:0:0:0:
328,175,121516,2,0,P|320:212|353:280,1,107.999996704102,2|0,0:0|0:0,0:0:0:0:
316,352,122132,2,0,P|275:366|258:379,1,53.9999983520508,2|0,0:0|0:0,0:0:0:0:
196,288,122543,6,0,P|160:260|149:244,1,53.9999983520508,2|0,0:0|0:0,0:0:0:0:
128,176,122954,1,0,0:0:0:0:
232,88,123160,2,0,P|229:142|207:191,1,107.999996704102,2|0,0:0|0:0,0:0:0:0:
148,94,123776,1,2,0:0:0:0:
124,68,124187,6,0,L|72:84,1,53.9999983520508,2|0,0:0|0:0,0:0:0:0:
4,40,124598,2,0,P|-7:101|16:143,1,107.999996704102,2|0,0:0|0:0,0:0:0:0:
72,196,125215,1,0,0:0:0:0:
76,276,125420,1,2,0:0:0:0:
4,240,125626,1,2,0:0:0:0:
144,232,125831,6,0,L|201:227,1,53.9999983520508,2|0,0:0|0:0,0:0:0:0:
232,224,126447,1,2,0:0:0:0:
372,216,126653,2,0,L|429:211,1,53.9999983520508,2|0,0:0|0:0,0:0:0:0:
464,208,127269,1,2,0:0:0:0:
324,200,127474,6,0,L|267:195,1,53.9999983520508,2|0,0:0|0:0,0:0:0:0:
236,192,128090,1,2,0:0:0:0:
96,184,128297,2,0,L|39:179,1,53.9999983520508,2|0,0:0|0:0,0:0:0:0:
140,92,128708,2,0,L|197:97,1,53.9999983520508,2|2,0:0|0:0,0:0:0:0:
290,8,129119,6,0,P|360:40|388:68,1,107.999996704102,2|2,0:0|0:0,0:0:0:0:
332,124,129735,1,0,0:0:0:0:
360,200,129941,1,2,0:0:0:0:
440,216,130146,1,0,0:0:0:0:
472,292,130352,2,0,P|468:336|456:360,1,53.9999983520508,2|0,0:0|0:0,0:0:0:0:
360,308,130763,6,0,L|248:320,1,107.999996704102,2|0,0:0|0:0,0:0:0:0:
176,292,131379,1,0,0:0:0:0:
128,228,131584,2,0,P|116:192|120:164,1,53.9999983520508,2|0,0:0|0:0,0:0:0:0:
144,56,131995,2,0,P|155:81|156:108,1,53.9999983520508,0|2,0:0|0:0,0:0:0:0:
224,188,132406,6,0,L|336:176,1,107.999996704102,2|0,0:0|0:0,0:0:0:0:
412,168,133023,1,2,0:0:0:0:
484,272,133228,2,0,P|448:336|416:348,1,107.999996704102,2|0,0:0|0:0,0:0:0:0:
297,266,133845,1,2,0:0:0:0:
297,266,134050,6,0,P|367:246|398:260,1,107.999996704102,2|0,0:0|0:0,0:0:0:0:
276,355,134667,1,2,0:0:0:0:
276,355,134872,2,0,P|212:319|200:287,1,107.999996704102,2|0,0:0|0:0,0:0:0:0:
228,212,135489,1,2,0:0:0:0:
184,144,135694,6,0,B|180:120|164:100|164:100|111:94|92:32|92:32|82:61|48:72,1,215.999993408203,2|2,0:0|0:0,0:0:0:0:
16,92,137338,2,0,B|-6:149|44:187|44:187|90:221|70:285,1,215.999993408203,2|2,0:0|0:0,0:0:0:0:
168,328,138571,1,0,0:0:0:0:
208,228,138982,6,0,B|216:200|208:172|160:196|120:136|140:92|156:68|196:64|228:76|228:76|248:48|288:40|324:48|348:84|328:140|304:156|296:184|328:192,2,431.999986816407,6|0|2,0:0|0:0|0:0,0:0:0:0:
172,84,163228,5,0,0:0:0:0:
160,116,163639,5,2,2:0:0:0:
20,221,163845,1,0,2:0:0:0:
195,218,164050,1,0,2:0:0:0:
52,117,164256,1,2,2:0:0:0:
108,283,164461,6,0,P|147:317|200:324,1,90,2|0,0:0|0:0,0:0:0:0:
280,280,165078,1,2,0:0:0:0:
377,235,165283,6,0,L|380:100,1,135.000005149842,6|0,0:0|0:0,0:0:0:0:
464,44,165900,1,2,0:0:0:0:
280,72,166105,2,0,P|208:72|160:108,1,135.000005149842,2|0,0:0|0:0,0:0:0:0:
244,168,166721,1,2,0:0:0:0:
56,108,166927,6,0,L|52:176,1,67.5000025749208,2|0,0:0|0:0,0:0:0:0:
148,208,167338,1,0,0:0:0:0:
232,268,167543,1,2,0:0:0:0:
232,268,167646,1,2,0:0:0:0:
232,268,167749,2,0,P|197:296|170:307,1,67.5000025749208,2|0,0:0|0:0,0:0:0:0:
244,168,168160,1,0,0:0:0:0:
324,232,168365,1,2,0:0:0:0:
435,311,168571,6,0,P|440:244|412:184,1,135.000005149842,2|0,0:0|0:0,0:0:0:0:
332,120,169187,1,2,0:0:0:0:
196,40,169393,1,2,0:0:0:0:
296,28,169598,2,0,L|220:152,1,135.000005149842,2|0,0:0|0:0,0:0:0:0:
112,232,170215,6,0,P|54:216|12:155,1,135.000005149842,2|0,0:0|0:0,0:0:0:0:
112,128,170831,2,0,P|116:92|112:76,2,33.7500012874604,2|2|2,0:0|0:0|0:0,0:0:0:0:
112,336,171652,1,2,0:0:0:0:
203,284,171858,6,0,B|247:291|247:291|292:291|292:291|339:299,1,135.000005149842,2|0,0:0|0:0,0:0:0:0:
436,280,172475,1,2,0:0:0:0:
480,188,172680,6,0,P|464:136|448:120,1,67.5000025749208,2|0,0:0|0:0,0:0:0:0:
332,38,173091,2,0,P|337:72|356:100,1,67.5000025749208
428,32,173502,5,2,0:0:0:0:
272,160,173913,1,0,0:0:0:0:
172,136,174119,1,2,0:0:0:0:
202,235,174324,2,0,P|204:292|200:312,1,67.5000025749208,2|0,0:0|0:0,0:0:0:0:
104,272,174735,2,0,P|65:313|48:325,1,67.5000025749208,0|2,0:0|0:0,0:0:0:0:
8,232,175146,5,2,0:0:0:0:
8,232,175352,2,0,B|32:200|32:200|24:104,1,135.000005149842,2|2,0:0|0:0,0:0:0:0:
48,72,176173,1,0,0:0:0:0:
140,28,176379,2,0,L|212:48,1,67.5000025749208,0|2,0:0|0:0,0:0:0:0:
288,108,176790,5,2,0:0:0:0:
198,245,176996,1,0,0:0:0:0:
351,186,177201,1,2,0:0:0:0:
193,144,177407,1,0,0:0:0:0:
296,271,177612,5,2,0:0:0:0:
450,214,177817,1,2,0:0:0:0:
359,349,178023,1,2,0:0:0:0:
351,185,178228,1,2,0:0:0:0:
453,312,178434,6,0,L|374:262,1,90,6|0,0:0|0:0,0:0:0:0:
264,192,178845,1,0,0:0:0:0:
264,192,179050,1,2,0:0:0:0:
408,60,179256,2,0,P|400:116|380:144,1,90,2|0,0:0|0:0,0:0:0:0:
276,60,179667,1,0,0:0:0:0:
100,140,179872,1,2,0:0:0:0:
192,304,180078,5,2,0:0:0:0:
296,328,180283,2,0,B|312:252|268:268|264:192|264:192|296:212,1,180,0|2,0:0|0:0,0:0:0:0:
380,248,180797,1,2,0:0:0:0:
380,248,180900,2,0,P|432:232|456:204,1,90,2|0,0:0|0:0,0:0:0:0:
388,40,181310,2,0,P|430:51|461:83,1,90,0|2,0:0|0:0,0:0:0:0:
288,136,181721,6,0,P|200:116|120:152,1,180,2|0,0:0|0:0,0:0:0:0:
215,252,182338,1,2,0:0:0:0:
81,285,182543,1,2,0:0:0:0:
356,257,182749,2,0,L|176:288,1,180,2|2,0:0|0:0,0:0:0:0:
120,151,183365,6,0,P|116:95|128:64,1,90,2|0,0:0|0:0,0:0:0:0:
252,116,183776,2,0,P|288:73|319:60,1,90,0|2,0:0|0:0,0:0:0:0:
370,184,184187,1,2,0:0:0:0:
370,184,184393,2,0,P|432:204|432:308,1,180,0|2,0:0|0:0,0:0:0:0:
296,299,185009,6,0,L|204:280,1,90,6|0,0:0|0:0,0:0:0:0:
39,153,185420,2,0,L|128:172,1,90,0|2,0:0|0:0,0:0:0:0:
261,155,185831,1,2,0:0:0:0:
348,52,186036,1,0,0:0:0:0:
428,232,186242,1,0,0:0:0:0:
372,28,186447,1,2,0:0:0:0:
243,290,186653,6,0,B|188:260|172:304|116:272|116:272|156:232,1,180,2|0,0:0|0:0,0:0:0:0:
244,140,187269,1,2,0:0:0:0:
112,107,187475,1,2,0:0:0:0:
205,9,187680,1,0,0:0:0:0:
244,140,187886,1,0,0:0:0:0:
112,107,188092,1,2,0:0:0:0:
205,9,188297,5,2,0:0:0:0:
336,41,188502,1,2,0:0:0:0:
368,64,188913,2,0,L|376:200,1,135.000005149842,2|0,0:0|0:0,0:0:0:0:
283,299,189530,2,0,L|280:232,1,67.5000025749208,2|0,0:0|0:0,0:0:0:0:
204,164,189941,5,2,0:0:0:0:
180,264,190146,1,0,0:0:0:0:
88,348,190352,1,2,0:0:0:0:
64,248,190557,1,0,0:0:0:0:
136,64,190763,5,2,0:0:0:0:
236,184,190969,1,2,0:0:0:0:
22,216,191173,1,2,0:0:0:0:
142,116,191379,1,2,0:0:0:0:
308,192,191584,5,6,0:0:0:0:
308,192,192201,1,2,0:0:0:0:
308,192,192406,2,0,P|316:232|308:280,1,90,2|0,0:0|0:0,0:0:0:0:
204,280,193228,6,0,P|195:236|204:192,2,90,2|0|2,0:0|0:0|0:0,0:0:0:0:
256,371,194461,1,0,0:0:0:0:
256,371,194872,6,0,L|256:192,1,180,2|0,0:0|0:0,0:0:0:0:
256,13,196516,2,0,L|256:192,1,180,2|0,0:0|0:0,0:0:0:0:
196,292,197955,1,2,0:0:0:0:
316,292,198160,6,0,L|360:284,1,45,2|0,0:0|0:0,0:0:0:0:
416,212,198571,1,0,0:0:0:0:
452,296,198776,2,0,L|436:338,1,45,2|0,0:0|0:0,0:0:0:0:
416,212,199187,1,2,0:0:0:0:
420,192,199393,1,0,0:0:0:0:
424,172,199598,1,2,0:0:0:0:
414,82,199804,6,0,P|387:89|366:102,1,45,2|0,0:0|0:0,0:0:0:0:
424,172,200215,1,0,0:0:0:0:
496,116,200420,2,0,P|503:89|502:64,1,45,2|0,0:0|0:0,0:0:0:0:
452,0,200831,1,2,0:0:0:0:
428,4,201036,1,0,0:0:0:0:
404,8,201242,1,2,0:0:0:0:
316,24,201447,6,0,L|268:34,1,45,2|0,0:0|0:0,0:0:0:0:
260,124,201858,1,0,0:0:0:0:
348,144,202064,2,0,L|363:97,1,45,2|0,0:0|0:0,0:0:0:0:
286,210,202475,1,2,0:0:0:0:
276,232,202680,1,0,0:0:0:0:
268,252,202886,1,2,0:0:0:0:
224,332,203091,6,0,P|200:329|176:320,1,45,2|0,0:0|0:0,0:0:0:0:
112,260,203502,1,0,0:0:0:0:
56,188,203708,2,0,P|39:202|25:220,1,45,2|0,0:0|0:0,0:0:0:0:
146,175,204119,1,2,0:0:0:0:
90,104,204324,1,0,0:0:0:0:
179,91,204530,1,2,0:0:0:0:
235,162,204735,6,0,P|252:144|264:120,1,45,2|0,0:0|0:0,0:0:0:0:
256,36,205146,1,0,0:0:0:0:
336,76,205352,2,0,P|343:99|357:122,1,45,2|0,0:0|0:0,0:0:0:0:
424,60,205763,1,2,0:0:0:0:
444,68,205968,1,0,0:0:0:0:
464,76,206173,1,2,0:0:0:0:
492,164,206379,6,0,P|464:168|446:166,1,45,2|0,0:0|0:0,0:0:0:0:
372,212,206790,1,0,0:0:0:0:
328,292,206995,2,0,P|305:275|294:260,1,45,2|0,0:0|0:0,0:0:0:0:
288,172,207406,1,2,0:0:0:0:
268,164,207612,1,0,0:0:0:0:
248,156,207817,1,2,0:0:0:0:
164,124,208023,6,0,L|120:104,1,45,2|0,0:0|0:0,0:0:0:0:
104,192,208434,1,0,0:0:0:0:
192,216,208639,2,0,L|196:264,1,45,2|0,0:0|0:0,0:0:0:0:
108,284,209050,1,2,0:0:0:0:
84,284,209256,1,0,0:0:0:0:
60,284,209461,1,2,0:0:0:0:
104,192,209667,6,0,L|112:136,1,45,2|0,0:0|0:0,0:0:0:0:
232,56,210078,1,0,0:0:0:0:
308,104,210283,2,0,L|360:92,1,45,2|0,0:0|0:0,0:0:0:0:
436,56,210694,1,2,0:0:0:0:
400,176,210900,1,0,0:0:0:0:
436,296,211105,1,2,0:0:0:0:
314,267,211310,6,0,L|180:280,1,135,2|2,0:0|0:0,0:0:0:0:
100,236,212338,2,0,P|88:276|88:284,1,45,2|0,0:0|0:0,0:0:0:0:
177,188,212749,1,2,0:0:0:0:
96,148,212954,6,0,P|112:68|88:24,1,135,2|2,0:0|0:0,0:0:0:0:
25,89,213982,1,2,0:0:0:0:
8,176,214187,2,0,L|12:224,1,45,0|2,0:0|0:0,0:0:0:0:
68,292,214598,6,0,B|112:272|152:300|152:300|190:330,1,135,2|2,0:0|0:0,0:0:0:0:
276,340,215626,1,2,0:0:0:0:
240,260,215831,2,0,L|188:220,1,45,0|2,0:0|0:0,0:0:0:0:
327,268,216242,6,0,P|400:280|452:248,1,135,2|2,0:0|0:0,0:0:0:0:
380,196,217269,1,2,0:0:0:0:
464,164,217475,2,0,P|456:144|456:116,1,45,0|2,0:0|0:0,0:0:0:0:
472,32,217886,6,0,B|428:28|400:48|400:48|367:41|340:60,1,135,2|2,0:0|0:0,0:0:0:0:
388,136,218913,1,2,0:0:0:0:
296,140,219119,2,0,L|248:144,1,45,0|2,0:0|0:0,0:0:0:0:
168,108,219530,6,0,P|161:161|208:224,1,135,2|2,0:0|0:0,0:0:0:0:
296,232,220557,1,2,0:0:0:0:
244,304,220763,2,0,P|235:327|236:348,1,45,0|2,0:0|0:0,0:0:0:0:
324,340,221173,6,0,L|464:328,1,135,2|2,0:0|0:0,0:0:0:0:
472,248,222285,1,2,0:0:0:0:
444,164,222553,2,0,P|480:160|497:166,1,45,0|2,0:0|0:0,0:0:0:0:
352,160,223073,6,0,L|320:128,1,45,2|0,0:0|0:0,0:0:0:0:
348,44,223600,1,0,0:0:0:0:
260,60,223875,2,0,P|232:56|216:56,1,45,2|0,0:0|0:0,0:0:0:0:
136,40,224450,1,2,0:0:0:0:
160,116,224802,2,0,P|148:148|136:164,1,45,2|2,0:0|0:0,0:0:0:0:
72,104,225715,5,6,0:0:0:0:
