osu file format v14

[General]
AudioFilename: Mili - YUBIKIRI-GENMAN.mp3
AudioLeadIn: 0
PreviewTime: 66242
Countdown: 0
SampleSet: Soft
StackLeniency: 0.7
Mode: 2
LetterboxInBreaks: 0
WidescreenStoryboard: 0

[Editor]
Bookmarks: 86379,99324
DistanceSpacing: 1.6
BeatDivisor: 4
GridSize: 8
TimelineZoom: 1

[Metadata]
Title:YUBIKIRI-GENMAN
TitleUnicode:YUBIKIRI-GENMAN
Artist:Mili
ArtistUnicode:Mili
Creator:Pappy
Version:MBomb's Platter
Source:Deemo
Tags:rayark yamato kasai hamoloid hamo
BeatmapID:910029
BeatmapSetID:410821

[Difficulty]
HPDrainRate:5
CircleSize:3.5
OverallDifficulty:7.5
ApproachRate:7.5
SliderMultiplier:1.7
SliderTickRate:1

[Events]
//Background and Video events
0,0,"bg.jpeg",0,0
//Break Periods
2,86579,98499
//Storyboard Layer 0 (Background)
//Storyboard Layer 1 (Fail)
//Storyboard Layer 2 (Pass)
//Storyboard Layer 3 (Foreground)
//Storyboard Sound Samples

[TimingPoints]
900,410.958904109589,4,2,1,40,1,0
79804,-100,4,2,1,20,0,0
86379,-100,4,2,1,40,0,0
191584,-100,4,2,1,20,0,0
221173,422.535211267606,4,2,1,20,1,0
222018,535.714285714286,4,2,1,20,1,0
222821,504.201680672269,4,2,1,20,1,0
223073,504.201680672269,4,2,1,20,1,0
223073,526.315789473684,4,2,1,20,1,0
223325,550.45871559633,4,2,1,20,1,0
224150,600,4,2,1,20,1,0
224450,705.882352941176,4,2,1,20,1,0
224802,810.810810810811,4,2,1,20,1,0
225207,1016.94915254237,4,2,1,20,1,0

[Colours]
Combo1 : 255,255,128
Combo2 : 128,255,128

[HitObjects]
192,192,900,6,0,L|104:192,2,85,2|0|0,0:0|0:0|0:0,0:0:0:0:
376,192,1516,1,2,0:0:0:0:
72,192,1927,1,2,0:0:0:0:
224,192,2338,1,2,0:0:0:0:
320,192,2543,6,0,L|224:192,2,85,2|0|0,0:0|0:0|0:0,0:0:0:0:
136,192,3160,1,2,0:0:0:0:
440,192,3571,1,2,0:0:0:0:
248,192,3776,2,0,P|213:141|240:120,1,85,0|2,0:0|0:0,0:0:0:0:
336,192,4187,5,2,0:0:0:0:
248,192,4393,1,0,0:0:0:0:
176,192,4598,1,0,0:0:0:0:
355,192,4804,1,2,0:0:0:0:
64,192,5215,2,0,L|160:192,2,85,2|0|2,0:0|0:0|0:0,0:0:0:0:
168,192,5831,5,2,0:0:0:0:
88,192,6036,1,0,0:0:0:0:
24,192,6242,1,0,0:0:0:0:
208,192,6447,1,2,0:0:0:0:
504,192,6858,2,0,L|416:192,1,85,2|0,0:0|0:0,0:0:0:0:
216,192,7269,1,2,0:0:0:0:
120,192,7475,6,0,B|16:192|16:192,2,85,2|0|0,0:0|0:0|0:0,0:0:0:0:
304,192,8091,1,2,0:0:0:0:
8,192,8502,2,0,L|184:192,1,170,2|2,0:0|0:0,0:0:0:0:
280,192,9119,6,0,L|184:192,2,85,2|0|0,0:0|0:0|0:0,0:0:0:0:
88,192,9735,1,2,0:0:0:0:
384,192,10146,1,2,0:0:0:0:
195,192,10352,2,0,L|283:192,1,85,0|2,0:0|0:0,0:0:0:0:
171,192,10763,6,0,L|83:192,2,85,2|0|0,0:0|0:0|0:0,0:0:0:0:
355,192,11379,1,2,0:0:0:0:
51,192,11790,2,0,L|139:192,2,85,2|0|2,0:0|0:0|0:0,0:0:0:0:
235,192,12406,5,2,0:0:0:0:
323,192,12612,1,0,0:0:0:0:
395,192,12817,1,0,0:0:0:0:
203,192,13023,1,2,0:0:0:0:
504,192,13434,2,0,L|464:112,1,85,2|0,0:0|0:0,0:0:0:0:
288,192,13845,1,2,0:0:0:0:
16,192,14050,6,0,P|56:120|168:120,1,170,2|0,0:0|0:0,0:0:0:0:
216,192,14667,1,0,0:0:0:0:
416,192,15283,1,0,0:0:0:0:
224,192,15489,1,2,0:0:0:0:
136,192,15694,6,0,L|32:192,2,85,0|0|0,0:0|0:0|0:0,0:0:0:0:
32,192,16310,1,0,0:0:0:0:
336,192,16721,2,0,L|432:192,1,85,0|2,0:0|0:0,0:0:0:0:
288,192,17132,1,0,0:0:0:0:
192,192,17338,6,0,B|288:192|288:192,2,85,0|0|0,0:0|0:0|0:0,0:0:0:0:
112,192,17954,1,0,0:0:0:0:
496,192,18571,2,0,L|400:192,1,85,2|0,0:0|0:0,0:0:0:0:
224,192,18982,6,0,P|128:192|32:72,2,255,2|2|2,0:0|0:0|0:0,0:0:0:0:
304,192,20420,1,0,0:0:0:0:
120,192,20626,6,0,P|184:104|256:96,1,170,2|0,0:0|0:0,0:0:0:0:
424,192,21242,2,0,L|232:192,1,170,2|0,0:0|0:0,0:0:0:0:
352,192,21858,2,0,L|440:192,1,85,2|0,0:0|0:0,0:0:0:0:
336,192,22269,6,0,L|248:192,2,85,2|0|0,0:0|0:0|0:0,0:0:0:0:
232,192,22886,2,0,P|168:104|192:88,1,170,2|0,2:0|2:0,0:0:0:0:
288,192,23502,2,0,L|200:192,1,85,2|0,2:0|2:0,0:0:0:0:
312,192,23913,6,0,P|384:128|328:72,1,170,2|0,2:0|2:0,0:0:0:0:
160,192,24530,2,0,B|56:192|56:192|144:192,1,170,2|0,0:0|0:0,0:0:0:0:
208,192,25146,2,0,L|128:192|120:192,1,85,2|0,0:0|0:0,0:0:0:0:
312,192,25557,6,0,L|400:192,1,85,2|0,0:0|0:0,0:0:0:0:
482,192,25968,2,0,L|394:192,1,85,0|0,0:0|0:0,0:0:0:0:
216,192,26379,2,0,L|120:192,1,85,2|2,0:0|0:0,0:0:0:0:
280,192,26790,1,2,0:0:0:0:
184,192,26995,1,2,0:0:0:0:
456,192,27201,6,0,P|488:128|416:88,1,170,6|0,0:0|0:0,0:0:0:0:
224,192,27817,2,0,L|128:192,2,85,2|0|0,0:0|0:0|0:0,0:0:0:0:
328,192,28434,1,2,0:0:0:0:
139,192,28639,1,2,0:0:0:0:
328,192,28845,6,0,L|424:192,2,85,2|0|0,0:0|0:0|0:0,0:0:0:0:
232,192,29461,2,0,L|144:192,1,85,2|0,0:0|0:0,0:0:0:0:
336,192,29872,1,0,0:0:0:0:
147,192,30078,1,2,0:0:0:0:
328,192,30283,1,2,0:0:0:0:
440,192,30489,6,0,L|352:192,2,85,2|0|0,0:0|0:0|0:0,0:0:0:0:
344,192,31105,2,0,L|440:192,2,85,2|0|0,0:0|0:0|0:0,0:0:0:0:
72,192,31721,2,0,P|28:166|40:128,1,85,2|2,0:0|0:0,0:0:0:0:
216,192,32132,6,0,P|288:96|264:72,1,170,2|0,0:0|0:0,0:0:0:0:
88,192,32749,2,0,P|144:120|224:112,1,170,2|0,0:0|0:0,0:0:0:0:
400,192,33365,2,0,L|304:192,1,85,2|0,0:0|0:0,0:0:0:0:
128,192,33776,6,0,P|56:112|112:80,1,170,2|0,0:0|0:0,0:0:0:0:
352,192,34393,2,0,P|445:136|421:80,1,170,2|0,0:0|0:0,0:0:0:0:
248,192,35009,2,0,L|152:192,1,85,2|0,0:0|0:0,0:0:0:0:
80,192,35420,6,0,L|176:192,2,85,2|0|0,0:0|0:0|0:0,0:0:0:0:
184,192,36036,2,0,P|296:120|288:88,1,170,2|0,0:0|0:0,0:0:0:0:
104,192,36653,2,0,L|200:192,1,85,2|0,0:0|0:0,0:0:0:0:
384,192,37064,6,0,L|472:192,2,85,2|0|0,0:0|0:0|0:0,0:0:0:0:
104,192,37680,2,0,P|40:112|88:72,1,170,2|0,0:0|0:0,0:0:0:0:
176,192,38297,2,0,L|264:192,1,85,2|0,0:0|0:0,0:0:0:0:
448,192,38708,6,0,P|496:152|384:64,1,255,2|0,0:0|0:0,0:0:0:0:
200,192,39530,1,0,0:0:0:0:
96,192,39735,2,0,L|184:192,1,85,0|0,0:0|0:0,0:0:0:0:
64,192,40146,1,2,0:0:0:0:
256,192,40352,5,2,0:0:0:0:
448,192,40968,1,0,0:0:0:0:
352,192,41173,1,2,0:0:0:0:
496,192,41790,1,0,0:0:0:0:
304,192,41996,5,2,0:0:0:0:
64,192,42612,1,0,0:0:0:0:
160,192,42817,1,2,0:0:0:0:
376,192,43434,1,0,0:0:0:0:
472,192,43639,6,0,L|288:192,1,170,2|2,0:0|0:0,0:0:0:0:
112,192,44461,2,0,L|296:192,1,170,2|2,0:0|0:0,0:0:0:0:
16,192,45283,6,0,L|101:192,1,85,0|0,0:0|0:0,0:0:0:0:
184,192,45694,2,0,L|96:192,1,85,2|0,0:0|0:0,0:0:0:0:
288,192,46105,2,0,L|376:192,1,85,0|0,0:0|0:0,0:0:0:0:
184,192,46516,1,2,0:0:0:0:
96,192,46721,1,0,0:0:0:0:
373,192,46927,5,2,0:0:0:0:
168,192,47543,1,0,0:0:0:0:
72,192,47749,1,2,0:0:0:0:
288,192,48365,1,0,0:0:0:0:
96,192,48571,5,2,0:0:0:0:
344,192,49187,1,0,0:0:0:0:
440,192,49393,1,2,0:0:0:0:
256,192,49804,1,0,0:0:0:0:
344,192,50009,1,0,0:0:0:0:
160,192,50215,6,0,L|72:192,1,85,2|0,0:0|0:0,0:0:0:0:
168,192,50626,2,0,L|256:192,1,85,0|0,0:0|0:0,0:0:0:0:
432,192,51036,2,0,P|408:104|320:96,1,170,2|0,0:0|0:0,0:0:0:0:
240,192,51653,1,0,0:0:0:0:
424,192,51858,6,0,L|512:192,1,85,0|0,0:0|0:0,0:0:0:0:
408,192,52269,2,0,L|496:192,1,85,2|0,0:0|0:0,0:0:0:0:
304,192,52680,2,0,P|192:184|96:72,1,255,0|0,0:0|0:0,0:0:0:0:
368,192,53502,6,0,P|464:104|456:80,1,170,2|0,0:0|0:0,0:0:0:0:
360,192,54119,1,0,0:0:0:0:
176,192,54324,2,0,L|80:192,2,85,2|0|0,0:0|0:0|0:0,0:0:0:0:
272,192,54941,1,0,0:0:0:0:
88,192,55146,6,0,P|32:112|80:80,1,170,2|0,0:0|0:0,0:0:0:0:
168,192,55763,1,0,0:0:0:0:
360,192,55968,2,0,L|272:192,2,85,2|0|0,0:0|0:0|0:0,0:0:0:0:
456,192,56584,1,0,0:0:0:0:
352,192,56790,6,0,L|176:192,1,170,2|0,0:0|0:0,0:0:0:0:
88,192,57406,1,0,0:0:0:0:
200,192,57612,2,0,L|370:192,1,170,2|0,0:0|0:0,0:0:0:0:
272,192,58228,1,0,0:0:0:0:
80,192,58434,6,0,L|168:192,1,85,0|0,0:0|0:0,0:0:0:0:
56,192,58845,2,0,L|144:192,1,85,2|0,0:0|0:0,0:0:0:0:
328,192,59256,2,0,L|416:192,2,85,0|0|2,0:0|0:0|0:0,0:0:0:0:
440,192,59872,1,0,0:0:0:0:
168,192,60078,6,0,P|96:96|120:80,1,170,2|0,0:0|0:0,0:0:0:0:
200,192,60694,1,0,0:0:0:0:
16,192,60899,2,0,P|64:104|160:112,1,170,2|0,0:0|0:0,0:0:0:0:
216,192,61516,1,0,0:0:0:0:
488,192,61721,6,0,P|408:112|344:112,1,170,2|0,0:0|0:0,0:0:0:0:
256,192,62338,1,0,0:0:0:0:
72,192,62543,2,0,B|16:192|16:192|65:137|120:136,1,170,2|0,0:0|0:0,0:0:0:0:
208,192,63160,1,0,0:0:0:0:
392,192,63365,6,0,P|480:128|384:72,1,255,2|0,0:0|0:0,0:0:0:0:
208,192,64187,2,0,P|120:128|216:72,1,255,2|0,0:0|0:0,0:0:0:0:
400,192,65009,6,0,P|488:128|392:72,1,255,2|0,0:0|0:0,0:0:0:0:
112,192,65831,2,0,P|24:128|56:72,1,170,2|0,0:0|0:0,0:0:0:0:
216,192,66447,1,0,0:0:0:0:
496,192,66653,6,0,P|448:128|360:120,1,170,6|0,0:0|0:0,0:0:0:0:
288,192,67269,1,2,0:0:0:0:
472,192,67475,2,0,L|280:192,1,170,2|0,0:0|0:0,0:0:0:0:
224,192,68091,1,2,0:0:0:0:
32,192,68297,6,0,P|96:112|168:112,1,170,2|0,2:0|2:0,0:0:0:0:
432,192,68913,2,0,L|488:192,2,42.5,2|2|2,0:0|0:0|0:0,0:0:0:0:
184,192,69735,1,2,0:0:0:0:
456,192,69941,6,0,P|488:160|408:112,1,170,2|0,0:0|0:0,0:0:0:0:
312,192,70557,1,2,0:0:0:0:
496,192,70763,1,2,0:0:0:0:
312,192,70968,2,0,P|176:160|136:120,1,170,2|2,0:0|0:0,0:0:0:0:
424,192,71584,6,0,P|496:112|472:88,1,170,2|0,0:0|0:0,0:0:0:0:
280,192,72201,1,2,0:0:0:0:
96,192,72406,2,0,P|32:104|80:72,1,170,2|0,0:0|0:0,0:0:0:0:
152,192,73023,1,2,0:0:0:0:
344,192,73228,6,0,L|160:192,1,170,2|0,0:0|0:0,0:0:0:0:
280,192,73845,1,2,0:0:0:0:
376,192,74050,2,0,L|192:192,1,170,2|2,0:0|0:0,0:0:0:0:
112,192,74667,1,2,0:0:0:0:
304,192,74872,6,0,P|400:88|392:72,1,170,2|0,0:0|0:0,0:0:0:0:
304,192,75489,1,2,0:0:0:0:
24,192,75694,2,0,P|64:128|168:112,1,170,2|2,0:0|0:0,0:0:0:0:
256,192,76310,1,0,0:0:0:0:
352,192,76516,5,2,0:0:0:0:
272,192,76721,2,0,P|192:88|200:80,1,170,2|2,0:0|0:0,0:0:0:0:
368,192,77338,2,0,P|440:120|376:72,1,170,0|2,0:0|0:0,0:0:0:0:
136,192,77954,6,0,P|24:96|152:24,1,340,0|0,0:0|0:0,0:0:0:0:
336,192,78982,2,0,L|424:192,1,85,2|0,0:0|0:0,0:0:0:0:
232,192,79393,2,0,L|144:192,1,85,2|0,0:0|0:0,0:0:0:0:
320,192,79804,6,0,P|432:72|384:40,1,255,2|2,0:0|0:0,0:0:0:0:
224,192,80626,2,0,L|400:192,1,170,2|0,0:0|0:0,0:0:0:0:
200,192,81447,6,0,P|120:128|160:88,1,170,2|0,0:0|0:0,0:0:0:0:
440,192,82269,1,2,0:0:0:0:
144,192,82680,1,2,0:0:0:0:
440,192,83091,6,0,B|256:192|256:192,2,170,2|0|0,0:0|0:0|0:0,0:0:0:0:
16,192,84735,2,0,L|368:192,1,340,2|0,0:0|0:0,0:0:0:0:
112,192,86173,1,0,0:0:0:0:
384,192,86379,5,2,0:0:0:0:
144,192,99324,5,2,0:0:0:0:
336,192,99530,1,2,0:0:0:0:
480,192,100146,1,2,0:0:0:0:
288,192,100352,1,2,0:0:0:0:
32,192,100968,1,2,0:0:0:0:
224,192,101174,5,2,0:0:0:0:
16,192,101790,1,2,0:0:0:0:
128,192,101995,1,2,0:0:0:0:
384,192,102612,1,2,0:0:0:0:
288,192,102817,5,2,0:0:0:0:
496,192,103434,1,2,0:0:0:0:
400,192,103639,1,2,0:0:0:0:
144,192,104256,1,2,0:0:0:0:
240,192,104461,1,2,0:0:0:0:
496,192,105078,5,2,0:0:0:0:
304,192,105283,1,2,0:0:0:0:
16,192,105899,1,2,0:0:0:0:
208,192,106104,1,2,0:0:0:0:
48,192,106721,1,2,0:0:0:0:
240,192,106926,1,2,0:0:0:0:
480,192,107543,1,2,0:0:0:0:
208,192,107749,5,2,0:0:0:0:
352,192,108365,1,2,0:0:0:0:
144,192,108571,2,0,P|40:104|48:80,1,170,2|0,0:0|0:0,0:0:0:0:
232,192,109187,6,0,P|352:88|232:40,1,340,0|0,0:0|0:0,0:0:0:0:
56,192,110215,2,0,L|160:192,1,85,2|0,0:0|0:0,0:0:0:0:
248,192,110626,2,0,L|160:192,1,85,0|0,0:0|0:0,0:0:0:0:
352,192,111036,6,0,L|440:192,1,85,2|0,0:0|0:0,0:0:0:0:
352,192,111447,2,0,L|256:192,1,85,0|0,0:0|0:0,0:0:0:0:
456,192,111858,2,0,L|371:192,1,85,2|0,0:0|0:0,0:0:0:0:
472,192,112269,2,0,L|387:192,1,85,0|0,0:0|0:0,0:0:0:0:
120,192,112680,6,0,B|24:192|16:128|38:71|56:64|251:26|408:64,1,510,2|0,0:0|0:0,0:0:0:0:
216,192,114119,1,0,0:0:0:0:
408,192,114324,6,0,P|480:128|368:40,1,255,2|2,0:0|0:0,0:0:0:0:
208,192,115352,2,0,L|96:192,1,85,0|2,0:0|0:0,0:0:0:0:
312,192,115763,1,0,0:0:0:0:
408,192,115968,6,0,B|496:176|504:128|496:56|384:48,1,255,2|2,0:0|0:0,0:0:0:0:
16,192,117201,2,0,L|101:192,1,85,2|2,0:0|0:0,0:0:0:0:
288,192,117612,6,0,L|32:192,2,255,2|2|2,0:0|0:0|0:0,0:0:0:0:
360,192,119050,1,0,0:0:0:0:
168,192,119256,6,0,P|88:88|112:64,1,170,6|0,0:0|0:0,0:0:0:0:
360,200,119872,2,0,P|416:136|360:96,1,170,2|0,0:0|0:0,0:0:0:0:
176,192,120489,2,0,L|264:192,1,85,2|0,0:0|0:0,0:0:0:0:
346,192,120899,6,0,L|258:192,2,85,2|0|0,0:0|0:0|0:0,0:0:0:0:
240,192,121516,2,0,B|88:192|88:192|144:192,1,170,2|0,0:0|0:0,0:0:0:0:
296,192,122132,2,0,L|200:192,1,85,2|0,0:0|0:0,0:0:0:0:
400,192,122543,6,0,P|480:120|432:72,1,170,2|0,0:0|0:0,0:0:0:0:
184,192,123160,2,0,P|96:88|104:72,1,170,2|0,0:0|0:0,0:0:0:0:
288,192,123776,2,0,L|376:192,1,85,2|0,0:0|0:0,0:0:0:0:
184,192,124187,6,0,L|440:192,1,255,2|0,0:0|0:0,0:0:0:0:
248,192,125009,2,0,L|128:192,2,85,0|0|2,0:0|0:0|0:0,0:0:0:0:
432,192,125626,1,2,0:0:0:0:
248,192,125831,6,0,P|168:144|208:88,1,170,2|0,0:0|0:0,0:0:0:0:
288,192,126447,1,2,0:0:0:0:
192,192,126653,2,0,L|368:192,1,170,2|0,0:0|0:0,0:0:0:0:
456,192,127269,1,2,0:0:0:0:
264,192,127475,6,0,P|168:152|200:88,1,170,2|0,0:0|0:0,0:0:0:0:
272,192,128091,1,2,0:0:0:0:
88,192,128297,1,2,0:0:0:0:
384,192,128708,2,0,L|288:192,1,85,2|2,0:0|0:0,0:0:0:0:
112,192,129119,6,0,L|288:192,1,170,2|2,0:0|0:0,0:0:0:0:
360,192,129735,1,0,0:0:0:0:
168,192,129941,2,0,L|72:192,1,85,2|0,0:0|0:0,0:0:0:0:
272,192,130352,2,0,L|176:192,1,85,2|0,0:0|0:0,0:0:0:0:
376,192,130763,6,0,P|448:112|344:64,1,255,2|0,0:0|0:0,0:0:0:0:
240,192,131584,2,0,L|152:192,2,85,2|0|0,0:0|0:0|0:0,0:0:0:0:
312,192,132201,1,2,0:0:0:0:
120,192,132406,6,0,L|296:192,1,170,2|0,0:0|0:0,0:0:0:0:
200,192,133023,1,2,0:0:0:0:
8,192,133228,2,0,L|104:192,2,85,2|0|0,0:0|0:0|0:0,0:0:0:0:
112,192,133845,1,2,0:0:0:0:
384,192,134050,6,0,P|448:96|416:72,1,170,2|0,0:0|0:0,0:0:0:0:
344,192,134667,1,2,0:0:0:0:
160,192,134872,2,0,P|232:120|296:144,1,170,2|0,0:0|0:0,0:0:0:0:
104,192,135489,1,2,0:0:0:0:
296,192,135694,6,0,P|408:72|352:32,1,255,2|0,0:0|0:0,0:0:0:0:
192,192,136516,2,0,L|96:192,1,85,2|0,0:0|0:0,0:0:0:0:
16,192,136927,2,0,L|104:192,1,85,0|0,0:0|0:0,0:0:0:0:
288,192,137338,6,0,P|424:104|392:40,1,255,2|0,0:0|0:0,0:0:0:0:
136,192,138160,2,0,P|80:136|200:112,1,255,2|0,0:0|0:0,0:0:0:0:
16,192,138982,6,0,L|360:192,1,340,6|0,0:0|0:0,0:0:0:0:
56,192,140215,2,0,L|152:192,1,85,0|0,0:0|0:0,0:0:0:0:
240,192,140626,6,0,L|152:192,2,85,0|0|0,0:0|0:0|0:0,0:0:0:0:
496,192,141858,2,0,L|392:192,1,85,0|0,0:0|0:0,0:0:0:0:
312,192,142269,6,0,L|400:192,2,85,2|0|2,0:0|0:0|0:0,0:0:0:0:
24,192,143502,1,0,0:0:0:0:
328,192,143913,6,0,L|144:192,1,170,2|0,0:0|0:0,0:0:0:0:
344,192,144530,1,2,0:0:0:0:
48,192,144941,2,0,L|136:192,1,85,2|0,0:0|0:0,0:0:0:0:
320,192,145557,5,0,0:0:0:0:
224,192,145763,1,0,0:0:0:0:
104,192,145968,1,2,0:0:0:0:
496,192,146790,2,0,L|408:192,1,85,2|2,0:0|0:0,0:0:0:0:
224,192,147201,6,0,B|136:192|136:192,2,85,0|0|2,0:0|0:0|0:0,0:0:0:0:
16,192,148434,2,0,L|112:192,1,85,0|2,0:0|0:0,0:0:0:0:
288,192,148845,6,0,B|504:192|504:168|496:112|504:80|504:16|272:24,1,510,0|2,0:0|0:0,0:0:0:0:
80,192,150283,1,0,0:0:0:0:
264,192,150489,6,0,L|360:192,1,85,2|2,0:0|0:0,0:0:0:0:
160,192,150900,2,0,L|48:192,1,85,0|2,0:0|0:0,0:0:0:0:
264,192,151310,2,0,L|168:192,1,85,0|2,0:0|0:0,0:0:0:0:
75,192,151721,2,0,L|163:192,1,85,2|2,0:0|0:0,0:0:0:0:
432,192,152132,6,0,B|504:192|472:128|448:112|200:104,1,340,0|2,0:0|0:0,0:0:0:0:
496,192,153365,2,0,L|400:192,1,85,2|0,0:0|0:0,0:0:0:0:
328,192,153776,6,0,L|232:192,1,85,2|0,0:0|0:0,0:0:0:0:
432,192,154187,2,0,L|328:192,1,85,2|0,0:0|0:0,0:0:0:0:
240,192,154598,2,0,L|328:192,1,85
136,192,155009,2,0,L|48:192,1,85,2|2,0:0|0:0,0:0:0:0:
240,192,155420,6,0,L|336:192,1,85,2|0,0:0|0:0,0:0:0:0:
424,192,155831,2,0,L|336:192,2,85,2|0|0,0:0|0:0|0:0,0:0:0:0:
240,192,156653,2,0,L|144:192,1,85,2|0,0:0|0:0,0:0:0:0:
344,192,157064,6,0,L|248:192,1,85,2|0,0:0|0:0,0:0:0:0:
360,192,157475,2,0,L|456:192,1,85,0|2,0:0|0:0,0:0:0:0:
256,192,157886,2,0,L|168:192,1,85,0|2,0:0|0:0,0:0:0:0:
72,192,158297,2,0,L|160:192,1,85
344,192,158708,6,0,L|240:192,1,85,2|0,0:0|0:0,0:0:0:0:
448,192,159119,2,0,L|344:192,1,85,2|0,0:0|0:0,0:0:0:0:
176,192,159530,1,0,0:0:0:0:
280,192,159735,1,0,0:0:0:0:
96,192,159941,1,2,0:0:0:0:
280,192,160146,1,2,0:0:0:0:
376,192,160352,6,0,L|472:192,1,85,2|0,0:0|0:0,0:0:0:0:
365,192,160763,2,0,L|277:192,1,85,2|0,0:0|0:0,0:0:0:0:
384,192,161173,2,0,L|272:192,1,85,0|0,0:0|0:0,0:0:0:0:
112,192,161584,2,0,L|224:192,1,85,2|2,0:0|0:0,0:0:0:0:
384,192,161995,6,0,L|480:192,1,85,2|0,0:0|0:0,0:0:0:0:
288,192,162406,2,0,L|184:192,1,85,2|0,0:0|0:0,0:0:0:0:
312,192,162817,2,0,L|408:192,1,85,0|0,0:0|0:0,0:0:0:0:
496,192,163228,2,0,L|400:192,1,85,2|0,0:0|0:0,0:0:0:0:
224,192,163639,5,2,2:0:0:0:
48,192,164050,2,0,L|144:192,1,85,0|2,2:0|2:0,0:0:0:0:
400,192,164461,1,2,0:0:0:0:
176,192,165078,1,2,0:0:0:0:
448,192,165283,6,0,P|496:152|408:104,1,170,6|0,0:0|0:0,0:0:0:0:
328,192,165900,1,2,0:0:0:0:
144,192,166105,2,0,P|176:128|272:120,1,170,2|0,0:0|0:0,0:0:0:0:
200,192,166721,1,2,0:0:0:0:
384,192,166927,6,0,P|455:111|424:80,1,170,2|0,0:0|0:0,0:0:0:0:
160,192,167543,2,0,L|112:192,2,42.5,2|2|2,0:0|0:0|0:0,0:0:0:0:
360,192,168365,1,2,0:0:0:0:
88,192,168571,6,0,P|24:136|80:96,1,170,2|0,0:0|0:0,0:0:0:0:
173,192,169187,2,0,L|85:192,1,85,2|2,0:0|0:0,0:0:0:0:
280,192,169598,2,0,P|408:120|408:96,1,170,2|0,0:0|0:0,0:0:0:0:
128,192,170215,6,0,P|144:136|256:120,1,170,2|0,0:0|0:0,0:0:0:0:
56,192,170831,1,2,0:0:0:0:
112,192,170934,1,2,0:0:0:0:
176,192,171036,1,2,0:0:0:0:
408,192,171653,1,2,0:0:0:0:
224,192,171858,6,0,P|152:112|184:88,1,170,2|0,0:0|0:0,0:0:0:0:
264,192,172475,1,2,0:0:0:0:
72,192,172680,1,2,0:0:0:0:
288,192,173091,1,0,0:0:0:0:
96,192,173297,1,0,0:0:0:0:
288,192,173502,6,0,P|240:120|160:144,1,170,2|0,0:0|0:0,0:0:0:0:
360,192,174119,1,2,0:0:0:0:
168,192,174324,1,2,0:0:0:0:
16,192,174735,1,0,0:0:0:0:
120,192,174941,1,2,0:0:0:0:
16,192,175146,5,2,0:0:0:0:
208,192,175352,1,2,0:0:0:0:
496,192,175763,2,0,L|232:192,1,255,2|0,0:0|0:0,0:0:0:0:
432,192,176584,1,2,0:0:0:0:
336,192,176790,6,0,P|224:112|288:56,1,255,2|0,0:0|0:0,0:0:0:0:
472,192,177612,2,0,L|288:192,1,170,2|2,0:0|0:0,0:0:0:0:
376,192,178228,1,2,0:0:0:0:
96,192,178434,6,0,P|24:160|80:96,1,170,6|0,0:0|0:0,0:0:0:0:
168,192,179050,1,2,0:0:0:0:
344,192,179256,2,0,L|216:192|288:192,1,170,2|0,0:0|0:0,0:0:0:0:
360,192,179872,1,2,0:0:0:0:
174,192,180078,6,0,L|366:192,1,170,2|0,0:0|0:0,0:0:0:0:
72,192,180694,2,0,L|16:192,2,42.5,2|2|2,0:0|0:0|0:0,0:0:0:0:
304,192,181516,1,2,0:0:0:0:
112,192,181721,6,0,B|296:192|296:192,1,170,2|0,0:0|0:0,0:0:0:0:
200,192,182338,2,0,L|112:192,1,85,2|2,0:0|0:0,0:0:0:0:
304,192,182749,2,0,P|400:112|384:72,1,170,2|2,0:0|0:0,0:0:0:0:
115,192,183365,6,0,B|19:192|19:192|99:192,1,170,2|0,0:0|0:0,0:0:0:0:
296,192,183982,1,2,0:0:0:0:
488,192,184187,2,0,L|392:192,1,85,2|0,0:0|0:0,0:0:0:0:
224,192,184804,1,2,0:0:0:0:
128,192,185009,6,0,P|72:104|112:96,1,170,6|0,0:0|0:0,0:0:0:0:
184,192,185626,1,2,0:0:0:0:
368,192,185831,2,0,L|192:192,1,170,2|0,0:0|0:0,0:0:0:0:
392,192,186447,1,2,0:0:0:0:
200,192,186653,6,0,P|120:128|160:96,1,170,2|0,0:0|0:0,0:0:0:0:
328,192,187269,1,2,0:0:0:0:
136,192,187475,2,0,L|320:192,1,170,2|0,0:0|0:0,0:0:0:0:
400,192,188091,1,2,0:0:0:0:
304,192,188297,6,0,L|216:192,1,85,2|2,0:0|0:0,0:0:0:0:
392,192,188913,1,2,0:0:0:0:
200,192,189119,2,0,P|128:112|152:96,1,170,0|2,0:0|0:0,0:0:0:0:
328,192,189735,1,0,0:0:0:0:
416,192,189941,5,2,0:0:0:0:
320,192,190146,1,0,0:0:0:0:
216,192,190352,1,2,0:0:0:0:
112,192,190557,1,0,0:0:0:0:
304,192,190763,2,0,L|408:192,2,85,2|2|2,0:0|0:0|0:0,0:0:0:0:
112,192,191379,1,2,0:0:0:0:
32,192,191584,6,0,L|296:192,1,255,6|2,0:0|0:0,0:0:0:0:
96,192,192406,1,2,0:0:0:0:
272,192,192817,1,0,0:0:0:0:
464,192,193228,6,0,P|432:128|328:112,1,170,2|0,0:0|0:0,0:0:0:0:
40,192,194050,2,0,P|72:128|176:112,1,170,2|0,0:0|0:0,0:0:0:0:
480,192,194872,6,0,L|128:192,1,340,2|0,0:0|0:0,0:0:0:0:
432,192,196516,6,0,B|320:192|160:192|160:192|184:104|464:192,1,595,2|2,0:0|0:0,0:0:0:0:
184,192,198160,6,0,P|80:96|136:40,1,255,2|2,0:0|0:0,0:0:0:0:
440,192,199187,2,0,L|352:192,2,85,2|0|2,0:0|0:0|0:0,0:0:0:0:
336,192,199804,6,0,L|248:192,2,85,2|0|0,0:0|0:0|0:0,0:0:0:0:
144,192,200420,1,2,0:0:0:0:
440,192,200831,1,2,0:0:0:0:
251,192,201036,2,0,L|163:192,1,85,0|2,0:0|0:0,0:0:0:0:
272,192,201447,6,0,L|368:192,2,85,2|0|0,0:0|0:0|0:0,0:0:0:0:
80,192,202064,1,2,0:0:0:0:
376,192,202475,2,0,L|472:192,2,85,2|0|2,0:0|0:0|0:0,0:0:0:0:
280,192,203091,6,0,L|184:192,2,85,2|0|0,0:0|0:0|0:0,0:0:0:0:
472,192,203708,1,2,0:0:0:0:
176,192,204119,2,0,L|272:192,1,85,2|0,0:0|0:0,0:0:0:0:
456,192,204530,1,2,0:0:0:0:
368,192,204735,6,0,L|256:192,2,85,2|0|0,0:0|0:0|0:0,0:0:0:0:
176,192,205352,1,2,0:0:0:0:
472,192,205763,2,0,L|376:192,2,85,2|0|2,0:0|0:0|0:0,0:0:0:0:
368,192,206379,6,0,L|464:192,2,85,2|0|0,0:0|0:0|0:0,0:0:0:0:
176,192,206995,1,2,0:0:0:0:
472,192,207406,1,2,0:0:0:0:
280,192,207612,2,0,L|368:192,1,85,0|2,0:0|0:0,0:0:0:0:
256,192,208023,6,0,L|168:192|168:192,2,85,2|0|0,0:0|0:0|0:0,0:0:0:0:
64,192,208639,1,2,0:0:0:0:
368,192,209050,2,0,L|456:192,2,85,2|0|2,0:0|0:0|0:0,0:0:0:0:
176,192,209667,6,0,L|264:192,2,85,2|0|0,0:0|0:0|0:0,0:0:0:0:
368,192,210283,1,2,0:0:0:0:
64,192,210694,2,0,L|160:192,1,85,2|0,0:0|0:0,0:0:0:0:
336,192,211105,1,2,0:0:0:0:
149,192,211310,6,0,L|53:192,2,85,2|0|0,0:0|0:0|0:0,0:0:0:0:
344,192,211927,1,2,0:0:0:0:
40,192,212338,1,2,0:0:0:0:
128,192,212543,1,0,0:0:0:0:
216,192,212749,1,2,0:0:0:0:
128,192,212954,6,0,L|40:192,2,85,2|0|0,0:0|0:0|0:0,0:0:0:0:
320,192,213571,1,2,0:0:0:0:
24,192,213982,1,2,0:0:0:0:
216,192,214187,2,0,L|312:192,1,85,0|2,0:0|0:0,0:0:0:0:
392,192,214598,6,0,L|304:192,2,85,2|0|0,0:0|0:0|0:0,0:0:0:0:
200,192,215215,1,2,0:0:0:0:
496,192,215626,2,0,L|392:192,2,85,2|0|2,0:0|0:0|0:0,0:0:0:0:
392,192,216242,6,0,L|296:192,2,85,2|0|0,0:0|0:0|0:0,0:0:0:0:
200,192,216858,1,2,0:0:0:0:
496,192,217269,2,0,L|392:192,1,85,2|0,0:0|0:0,0:0:0:0:
224,192,217680,1,2,0:0:0:0:
320,192,217886,6,0,L|408:192,2,85,2|0|0,0:0|0:0|0:0,0:0:0:0:
128,192,218502,1,2,0:0:0:0:
416,192,218913,2,0,L|504:192,2,85,2|0|2,0:0|0:0|0:0,0:0:0:0:
320,192,219530,6,0,P|200:136|192:96,1,170,2|0,0:0|0:0,0:0:0:0:
392,192,220146,1,2,0:0:0:0:
96,192,220557,1,2,0:0:0:0:
288,192,220763,2,0,L|192:192,1,85,0|2,0:0|0:0,0:0:0:0:
304,192,221173,6,0,L|400:192,2,85,2|0|0,0:0|0:0|0:0,0:0:0:0:
72,192,221806,1,2,0:0:0:0:
408,192,222285,2,0,L|496:192,2,85,2|0|2,0:0|0:0|0:0,0:0:0:0:
184,192,223073,6,0,L|96:192,1,85,2|0,0:0|0:0,0:0:0:0:
184,192,223600,1,0,0:0:0:0:
448,192,223875,1,2,0:0:0:0:
184,192,224450,1,2,0:0:0:0:
496,192,224802,1,2,0:0:0:0:
16,192,225207,1,2,0:0:0:0:
384,192,225715,1,6,0:0:0:0:
