osu file format v14

[General]
AudioFilename: audio2.mp3
AudioLeadIn: 0
PreviewTime: 65533
Countdown: 0
SampleSet: None
StackLeniency: 0.7
Mode: 0
LetterboxInBreaks: 0
WidescreenStoryboard: 1

[Editor]
DistanceSpacing: 1.6
BeatDivisor: 4
GridSize: 4
TimelineZoom: 1

[Metadata]
Title:YUBIKIRI-GENMAN
TitleUnicode:YUBIKIRI-GENMAN
Artist:Mili
ArtistUnicode:Mili
Creator:Pappy
Version:-SPECIAL EDIT-
Source:Deemo
Tags:rayark yamato kasai hamoloid hamo
BeatmapID:1302053
BeatmapSetID:410821

[Difficulty]
HPDrainRate:5
CircleSize:3.9
OverallDifficulty:7
ApproachRate:7.5
SliderMultiplier:1.8
SliderTickRate:1

[Events]
//Background and Video events
0,0,"bittersweet_symphony_by_nanomortis-dazv54m.png",0,0
//Break Periods
2,85766,97687
2,141657,161591
//Storyboard Layer 0 (Background)
//Storyboard Layer 1 (Fail)
//Storyboard Layer 2 (Pass)
//Storyboard Layer 3 (Foreground)
//Storyboard Sound Samples

[TimingPoints]
88,410.958904109589,4,2,1,40,1,0
88,-200,4,2,1,40,0,0
13238,-166.666666666667,4,2,1,40,0,0
65841,-133.333333333333,4,2,1,40,0,0
78992,-200,4,2,1,20,0,0
85567,-166.666666666667,4,2,1,40,0,0
163649,-200,4,2,1,40,0,0
164471,-133.333333333333,4,2,1,40,0,0
177622,-100,4,2,1,40,0,0
187485,-133.333333333333,4,2,1,40,0,0
190772,-200,4,2,1,20,0,0
197348,-200,4,2,1,20,0,0
220361,444.444444444444,4,2,1,20,1,0
220361,-200,4,2,1,20,0,0
221916,571.428571428571,4,2,1,20,1,0
222201,444.444444444444,4,2,1,20,1,0
222201,-200,4,2,1,20,0,0
222423,555.555555555556,4,2,1,20,1,0
222968,-200,4,2,1,20,0,0
223534,750,4,2,1,20,1,0
223909,882.352941176471,4,2,1,20,1,0
223909,-200,4,2,1,20,0,0
224350,1250,4,2,1,20,1,0

[Colours]
Combo1 : 191,191,191
Combo2 : 154,174,228

[HitObjects]
392,236,88,6,0,L|344:244,1,45,2|0,0:0|0:0,0:0:0:0:
348,152,498,1,0,0:0:0:0:
443,156,704,2,0,L|474:194,1,45,2|0,0:0|0:0,0:0:0:0:
472,276,1115,1,2,0:0:0:0:
464,296,1320,1,0,0:0:0:0:
456,316,1526,1,2,0:0:0:0:
372,348,1731,6,0,P|336:340|320:328,1,45,2|0,0:0|0:0,0:0:0:0:
380,260,2142,1,0,0:0:0:0:
292,252,2348,2,0,P|274:265|261:283,1,45,2|0,0:0|0:0,0:0:0:0:
244,372,2759,1,2,0:0:0:0:
224,368,2964,1,0,0:0:0:0:
204,364,3170,1,2,0:0:0:0:
116,344,3375,6,0,B|111:322|111:322|110:298,1,45,2|0,0:0|0:0,0:0:0:0:
176,240,3786,1,0,0:0:0:0:
259,204,3992,2,0,B|264:226|264:226|264:248,1,45,2|0,0:0|0:0,0:0:0:0:
185,150,4403,1,2,0:0:0:0:
176,128,4608,1,0,0:0:0:0:
168,108,4814,1,2,0:0:0:0:
132,24,5019,6,0,L|176:28,1,45,2|0,0:0|0:0,0:0:0:0:
256,72,5430,1,0,0:0:0:0:
336,32,5635,2,0,L|380:28,1,45,2|0,0:0|0:0,0:0:0:0:
444,92,6046,1,2,0:0:0:0:
376,152,6252,1,0,0:0:0:0:
461,180,6457,1,2,0:0:0:0:
382,261,6663,6,0,P|374:279|368:304,1,45,2|0,0:0|0:0,0:0:0:0:
456,312,7074,1,0,0:0:0:0:
280,324,7279,2,0,L|268:368,1,45,2|0,0:0|0:0,0:0:0:0:
192,320,7690,1,2,0:0:0:0:
180,300,7896,1,0,0:0:0:0:
168,280,8101,1,2,0:0:0:0:
128,200,8307,6,0,P|168:188|184:192,1,45,2|0,0:0|0:0,0:0:0:0:
78,274,8718,1,0,0:0:0:0:
37,194,8923,2,0,P|7:166|3:150,1,45,2|0,0:0|0:0,0:0:0:0:
84,120,9334,1,2,0:0:0:0:
92,100,9540,1,0,0:0:0:0:
100,80,9745,1,2,0:0:0:0:
183,45,9951,6,0,P|189:66|188:89,1,45,2|0,0:0|0:0,0:0:0:0:
160,172,10361,1,0,0:0:0:0:
287,172,10567,2,0,P|266:168|247:156,1,45,2|0,0:0|0:0,0:0:0:0:
160,172,10978,1,2,0:0:0:0:
156,196,11183,1,0,0:0:0:0:
152,220,11389,1,2,0:0:0:0:
80,272,11594,6,0,P|64:244|64:220,1,45,2|0,0:0|0:0,0:0:0:0:
161,308,12005,1,0,0:0:0:0:
288,340,12211,2,0,L|244:348,1,45,2|0,0:0|0:0,0:0:0:0:
248,256,12622,1,2,0:0:0:0:
341,264,12827,1,0,0:0:0:0:
288,340,13033,1,2,0:0:0:0:
301,180,13238,5,2,0:0:0:0:
272,160,14471,2,0,L|216:164,1,53.9999983520508,0|2,0:0|0:0,0:0:0:0:
188,136,15909,6,0,P|188:104|196:76,2,53.9999983520508,0|2|0,0:0|0:0|0:0,0:0:0:0:
219,164,17759,2,0,P|219:196|211:224,1,53.9999983520508,2|0,0:0|0:0,0:0:0:0:
160,292,18170,5,2,0:0:0:0:
160,292,18375,2,0,L|104:280,1,53.9999983520508
252,302,18786,2,0,L|308:314,1,53.9999983520508,2|0,0:0|0:0,0:0:0:0:
384,356,19197,1,2,0:0:0:0:
384,356,19403,2,0,P|394:328|393:302,1,53.9999983520508,2|0,0:0|0:0,0:0:0:0:
340,232,19814,6,0,P|348:136|357:121,1,107.999996704102,2|0,0:0|0:0,0:0:0:0:
450,87,20430,2,0,P|406:118|353:128,1,107.999996704102,2|0,0:0|0:0,0:0:0:0:
264,112,21046,2,0,P|224:108|204:112,1,53.9999983520508,2|0,0:0|0:0,0:0:0:0:
132,160,21457,6,0,P|120:88|136:56,1,107.999996704102,2|0,0:0|0:0,0:0:0:0:
212,112,22074,2,0,P|233:129|248:150,2,53.9999983520508,2|0|0,2:0|2:0|2:0,2:0:0:0:
132,160,22690,2,0,P|135:187|131:214,1,53.9999983520508,2|0,2:0|2:0,2:0:0:0:
42,139,23101,6,0,L|24:28,1,107.999996704102,2|0,2:0|2:0,2:0:0:0:
116,24,23718,2,0,B|120:48|120:48|204:32,1,107.999996704102,2|0,0:0|0:0,0:0:0:0:
252,108,24334,2,0,L|191:121,1,53.9999983520508,2|0,0:0|0:0,0:0:0:0:
85,171,24745,6,0,P|112:174|136:184,1,53.9999983520508,2|0,0:0|0:0,0:0:0:0:
192,256,25156,1,0,0:0:0:0:
220,252,25567,1,2,0:0:0:0:
344,336,25772,1,2,0:0:0:0:
293,196,25978,1,2,0:0:0:0:
369,248,26183,1,2,0:0:0:0:
252,339,26389,6,0,P|152:348|128:352,1,107.999996704102,6|0,0:0|0:0,0:0:0:0:
28,289,27005,2,0,P|81:277|132:260,1,107.999996704102,2|0,0:0|0:0,0:0:0:0:
224,256,27622,1,2,0:0:0:0:
224,256,27827,1,2,0:0:0:0:
293,196,28033,6,0,P|297:132|269:96,1,107.999996704102,2|0,0:0|0:0,0:0:0:0:
114,134,28649,2,0,P|156:166|208:164,1,107.999996704102,2|0,0:0|0:0,0:0:0:0:
208,30,29266,2,0,P|192:51|184:76,1,53.9999983520508,2|2,0:0|0:0,0:0:0:0:
207,218,29677,6,0,P|213:192|208:165,1,53.9999983520508,2|0,0:0|0:0,0:0:0:0:
184,77,30088,1,0,0:0:0:0:
128,192,30293,2,0,P|122:218|127:245,1,53.9999983520508,2|0,0:0|0:0,0:0:0:0:
151,333,30704,1,0,0:0:0:0:
278,323,30909,1,2,0:0:0:0:
304,336,31115,1,2,0:0:0:0:
332,352,31320,6,0,B|352:288|352:288|384:260,1,107.999996704102,2|0,0:0|0:0,0:0:0:0:
464,216,31937,2,0,P|472:164|440:104,1,107.999996704102,2|0,0:0|0:0,0:0:0:0:
368,72,32553,2,0,P|320:68|304:72,1,53.9999983520508,2|0,0:0|0:0,0:0:0:0:
144,72,32964,6,0,P|192:68|208:72,1,53.9999983520508,2|0,0:0|0:0,0:0:0:0:
256,140,33375,1,0,0:0:0:0:
112,160,33581,2,0,P|64:164|48:160,1,53.9999983520508,2|0,0:0|0:0,0:0:0:0:
0,92,33992,1,0,0:0:0:0:
4,240,34197,2,0,L|20:292,1,53.9999983520508,2|0,0:0|0:0,0:0:0:0:
52,380,34608,6,0,P|96:352|152:352,1,107.999996704102,2|0,0:0|0:0,0:0:0:0:
244,352,35224,2,0,B|268:304,1,53.9999983520508,2|0,0:0|0:0,0:0:0:0:
312,224,35635,1,0,0:0:0:0:
384,348,35841,2,0,B|360:300,1,53.9999983520508,2|0,0:0|0:0,0:0:0:0:
262,149,36252,6,0,P|309:133|367:152,1,107.999996704102,2|0,0:0|0:0,0:0:0:0:
216,232,36868,2,0,P|179:200|167:140,1,107.999996704102,2|0,0:0|0:0,0:0:0:0:
312,224,37485,2,0,P|312:256|292:288,1,53.9999983520508,2|0,0:0|0:0,0:0:0:0:
224,320,37896,5,2,0:0:0:0:
208,336,38307,2,0,L|152:344,1,53.9999983520508,2|0,0:0|0:0,0:0:0:0:
168,252,38718,2,0,L|114:236,1,53.9999983520508
168,160,39129,2,0,L|126:123,1,53.9999983520508,0|2,0:0|0:0,0:0:0:0:
208,80,39540,6,0,B|248:116|248:116|256:108|256:108|288:144|344:136,1,161.999995056153,2|0,0:0|0:0,0:0:0:0:
436,136,40361,2,0,P|472:180|452:276,1,161.999995056153,2|0,0:0|0:0,0:0:0:0:
388,212,41183,5,2,0:0:0:0:
376,204,41800,1,0,0:0:0:0:
296,160,42005,2,0,L|184:168,1,107.999996704102,2|0,0:0|0:0,0:0:0:0:
103,134,42622,1,0,0:0:0:0:
45,206,42827,5,2,0:0:0:0:
185,260,43238,1,2,0:0:0:0:
103,134,43649,1,2,0:0:0:0:
96,283,44060,1,2,0:0:0:0:
189,168,44471,6,0,P|195:131|192:111,1,53.9999983520508
272,68,44882,2,0,P|302:92|320:100,1,53.9999983520508,2|0,0:0|0:0,0:0:0:0:
318,190,45293,2,0,P|283:204|268:216,1,53.9999983520508
398,143,45704,2,0,P|434:130|449:118,1,53.9999983520508,2|0,0:0|0:0,0:0:0:0:
384,52,46115,6,0,B|340:88|292:80|292:80|256:72|228:88,1,161.999995056153,2|0,0:0|0:0,0:0:0:0:
152,132,46937,2,0,P|80:144|12:84,1,161.999995056153,2|0,0:0|0:0,0:0:0:0:
100,52,47759,5,2,0:0:0:0:
116,76,48375,1,0,0:0:0:0:
192,24,48581,2,0,L|300:40,1,107.999996704102,2|0,0:0|0:0,0:0:0:0:
388,52,49197,1,0,0:0:0:0:
332,124,49403,6,0,P|364:176|372:184,1,53.9999983520508,2|0,0:0|0:0,0:0:0:0:
300,240,49814,2,0,L|312:292,1,53.9999983520508
212,240,50224,2,0,L|200:292,1,53.9999983520508,2|0,0:0|0:0,0:0:0:0:
181,124,50635,2,0,P|169:149|153:171,1,53.9999983520508
88,104,51046,5,0,0:0:0:0:
148,36,51252,1,0,0:0:0:0:
240,48,51457,2,0,L|296:36,1,53.9999983520508,2|0,0:0|0:0,0:0:0:0:
272,132,51868,5,0,0:0:0:0:
212,200,52074,1,0,0:0:0:0:
120,188,52279,2,0,L|64:200,1,53.9999983520508,2|0,0:0|0:0,0:0:0:0:
155,273,52690,6,0,P|152:336|172:376,1,107.999996704102,2|0,0:0|0:0,0:0:0:0:
240,312,53307,1,0,0:0:0:0:
309,249,53512,2,0,P|331:298|325:351,1,107.999996704102,2|0,0:0|0:0,0:0:0:0:
240,312,54129,1,0,0:0:0:0:
224,220,54334,6,0,P|256:177|305:155,1,107.999996704102,2|0,0:0|0:0,0:0:0:0:
388,116,54951,1,0,0:0:0:0:
472,156,55156,2,0,L|456:268,1,107.999996704102,2|0,0:0|0:0,0:0:0:0:
372,304,55772,1,0,0:0:0:0:
284,276,55978,6,0,P|304:240|318:228,1,53.9999983520508,2|0,0:0|0:0,0:0:0:0:
372,304,56389,2,0,P|394:340|397:358,1,53.9999983520508
304,367,56800,2,0,P|263:368|246:362,1,53.9999983520508,2|0,0:0|0:0,0:0:0:0:
140,290,57211,2,0,P|167:288|194:294,1,53.9999983520508
84,368,57622,6,0,P|47:311|47:270,1,107.999996704102,0|2,0:0|0:0,0:0:0:0:
96,202,58238,1,0,0:0:0:0:
56,120,58444,1,0,0:0:0:0:
45,278,58855,1,2,0:0:0:0:
96,202,59060,1,0,0:0:0:0:
188,209,59266,6,0,P|256:200|296:212,1,107.999996704102,2|0,0:0|0:0,0:0:0:0:
376,248,59882,1,0,0:0:0:0:
376,248,60087,2,0,P|385:206|353:142,1,107.999996704102,2|0,0:0|0:0,0:0:0:0:
293,211,60704,1,0,0:0:0:0:
160,264,60909,6,0,L|52:256,1,107.999996704102,2|0,0:0|0:0,0:0:0:0:
0,184,61526,1,0,0:0:0:0:
75,83,61731,2,0,P|136:75|179:97,1,107.999996704102,2|0,0:0|0:0,0:0:0:0:
116,164,62348,1,0,0:0:0:0:
72,264,62553,6,0,L|96:320,1,53.9999983520508,2|0,0:0|0:0,0:0:0:0:
202,334,62964,2,0,L|180:284,1,53.9999983520508
268,214,63375,2,0,L|290:264,1,53.9999983520508,2|0,0:0|0:0,0:0:0:0:
397,284,63786,2,0,L|376:235,1,53.9999983520508
336,152,64197,5,2,0:0:0:0:
462,74,64402,1,0,0:0:0:0:
314,63,64608,1,2,0:0:0:0:
428,159,64813,1,0,0:0:0:0:
392,15,65019,1,2,0:0:0:0:
353,39,65635,1,0,0:0:0:0:
236,111,65841,6,0,L|100:100,1,135.000005149842,6|0,0:0|0:0,0:0:0:0:
12,152,66457,1,2,0:0:0:0:
120,236,66663,2,0,P|120:300|76:354,1,135.000005149842,2|0,0:0|0:0,0:0:0:0:
25,267,67279,1,2,0:0:0:0:
208,356,67485,6,0,P|264:325|333:336,1,135.000005149842,2|0,2:0|2:0,2:0:0:0:
432,352,68101,2,0,P|452:352|466:350,2,33.7500012874604,2|2|2,0:0|0:0|0:0,0:0:0:0:
380,344,68923,1,2,0:0:0:0:
423,232,69129,6,0,P|423:172|371:116,1,135.000005149842,2|0,0:0|0:0,0:0:0:0:
280,156,69745,1,2,0:0:0:0:
296,56,69951,1,2,0:0:0:0:
158,141,70156,2,0,P|210:171|285:154,1,135.000005149842,2|2,0:0|0:0,0:0:0:0:
76,68,70772,6,0,L|60:204,1,135.000005149842,2|0,0:0|0:0,0:0:0:0:
156,240,71389,1,2,0:0:0:0:
0,360,71594,2,0,P|4:324|14:294,1,67.5000025749208,2|0,0:0|0:0,0:0:0:0:
42,282,72211,1,2,0:0:0:0:
185,228,72416,6,0,P|252:244|312:216,1,135.000005149842,2|0,0:0|0:0,0:0:0:0:
242,143,73033,1,2,0:0:0:0:
139,136,73238,1,2,0:0:0:0:
197,51,73444,1,0,0:0:0:0:
36,129,73649,1,2,0:0:0:0:
139,136,73855,1,2,0:0:0:0:
81,221,74060,6,0,P|116:300|100:352,1,135.000005149842,2|0,0:0|0:0,0:0:0:0:
15,297,74677,1,2,0:0:0:0:
196,212,74882,2,0,L|264:220,2,67.5000025749208,2|0|2,0:0|0:0|0:0,0:0:0:0:
139,136,75498,1,0,0:0:0:0:
82,60,75704,6,0,L|14:52,1,67.5000025749208,2|2,0:0|0:0,0:0:0:0:
0,84,76320,2,0,P|24:152|12:216,1,135.000005149842,2|0,0:0|0:0,0:0:0:0:
12,316,76937,2,0,P|24:360|40:380,1,67.5000025749208,2|0,0:0|0:0,0:0:0:0:
108,304,77348,5,2,0:0:0:0:
248,352,77553,1,0,0:0:0:0:
172,236,77759,1,2,0:0:0:0:
335,309,77964,1,0,0:0:0:0:
144,208,78170,5,2,0:0:0:0:
329,291,78375,1,0,0:0:0:0:
240,125,78581,1,2,0:0:0:0:
453,243,78786,1,0,0:0:0:0:
245,369,78992,5,2,0:0:0:0:
297,295,79608,1,2,0:0:0:0:
384,320,79814,2,0,P|388:276|368:236,1,90,2|0,0:0|0:0,0:0:0:0:
284,204,80635,2,0,P|265:165|269:121,1,90,2|0,0:0|0:0,0:0:0:0:
352,148,81457,1,2,0:0:0:0:
334,54,81868,1,2,0:0:0:0:
248,28,82279,6,0,B|197:21|168:48|168:48|168:36|168:36|136:64|88:56,1,180,2|0,0:0|0:0,0:0:0:0:
72,76,83923,2,0,B|56:124|72:164|72:164|92:208|72:252,1,180,2|0,0:0|0:0,0:0:0:0:
80,272,85361,6,0,L|124:280,1,45,0|2,0:0|0:0,0:0:0:0:
376,256,98512,5,2,0:0:0:0:
276,296,98718,2,0,P|216:292|168:300,1,107.999996704102,2|0,0:0|0:0,0:0:0:0:
68,340,99334,1,2,0:0:0:0:
84,234,99540,2,0,P|118:185|135:139,1,107.999996704102,2|0,0:0|0:0,0:0:0:0:
152,32,100156,1,2,0:0:0:0:
236,99,100361,6,0,P|263:153|294:191,1,107.999996704102,2|0,0:0|0:0,0:0:0:0:
376,260,100978,2,0,P|396:296|400:324,1,53.9999983520508,2|2,0:0|0:0,0:0:0:0:
300,316,101594,1,0,0:0:0:0:
300,316,101799,1,2,0:0:0:0:
300,316,102005,6,0,P|259:316|233:305,1,53.9999983520508,2|0,0:0|0:0,0:0:0:0:
290,223,102622,1,2,0:0:0:0:
290,223,102827,2,0,P|312:188|334:171,1,53.9999983520508,2|0,0:0|0:0,0:0:0:0:
408,136,103444,5,2,0:0:0:0:
412,88,103650,2,0,L|419:27,1,53.9999983520508,2|0,0:0|0:0,0:0:0:0:
272,104,104265,1,2,0:0:0:0:
241,68,104471,2,0,L|203:20,1,53.9999983520508,2|0,0:0|0:0,0:0:0:0:
100,48,104882,5,0,0:0:0:0:
28,88,105087,1,2,0:0:0:0:
79,155,105293,2,0,L|60:268,1,107.999996704102,2|0,0:0|0:0,0:0:0:0:
121,316,105909,1,2,0:0:0:0:
138,239,106115,2,0,L|157:352,1,107.999996704102,2|0,0:0|0:0,0:0:0:0:
236,328,106731,1,2,0:0:0:0:
316,312,106937,6,0,B|360:304|392:312|392:312|416:312|432:304,1,107.999996704102,2|0,0:0|0:0,0:0:0:0:
400,228,107553,1,2,0:0:0:0:
388,148,107759,2,0,P|408:92|456:176,2,215.999993408203,2|0|2,0:0|0:0|0:0,0:0:0:0:
400,232,109608,1,0,0:0:0:0:
352,304,109814,1,0,0:0:0:0:
268,328,110019,1,0,0:0:0:0:
184,348,110224,6,0,P|184:308|188:288,1,53.9999983520508,2|0,0:0|0:0,0:0:0:0:
440,308,110635,2,0,P|412:337|395:348,1,53.9999983520508
352,264,111046,1,2,0:0:0:0:
328,180,111252,1,0,0:0:0:0:
348,96,111457,1,0,0:0:0:0:
408,32,111663,1,0,0:0:0:0:
473,153,111868,6,0,B|472:84|404:60|336:88|340:156|340:156|276:154|244:200,1,323.999990112305,2|0,0:0|0:0,0:0:0:0:
188,252,113307,1,0,0:0:0:0:
168,172,113512,2,0,L|96:152,1,53.9999983520508,2|0,0:0|0:0,0:0:0:0:
44,196,113923,1,0,0:0:0:0:
44,116,114129,2,0,L|24:236,1,107.999996704102,2|0,0:0|0:0,0:0:0:0:
68,342,114745,2,0,L|76:288,1,53.9999983520508,2|0,0:0|0:0,0:0:0:0:
148,252,115156,5,2,0:0:0:0:
224,220,115361,1,0,0:0:0:0:
298,259,115567,1,0,0:0:0:0:
316,341,115772,1,2,0:0:0:0:
342,348,116389,1,2,0:0:0:0:
422,373,116594,1,2,0:0:0:0:
492,328,116800,6,0,L|480:264,1,53.9999983520508,2|0,0:0|0:0,0:0:0:0:
464,196,117211,1,0,0:0:0:0:
374,120,117416,2,0,L|386:184,1,53.9999983520508,2|0,0:0|0:0,0:0:0:0:
402,252,117827,1,0,0:0:0:0:
351,362,118033,2,0,L|342:309,1,53.9999983520508,2|0,0:0|0:0,0:0:0:0:
284,192,118444,6,0,P|232:185|184:209,1,107.999996704102,6|0,0:0|0:0,0:0:0:0:
209,372,119060,2,0,P|242:330|245:277,1,107.999996704102,2|0,0:0|0:0,0:0:0:0:
112,264,119677,2,0,P|145:292|165:300,1,53.9999983520508,2|0,0:0|0:0,0:0:0:0:
101,174,120087,6,0,P|61:189|44:202,2,53.9999983520508,2|0|0,0:0|0:0|0:0,0:0:0:0:
184,209,120704,2,0,P|192:172|159:104,1,107.999996704102,2|0,0:0|0:0,0:0:0:0:
196,32,121320,2,0,P|237:18|254:5,1,53.9999983520508,2|0,0:0|0:0,0:0:0:0:
316,96,121731,6,0,P|352:124|363:140,1,53.9999983520508,2|0,0:0|0:0,0:0:0:0:
384,208,122142,1,0,0:0:0:0:
280,296,122348,2,0,P|283:242|305:193,1,107.999996704102,2|0,0:0|0:0,0:0:0:0:
364,290,122964,1,2,0:0:0:0:
388,316,123375,6,0,L|440:300,1,53.9999983520508,2|0,0:0|0:0,0:0:0:0:
508,344,123786,2,0,P|519:283|496:241,1,107.999996704102,2|0,0:0|0:0,0:0:0:0:
440,188,124403,1,0,0:0:0:0:
436,108,124608,1,2,0:0:0:0:
508,144,124814,1,2,0:0:0:0:
368,152,125019,6,0,L|311:157,1,53.9999983520508,2|0,0:0|0:0,0:0:0:0:
280,160,125635,1,2,0:0:0:0:
140,168,125841,2,0,L|83:173,1,53.9999983520508,2|0,0:0|0:0,0:0:0:0:
48,176,126457,1,2,0:0:0:0:
188,184,126662,6,0,L|245:189,1,53.9999983520508,2|0,0:0|0:0,0:0:0:0:
276,192,127278,1,2,0:0:0:0:
416,200,127485,2,0,L|473:205,1,53.9999983520508,2|0,0:0|0:0,0:0:0:0:
372,292,127896,2,0,L|315:287,1,53.9999983520508,2|2,0:0|0:0,0:0:0:0:
222,376,128307,6,0,P|152:344|124:316,1,107.999996704102,2|2,0:0|0:0,0:0:0:0:
180,260,128923,1,0,0:0:0:0:
152,184,129129,1,2,0:0:0:0:
72,168,129334,1,0,0:0:0:0:
40,92,129540,2,0,P|44:48|56:24,1,53.9999983520508,2|0,0:0|0:0,0:0:0:0:
152,76,129951,6,0,L|264:64,1,107.999996704102,2|0,0:0|0:0,0:0:0:0:
336,92,130567,1,0,0:0:0:0:
384,156,130772,2,0,P|396:192|392:220,1,53.9999983520508,2|0,0:0|0:0,0:0:0:0:
368,328,131183,2,0,P|357:303|356:276,1,53.9999983520508,0|2,0:0|0:0,0:0:0:0:
288,196,131594,6,0,L|176:208,1,107.999996704102,2|0,0:0|0:0,0:0:0:0:
100,216,132211,1,2,0:0:0:0:
28,112,132416,2,0,P|64:48|96:36,1,107.999996704102,2|0,0:0|0:0,0:0:0:0:
215,118,133033,1,2,0:0:0:0:
215,118,133238,6,0,P|145:138|114:124,1,107.999996704102,2|0,0:0|0:0,0:0:0:0:
236,29,133855,1,2,0:0:0:0:
236,29,134060,2,0,P|300:65|312:97,1,107.999996704102,2|0,0:0|0:0,0:0:0:0:
284,172,134677,1,2,0:0:0:0:
328,240,134882,6,0,B|332:264|348:284|348:284|401:290|420:352|420:352|430:323|464:312,1,215.999993408203,2|2,0:0|0:0,0:0:0:0:
496,292,136526,2,0,B|518:235|468:197|468:197|422:163|442:99,1,215.999993408203,2|2,0:0|0:0,0:0:0:0:
344,56,137759,1,0,0:0:0:0:
304,156,138170,6,0,B|296:184|304:212|352:188|392:248|372:292|356:316|316:320|284:308|284:308|264:336|224:344|188:336|164:300|184:244|208:228|216:200|184:192,2,431.999986816407,6|0|2,0:0|0:0|0:0,0:0:0:0:
340,300,162416,5,0,0:0:0:0:
352,268,162827,5,2,2:0:0:0:
492,163,163033,1,0,2:0:0:0:
317,166,163238,1,0,2:0:0:0:
460,267,163444,1,2,2:0:0:0:
404,101,163649,6,0,P|365:67|312:60,1,90,2|0,0:0|0:0,0:0:0:0:
232,104,164266,1,2,0:0:0:0:
135,149,164471,6,0,L|132:284,1,135.000005149842,6|0,0:0|0:0,0:0:0:0:
48,340,165088,1,2,0:0:0:0:
232,312,165293,2,0,P|304:312|352:276,1,135.000005149842,2|0,0:0|0:0,0:0:0:0:
268,216,165909,1,2,0:0:0:0:
456,276,166115,6,0,L|460:208,1,67.5000025749208,2|0,0:0|0:0,0:0:0:0:
364,176,166526,1,0,0:0:0:0:
280,116,166731,1,2,0:0:0:0:
280,116,166834,1,2,0:0:0:0:
280,116,166937,2,0,P|315:88|342:77,1,67.5000025749208,2|0,0:0|0:0,0:0:0:0:
268,216,167348,1,0,0:0:0:0:
188,152,167553,1,2,0:0:0:0:
77,73,167759,6,0,P|72:140|100:200,1,135.000005149842,2|0,0:0|0:0,0:0:0:0:
180,264,168375,1,2,0:0:0:0:
316,344,168581,1,2,0:0:0:0:
216,356,168786,2,0,L|292:232,1,135.000005149842,2|0,0:0|0:0,0:0:0:0:
400,152,169403,6,0,P|458:168|500:229,1,135.000005149842,2|0,0:0|0:0,0:0:0:0:
400,256,170019,2,0,P|396:292|400:308,2,33.7500012874604,2|2|2,0:0|0:0|0:0,0:0:0:0:
400,48,170840,1,2,0:0:0:0:
309,100,171046,6,0,B|265:93|265:93|220:93|220:93|173:85,1,135.000005149842,2|0,0:0|0:0,0:0:0:0:
76,104,171663,1,2,0:0:0:0:
32,196,171868,6,0,P|48:248|64:264,1,67.5000025749208,2|0,0:0|0:0,0:0:0:0:
180,346,172279,2,0,P|175:312|156:284,1,67.5000025749208
84,352,172690,5,2,0:0:0:0:
240,224,173101,1,0,0:0:0:0:
340,248,173307,1,2,0:0:0:0:
310,149,173512,2,0,P|308:92|312:72,1,67.5000025749208,2|0,0:0|0:0,0:0:0:0:
408,112,173923,2,0,P|447:71|464:59,1,67.5000025749208,0|2,0:0|0:0,0:0:0:0:
504,152,174334,5,2,0:0:0:0:
504,152,174540,2,0,B|480:184|480:184|488:280,1,135.000005149842,2|2,0:0|0:0,0:0:0:0:
464,312,175361,1,0,0:0:0:0:
372,356,175567,2,0,L|300:336,1,67.5000025749208,0|2,0:0|0:0,0:0:0:0:
224,276,175978,5,2,0:0:0:0:
314,139,176184,1,0,0:0:0:0:
161,198,176389,1,2,0:0:0:0:
319,240,176595,1,0,0:0:0:0:
216,113,176800,5,2,0:0:0:0:
62,170,177005,1,2,0:0:0:0:
153,35,177211,1,2,0:0:0:0:
161,199,177416,1,2,0:0:0:0:
59,72,177622,6,0,L|138:122,1,90,6|0,0:0|0:0,0:0:0:0:
248,192,178033,1,0,0:0:0:0:
248,192,178238,1,2,0:0:0:0:
104,324,178444,2,0,P|112:268|132:240,1,90,2|0,0:0|0:0,0:0:0:0:
236,324,178855,1,0,0:0:0:0:
412,244,179060,1,2,0:0:0:0:
320,80,179266,5,2,0:0:0:0:
216,56,179471,2,0,B|200:132|244:116|248:192|248:192|216:172,1,180,0|2,0:0|0:0,0:0:0:0:
132,136,179985,1,2,0:0:0:0:
132,136,180088,2,0,P|80:152|56:180,1,90,2|0,0:0|0:0,0:0:0:0:
124,344,180498,2,0,P|82:333|51:301,1,90,0|2,0:0|0:0,0:0:0:0:
224,248,180909,6,0,P|312:268|392:232,1,180,2|0,0:0|0:0,0:0:0:0:
297,132,181526,1,2,0:0:0:0:
431,99,181731,1,2,0:0:0:0:
156,127,181937,2,0,L|336:96,1,180,2|2,0:0|0:0,0:0:0:0:
392,233,182553,6,0,P|396:289|384:320,1,90,2|0,0:0|0:0,0:0:0:0:
260,268,182964,2,0,P|224:311|193:324,1,90,0|2,0:0|0:0,0:0:0:0:
142,200,183375,1,2,0:0:0:0:
142,200,183581,2,0,P|80:180|80:76,1,180,0|2,0:0|0:0,0:0:0:0:
216,85,184197,6,0,L|308:104,1,90,6|0,0:0|0:0,0:0:0:0:
473,231,184608,2,0,L|384:212,1,90,0|2,0:0|0:0,0:0:0:0:
251,229,185019,1,2,0:0:0:0:
164,332,185224,1,0,0:0:0:0:
32,76,185430,1,0,0:0:0:0:
64,208,185635,1,2,0:0:0:0:
269,94,185841,6,0,B|324:124|340:80|396:112|396:112|356:152,1,180,2|0,0:0|0:0,0:0:0:0:
268,244,186457,1,2,0:0:0:0:
400,277,186663,1,2,0:0:0:0:
307,375,186868,1,0,0:0:0:0:
268,244,187074,1,0,0:0:0:0:
400,277,187280,1,2,0:0:0:0:
307,375,187485,5,2,0:0:0:0:
176,343,187690,1,2,0:0:0:0:
144,320,188101,2,0,L|136:184,1,135.000005149842,2|0,0:0|0:0,0:0:0:0:
229,85,188718,2,0,L|232:152,1,67.5000025749208,2|0,0:0|0:0,0:0:0:0:
308,220,189129,5,2,0:0:0:0:
332,120,189334,1,0,0:0:0:0:
424,36,189540,1,2,0:0:0:0:
448,136,189745,1,0,0:0:0:0:
376,320,189951,5,2,0:0:0:0:
276,200,190157,1,2,0:0:0:0:
490,168,190361,1,2,0:0:0:0:
370,268,190567,1,2,0:0:0:0:
204,192,190772,5,6,0:0:0:0:
204,192,191389,1,2,0:0:0:0:
204,192,191594,2,0,P|196:152|204:104,1,90,2|0,0:0|0:0,0:0:0:0:
308,104,192416,6,0,P|317:148|308:192,2,90,2|0|2,0:0|0:0|0:0,0:0:0:0:
256,13,193649,1,0,0:0:0:0:
256,13,194060,6,0,L|256:192,1,180,2|0,0:0|0:0,0:0:0:0:
256,371,195704,2,0,L|256:192,1,180,2|0,0:0|0:0,0:0:0:0:
316,92,197143,1,2,0:0:0:0:
196,92,197348,6,0,L|152:100,1,45,2|0,0:0|0:0,0:0:0:0:
96,172,197759,1,0,0:0:0:0:
60,88,197964,2,0,L|76:46,1,45,2|0,0:0|0:0,0:0:0:0:
96,172,198375,1,2,0:0:0:0:
92,192,198581,1,0,0:0:0:0:
88,212,198786,1,2,0:0:0:0:
98,302,198992,6,0,P|125:295|146:282,1,45,2|0,0:0|0:0,0:0:0:0:
88,212,199403,1,0,0:0:0:0:
16,268,199608,2,0,P|9:295|10:320,1,45,2|0,0:0|0:0,0:0:0:0:
60,384,200019,1,2,0:0:0:0:
84,380,200224,1,0,0:0:0:0:
108,376,200430,1,2,0:0:0:0:
196,360,200635,6,0,L|244:350,1,45,2|0,0:0|0:0,0:0:0:0:
252,260,201046,1,0,0:0:0:0:
164,240,201252,2,0,L|149:287,1,45,2|0,0:0|0:0,0:0:0:0:
226,174,201663,1,2,0:0:0:0:
236,152,201868,1,0,0:0:0:0:
244,132,202074,1,2,0:0:0:0:
288,52,202279,6,0,P|312:55|336:64,1,45,2|0,0:0|0:0,0:0:0:0:
400,124,202690,1,0,0:0:0:0:
456,196,202896,2,0,P|473:182|487:164,1,45,2|0,0:0|0:0,0:0:0:0:
366,209,203307,1,2,0:0:0:0:
422,280,203512,1,0,0:0:0:0:
333,293,203718,1,2,0:0:0:0:
277,222,203923,6,0,P|260:240|248:264,1,45,2|0,0:0|0:0,0:0:0:0:
256,348,204334,1,0,0:0:0:0:
176,308,204540,2,0,P|169:285|155:262,1,45,2|0,0:0|0:0,0:0:0:0:
88,324,204951,1,2,0:0:0:0:
68,316,205156,1,0,0:0:0:0:
48,308,205361,1,2,0:0:0:0:
20,220,205567,6,0,P|48:216|66:218,1,45,2|0,0:0|0:0,0:0:0:0:
140,172,205978,1,0,0:0:0:0:
184,92,206183,2,0,P|207:109|218:124,1,45,2|0,0:0|0:0,0:0:0:0:
224,212,206594,1,2,0:0:0:0:
244,220,206800,1,0,0:0:0:0:
264,228,207005,1,2,0:0:0:0:
348,260,207211,6,0,L|392:280,1,45,2|0,0:0|0:0,0:0:0:0:
408,192,207622,1,0,0:0:0:0:
320,168,207827,2,0,L|316:120,1,45,2|0,0:0|0:0,0:0:0:0:
404,100,208238,1,2,0:0:0:0:
428,100,208444,1,0,0:0:0:0:
452,100,208649,1,2,0:0:0:0:
408,192,208855,6,0,L|400:248,1,45,2|0,0:0|0:0,0:0:0:0:
280,328,209266,1,0,0:0:0:0:
204,280,209471,2,0,L|152:292,1,45,2|0,0:0|0:0,0:0:0:0:
76,328,209882,1,2,0:0:0:0:
112,208,210088,1,0,0:0:0:0:
76,88,210293,1,2,0:0:0:0:
198,117,210498,6,0,L|332:104,1,135,2|2,0:0|0:0,0:0:0:0:
412,148,211526,2,0,P|424:108|424:100,1,45,2|0,0:0|0:0,0:0:0:0:
335,196,211937,1,2,0:0:0:0:
416,236,212142,6,0,P|400:316|424:360,1,135,2|2,0:0|0:0,0:0:0:0:
487,295,213170,1,2,0:0:0:0:
504,208,213375,2,0,L|500:160,1,45,0|2,0:0|0:0,0:0:0:0:
444,92,213786,6,0,B|400:112|360:84|360:84|322:54,1,135,2|2,0:0|0:0,0:0:0:0:
236,44,214814,1,2,0:0:0:0:
272,124,215019,2,0,L|324:164,1,45,0|2,0:0|0:0,0:0:0:0:
185,116,215430,6,0,P|112:104|60:136,1,135,2|2,0:0|0:0,0:0:0:0:
132,188,216457,1,2,0:0:0:0:
48,220,216663,2,0,P|56:240|56:268,1,45,0|2,0:0|0:0,0:0:0:0:
40,352,217074,6,0,B|84:356|112:336|112:336|145:343|172:324,1,135,2|2,0:0|0:0,0:0:0:0:
124,248,218101,1,2,0:0:0:0:
216,244,218307,2,0,L|264:240,1,45,0|2,0:0|0:0,0:0:0:0:
344,276,218718,6,0,P|351:223|304:160,1,135,2|2,0:0|0:0,0:0:0:0:
216,152,219745,1,2,0:0:0:0:
268,80,219951,2,0,P|277:57|276:36,1,45,0|2,0:0|0:0,0:0:0:0:
188,44,220361,6,0,L|48:56,1,135,2|2,0:0|0:0,0:0:0:0:
40,136,221472,1,2,0:0:0:0:
68,220,221694,2,0,P|32:224|15:218,1,45,0|2,0:0|0:0,0:0:0:0:
160,224,222201,6,0,L|192:256,1,45,2|0,0:0|0:0,0:0:0:0:
164,340,222695,1,0,0:0:0:0:
252,324,222978,2,0,P|280:328|296:328,1,45,2|0,0:0|0:0,0:0:0:0:
376,344,223534,1,2,0:0:0:0:
352,268,223909,2,0,P|364:236|376:220,1,45,2|2,0:0|0:0,0:0:0:0:
440,280,225600,5,6,0:0:0:0:
