osu file format v14

[General]
AudioFilename: Utopiosphere.mp3
AudioLeadIn: 0
PreviewTime: 94910
Countdown: 0
SampleSet: Soft
StackLeniency: 0.7
Mode: 0
LetterboxInBreaks: 0
WidescreenStoryboard: 0

[Editor]
DistanceSpacing: 1.3
BeatDivisor: 4
GridSize: 4
TimelineZoom: 1.2

[Metadata]
Title:Utopiosphere
TitleUnicode:Utopiosphere
Artist:Mili
ArtistUnicode:Mili
Creator:alacat
Version:Hard
Source:Deemo
Tags:Mag Mell luxoDeh EvilElvis Sylith iyasine
BeatmapID:544561
BeatmapSetID:180002

[Difficulty]
HPDrainRate:5
CircleSize:4
OverallDifficulty:5
ApproachRate:7
SliderMultiplier:1.4
SliderTickRate:1

[Events]
//Background and Video events
0,0,"u.png",0,0
//Break Periods
2,73092,83101
//Storyboard Layer 0 (Background)
//Storyboard Layer 1 (Fail)
//Storyboard Layer 2 (Pass)
//Storyboard Layer 3 (Foreground)
//Storyboard Sound Samples

[TimingPoints]
2183,340.909090909091,4,2,1,50,1,0
12410,-100,4,2,1,40,0,0
13092,-100,4,2,1,70,0,0
24001,-100,4,2,1,60,0,0
26387,-100,4,2,1,30,0,0
26728,-133.333333333333,4,2,1,50,0,0
29455,-133.333333333333,4,2,1,30,0,0
29540,-133.333333333333,4,2,1,50,0,0
32183,-133.333333333333,4,2,1,30,0,0
32268,-133.333333333333,4,2,1,50,0,0
34739,-133.333333333333,4,2,1,30,0,0
34910,-133.333333333333,4,2,1,50,0,0
51785,-100,4,2,1,50,0,0
52467,-133.333333333333,4,2,1,50,0,0
55876,-100,4,2,1,50,0,0
56728,-100,4,2,1,60,0,0
63887,-133.333333333333,4,2,1,60,0,0
64739,-100,4,2,1,60,0,0
84001,-133.333333333333,4,2,1,40,0,0
94058,-100,4,2,1,60,0,0
94910,-100,4,2,1,70,0,1
116728,-100,4,2,1,50,0,0

[Colours]
Combo1 : 255,255,166
Combo2 : 255,170,213
Combo3 : 198,140,255
Combo4 : 255,196,136

[HitObjects]
352,224,2183,6,0,B|376:328|376:328|400:304,1,140,2|0,0:0|0:0,0:0:0:0:
480,140,2864,1,2,0:0:0:0:
480,140,3035,1,0,0:0:0:0:
480,140,3205,2,0,L|412:128,1,70,0|0,0:0|0:0,0:0:0:0:
348,60,3546,5,2,0:0:0:0:
256,216,3887,1,0,0:0:0:0:
84,160,4228,1,2,0:0:0:0:
128,80,4398,1,0,0:0:0:0:
208,124,4569,2,0,L|280:124,1,70,0|0,0:0|0:0,0:0:0:0:
352,180,4910,6,0,B|372:252|372:252|356:316,1,140,2|0,0:0|0:0,0:0:0:0:
184,372,5592,2,0,B|164:300|164:300|180:236,1,140,2|0,0:0|0:0,0:0:0:0:
256,184,6103,1,0,0:0:0:0:
268,276,6273,5,2,0:0:0:0:
144,144,6614,2,0,L|72:144,1,70,0|0,0:0|0:0,0:0:0:0:
8,208,6955,1,2,0:0:0:0:
8,208,7126,1,0,0:0:0:0:
60,280,7296,1,0,0:0:0:0:
60,280,7467,1,0,0:0:0:0:
144,244,7637,6,0,B|216:244|216:244|260:300,1,140,2|0,0:0|0:0,0:0:0:0:
408,192,8319,1,2,0:0:0:0:
456,268,8489,1,0,0:0:0:0:
400,340,8660,2,0,L|328:340,1,70,0|0,0:0|0:0,0:0:0:0:
268,272,9001,5,2,0:0:0:0:
360,116,9342,1,0,0:0:0:0:
196,192,9683,2,0,L|268:192,1,70,2|0,0:0|0:0,0:0:0:0:
228,108,10023,2,0,L|156:108,1,70,0|0,0:0|0:0,0:0:0:0:
96,40,10364,6,0,B|24:64|24:64|4:124,2,140,2|0|2,0:0|0:0|0:0,0:0:0:0:
128,124,11217,1,0,0:0:0:0:
96,40,11387,1,0,0:0:0:0:
188,56,11558,1,0,0:0:0:0:
220,140,11728,6,0,B|240:244|240:244|264:216,1,140,2|0,0:0|0:0,0:0:0:0:
384,80,12410,2,0,L|384:120,3,35,0|0|0|0,1:0|1:0|1:0|1:0,0:0:0:0:
420,144,12751,2,0,L|420:184,3,35,8|8|8|8,0:0|0:0|0:0|0:0,0:0:0:0:
444,220,13092,6,0,B|344:256|344:256|308:256,1,140,4|0,0:0|0:0,0:0:0:0:
240,200,13603,1,0,0:0:0:0:
172,260,13773,2,0,L|188:328,1,70,8|0,0:0|0:0,0:0:0:0:
240,200,14114,2,0,L|224:132,1,70,0|8,0:0|0:0,0:0:0:0:
280,60,14455,6,0,B|316:60|316:60|352:52,2,70,2|8|0,0:2|0:0|0:0,0:0:0:0:
196,20,14967,1,0,0:0:0:0:
136,88,15137,2,0,B|100:108|68:100|68:100|48:132|56:168,1,140,8|8,0:0|0:0,0:0:0:0:
120,232,15648,1,8,0:0:0:0:
204,196,15819,6,0,P|276:196|324:240,1,140,2|0,1:2|0:0,0:0:0:0:
364,320,16330,1,0,0:0:0:0:
364,320,16501,2,0,L|392:180,1,140,8|0,0:0|0:0,0:0:0:0:
476,152,17012,1,0,0:0:0:0:
476,152,17183,6,0,L|488:80,1,70,2|8,0:0|0:0,0:0:0:0:
384,18,17523,2,0,L|396:88,1,70
308,68,17864,2,0,B|260:80|204:60|204:60|220:96,1,140,8|8,0:0|0:0,0:0:0:0:
284,156,18376,5,8,0:0:0:0:
284,156,18546,2,0,P|308:224|296:292,1,140,4|0,0:0|0:0,0:0:0:0:
204,284,19058,2,0,P|164:276|136:280,2,70,0|8|0,0:0|0:0|0:0,0:0:0:0:
248,364,19569,1,0,0:0:0:0:
204,284,19739,1,8,0:0:0:0:
284,244,19910,6,0,L|356:252,1,70,2|8,0:0|0:0,0:0:0:0:
428,196,20251,2,0,L|488:236,1,70,0|0,0:0|0:0,0:0:0:0:
464,324,20592,2,0,P|400:360|336:352,1,140,8|8,0:0|0:0,0:0:0:0:
280,280,21103,1,8,0:0:0:0:
256,192,21273,6,0,L|276:52,2,140,2|0|8,1:2|0:0|0:0,0:0:0:0:
168,220,22126,1,0,0:0:0:0:
96,164,22296,2,0,P|60:176|32:192,1,70,0|8,0:0|0:0,0:0:0:0:
16,280,22637,6,0,L|24:352,1,70,2|8,0:0|0:0,0:0:0:0:
112,368,22978,2,0,L|119:298,1,70
168,220,23319,1,8,0:0:0:0:
240,276,23489,1,0,0:0:0:0:
328,248,23660,2,0,L|320:178,1,70,8|0,0:0|0:0,0:0:0:0:
256,112,24001,5,2,0:0:0:0:
256,112,24342,1,0,0:0:0:0:
256,112,24683,1,2,0:0:0:0:
212,32,24853,2,0,L|252:24,2,35
88,164,25364,5,2,0:0:0:0:
88,164,25705,2,0,L|100:236,1,70,0|0,0:0|0:0,0:0:0:0:
164,296,26046,2,0,L|156:332,2,35,2|0|8,0:0|0:0|0:0,0:0:0:0:
244,252,26387,1,4,0:0:0:0:
212,120,26728,6,0,B|256:88|256:88|308:88,1,105.000004005432,4|2,0:0|0:0,0:0:0:0:
440,192,27410,2,0,L|332:192,1,105.000004005432,2|0,0:0|0:0,0:0:0:0:
256,340,28092,1,0,0:0:0:0:
256,340,28433,1,2,0:0:0:0:
420,376,28773,2,0,B|456:336|456:336|456:284,2,105.000004005432,2|0|4,0:0|0:0|0:0,0:0:0:0:
296,264,29796,5,2,0:0:0:0:
136,320,30137,1,2,0:0:0:0:
244,192,30478,1,0,0:0:0:0:
136,320,30819,2,0,B|88:344|88:344|36:336,2,105.000004005432,2|2|2,0:0|0:0|0:0,0:0:0:0:
128,152,31842,2,0,L|136:204,1,52.5000020027161,2|0,0:0|0:0,0:0:0:0:
196,264,32183,6,0,P|248:276|296:256,1,105.000004005432,4|2,0:0|0:0,0:0:0:0:
372,108,32864,2,0,L|388:212,1,105.000004005432,2|0,0:0|0:0,0:0:0:0:
468,360,33546,2,0,L|484:256,1,105.000004005432,0|2,0:0|0:0,0:0:0:0:
460,88,34228,1,2,0:0:0:0:
320,180,34569,2,0,L|268:176,1,52.5000020027161,0|4,0:0|0:0,0:0:0:0:
228,104,34910,6,0,P|232:72|232:52,2,52.5000020027161,4|2|2,0:0|0:0|0:0,0:0:0:0:
152,256,35592,1,2,0:0:0:0:
152,256,35762,2,0,P|144:200|144:152,1,105.000004005432,2|8,0:0|0:3,0:0:0:0:
104,76,36273,5,2,0:0:0:0:
28,224,36614,1,2,0:0:0:0:
152,340,36955,1,2,0:0:0:0:
152,340,37126,1,0,0:0:0:0:
152,340,37296,2,0,L|204:340,1,52.5000020027161,2|0,0:0|0:0,0:0:0:0:
272,292,37637,6,0,B|288:240|288:240|288:188,1,105.000004005432,2|2,0:0|0:0,0:0:0:0:
464,84,39001,2,0,L|464:196,1,105.000004005432,2|2,0:0|0:0,0:0:0:0:
256,368,40364,6,0,L|256:263,1,105.000004005432,2|2,0:0|0:0,0:0:0:0:
48,84,41728,2,0,L|48:196,1,105.000004005432,2|2,0:0|0:0,0:0:0:0:
148,324,42410,2,0,L|148:219,1,105.000004005432,2|2,0:0|0:0,0:0:0:0:
204,60,43092,6,0,B|256:44|256:44|312:44,1,105.000004005432,2|2,0:0|0:0,0:0:0:0:
472,192,44455,2,0,L|364:192,1,105.000004005432,2|2,0:0|0:0,0:0:0:0:
40,192,45819,6,0,L|148:192,1,105.000004005432,2|2,0:0|0:0,0:0:0:0:
308,324,47183,2,0,B|256:340|256:340|200:340,1,105.000004005432,2|2,0:0|0:0,0:0:0:0:
64,252,47864,2,0,L|172:252,1,105.000004005432,2|0,0:0|0:0,0:0:0:0:
280,172,48546,6,0,B|312:124|296:64|296:64|348:68|380:112,1,210.000008010865,2|2,0:0|0:0,0:0:0:0:
396,244,49569,1,2,0:0:0:0:
280,172,49910,1,2,0:0:0:0:
416,172,50251,1,2,0:0:0:0:
308,256,50592,6,0,B|292:296|304:336|304:336|360:328|360:328|384:356|424:356,1,210.000008010865,2|2,0:0|0:0,0:0:0:0:
476,228,51614,1,2,0:0:0:0:
316,144,51955,6,0,B|252:116|252:116|320:92,1,140,2|2,0:0|0:0,0:0:0:0:
196,28,52637,6,0,B|96:56|96:56|44:28|44:28|0:48,1,210.000008010865,2|2,0:0|0:0,0:0:0:0:
52,176,53660,2,0,B|80:224|80:224|132:224,1,105.000004005432,2|2,0:0|0:0,0:0:0:0:
256,172,54342,1,2,0:0:0:0:
228,304,54683,6,0,B|208:228|208:228|320:300,1,210.000008010865,2|2,0:0|0:0,0:0:0:0:
208,380,55705,1,2,0:0:0:0:
72,208,56046,6,0,B|6:232|6:232|70:260,1,140,2|4,0:0|0:0,0:0:0:0:
216,152,56728,6,0,P|232:84|208:20,1,140,2|2,1:2|0:0,0:0:0:0:
56,120,57410,1,8,0:0:0:0:
72,208,57580,1,2,0:0:0:0:
100,296,57751,2,0,L|168:312,2,70,2|0|8,1:2|1:2|0:0,0:0:0:0:
256,200,58433,5,10,0:0:0:0:
368,344,58773,2,0,B|436:356|436:356|496:316,1,140,2|2,1:2|0:0,0:0:0:0:
392,168,59455,2,0,B|384:132|384:132|392:100,1,70,8|2,0:0|0:0,0:0:0:0:
328,32,59796,2,0,L|260:44,2,70,2|0|8,1:2|1:0|0:0,0:0:0:0:
256,200,60478,1,8,0:0:0:0:
100,104,60819,6,0,B|72:208|72:208|88:236,2,140,2|8|8,1:2|0:0|0:0,0:0:0:0:
80,16,61671,1,0,0:0:0:0:
168,40,61842,2,0,B|236:28|236:28|304:52,1,140,2|0,1:2|1:0,0:0:0:0:
332,232,62523,1,8,0:0:0:0:
192,348,62864,6,0,B|164:252|164:252|176:212,1,140,2|8,1:2|0:0,0:0:0:0:
332,120,63546,1,2,0:0:0:0:
300,36,63717,1,2,0:0:0:0:
244,104,63887,6,0,B|188:124|132:88|132:88|128:140|96:172,1,210.000008010865,8|2,0:0|0:0,0:0:0:0:
8,148,64739,5,0,0:0:0:0:
8,148,64910,2,0,L|24:288,1,140,4|8,1:2|0:0,0:0:0:0:
188,372,65592,2,0,L|200:300,1,70,8|2,0:0|0:0,0:0:0:0:
256,232,65933,2,0,B|288:220|288:220|324:220,2,70,2|0|8,1:2|1:2|0:0,0:0:0:0:
420,312,66614,1,8,0:0:0:0:
484,140,66955,6,0,L|344:140,1,140,2|8,1:2|0:0,0:0:0:0:
188,48,67637,2,0,B|152:48|152:48|116:60,1,70,8|2,0:0|0:0,0:0:0:0:
44,112,67978,1,2,1:2:0:0:
92,188,68148,1,0,1:2:0:0:
168,140,68319,1,8,0:0:0:0:
32,20,68660,1,8,0:0:0:0:
256,112,69001,6,0,P|328:112|376:68,2,140,2|10|8,1:2|0:0|0:0,0:0:0:0:
188,48,69853,1,2,0:0:0:0:
168,140,70023,2,0,B|184:244|184:244|176:280,1,140,2|2,1:2|1:2,0:0:0:0:
16,192,70705,1,10,0:0:0:0:
92,356,71046,6,0,B|160:368|160:368|232:368,1,140,2|8,1:2|0:0,0:0:0:0:
364,244,71728,1,2,0:0:0:0:
280,212,71898,1,2,0:0:0:0:
296,300,72069,1,12,0:0:0:0:
256,320,84001,5,2,0:0:0:0:
352,280,84683,1,0,0:0:0:0:
256,236,85364,1,2,0:0:0:0:
160,280,86046,2,0,B|104:280|104:280|64:252,2,105.000004005432,0|0|2,0:0|0:0|0:0,0:0:0:0:
168,176,87410,5,0,0:0:0:0:
256,120,88092,2,0,P|360:128|400:216,1,210.000008010865,2|2,0:0|0:0,0:0:0:0:
332,296,89455,5,2,0:0:0:0:
248,236,90137,1,2,0:0:0:0:
272,132,90819,1,2,0:0:0:0:
200,56,91501,1,2,0:0:0:0:
172,156,92183,6,0,P|64:160|16:80,2,210.000008010865,2|2|2,0:0|0:0|0:0,0:0:0:0:
256,268,94228,5,12,0:0:0:0:
256,268,94910,6,0,P|320:304|384:292,1,140,4|0,0:0|0:0,0:0:0:0:
432,216,95421,1,0,0:0:0:0:
392,136,95592,2,0,L|408:68,1,70,10|0,0:0|0:0,0:0:0:0:
316,84,95933,2,0,L|300:152,1,70,0|2,0:0|0:0,0:0:0:0:
216,188,96273,6,0,P|180:180|144:176,1,70,2|8,0:0|0:0,0:0:0:0:
60,208,96614,1,2,0:0:0:0:
132,264,96785,1,0,0:0:0:0:
216,188,96955,2,0,L|188:48,1,140,10|10,0:0|0:0,0:0:0:0:
268,8,97467,1,8,0:0:0:0:
316,84,97637,6,0,P|388:84|436:40,1,140,4|0,0:0|0:0,0:0:0:0:
500,104,98148,1,2,0:0:0:0:
428,164,98319,2,0,L|455:301,1,140,8|2,0:0|0:0,0:0:0:0:
396,372,98830,1,2,0:0:0:0:
312,336,99001,6,0,L|240:348,1,70,2|8,0:0|0:0,0:0:0:0:
176,288,99342,2,0,L|104:276,2,70,2|2|10,0:0|0:0|0:0,0:0:0:0:
256,124,100023,2,0,L|244:84,3,35,8|0|0|0,0:0|1:0|1:0|1:0,0:0:0:0:
228,48,100364,6,0,P|160:24|92:36,1,140,4|0,0:0|0:0,0:0:0:0:
16,80,100876,1,0,0:0:0:0:
16,80,101046,2,0,P|8:120|12:148,1,70,10|0,0:0|0:0,0:0:0:0:
80,208,101387,1,2,0:0:0:0:
168,192,101558,1,2,0:0:0:0:
224,264,101728,6,0,L|216:336,1,70,2|8,0:0|0:0,0:0:0:0:
296,380,102069,2,0,L|303:310,1,70,2|2,0:0|0:0,0:0:0:0:
364,240,102410,2,0,P|432:233|491:268,1,140,10|8,0:0|0:0,0:0:0:0:
440,344,102921,1,0,1:0:0:0:
364,240,103092,6,0,L|384:100,1,140,2|2,0:0|0:0,0:0:0:0:
340,20,103603,1,2,0:0:0:0:
256,60,103773,2,0,B|196:64|156:32|156:32|124:52,1,140,10|2,0:0|0:0,0:0:0:0:
96,136,104285,1,2,0:0:0:0:
24,40,104455,6,0,L|12:108,1,70,2|8,0:0|0:0,0:0:0:0:
36,196,104796,2,0,P|104:176|172:176,1,140,2|10,0:0|0:0,0:0:0:0:
296,312,105478,2,0,L|332:304,3,35,8|0|0|0,0:0|1:0|1:0|1:0,0:0:0:0:
376,316,105819,6,0,P|392:248|368:184,1,140,4|0,0:0|0:0,0:0:0:0:
280,164,106330,1,2,0:0:0:0:
216,228,106501,2,0,L|204:300,2,70,10|0|2,0:0|0:0|0:0,0:0:0:0:
192,140,107012,1,0,0:0:0:0:
168,52,107183,6,0,L|236:32,1,70,2|8,0:0|0:0,0:0:0:0:
316,76,107523,2,0,L|384:56,1,70,2|0,0:0|0:0,0:0:0:0:
452,116,107864,2,0,B|464:184|428:184|448:256,1,140,10|10,0:0|0:0,0:0:0:0:
492,332,108376,1,10,0:0:0:0:
408,368,108546,6,0,P|336:364|288:316,1,140,2|2,0:0|0:0,0:0:0:0:
320,232,109058,1,2,0:0:0:0:
256,168,109228,2,0,L|116:184,1,140,8|2,0:0|0:0,0:0:0:0:
32,156,109739,1,8,0:0:0:0:
100,96,109910,6,0,L|172:89,2,70,2|8|2,0:0|0:0|0:0,0:0:0:0:
20,260,110592,2,0,P|76:308|140:308,1,140,8|8,0:0|0:0,0:0:0:0:
212,256,111103,5,0,1:0:0:0:
212,256,111273,2,0,P|284:264|332:312,1,140,4|0,0:0|0:0,0:0:0:0:
408,356,111785,2,0,P|416:316|412:288,1,70,0|10,0:0|0:0,0:0:0:0:
356,216,112126,2,0,L|376:76,1,140,0|2,0:0|0:0,0:0:0:0:
456,32,112637,6,0,L|464:108,1,70,2|8,0:0|0:0,0:0:0:0:
444,192,112978,1,2,0:0:0:0:
356,216,113148,2,0,P|320:212|284:216,1,70,2|10,0:0|0:0,0:0:0:0:
156,344,113660,1,8,0:0:0:0:
156,344,113830,1,0,1:0:0:0:
84,284,114001,6,0,P|72:212|104:156,2,140,2|0|8,0:0|0:0|0:0,0:0:0:0:
260,244,115023,2,0,L|188:232,1,70,2|2,0:0|0:0,0:0:0:0:
240,156,115364,6,0,L|380:180,1,140,2|2,0:0|0:0,0:0:0:0:
304,348,116046,2,0,L|232:360,1,70,10|0,0:0|0:0,0:0:0:0:
164,304,116387,2,0,L|92:316,1,70,10|0,0:0|0:0,0:0:0:0:
24,260,116728,6,0,B|12:296|12:296|12:328,2,70,0|2|2,0:0|0:0|0:0,0:0:0:0:
84,192,117239,1,0,0:0:0:0:
172,220,117410,2,0,P|244:220|284:168,2,140,2|0|2,0:0|0:0|0:0,0:0:0:0:
36,96,118433,5,0,0:0:0:0:
204,28,118773,2,0,L|272:40,1,70,2|0,0:0|0:0,0:0:0:0:
364,24,119114,2,0,L|424:68,1,70,2|0,0:0|0:0,0:0:0:0:
480,132,119455,5,0,0:0:0:0:
424,204,119626,1,2,0:0:0:0:
336,180,119796,2,0,P|300:180|268:192,1,70,2|0,0:0|0:0,0:0:0:0:
228,272,120137,2,0,P|156:280|108:236,1,140,2|0,0:0|0:0,0:0:0:0:
244,364,120819,6,0,P|316:372|364:328,2,140,0|2|2,0:0|0:0|0:0,0:0:0:0:
184,192,121842,1,2,0:0:0:0:
324,76,122183,6,0,L|312:148,1,70,0|2,0:0|0:0,0:0:0:0:
272,224,122523,2,0,L|284:296,1,70,2|0,0:0|0:0,0:0:0:0:
220,360,122864,2,0,P|156:368|104:320,1,140,2|2,0:0|0:0,0:0:0:0:
160,144,123546,5,0,0:0:0:0:
160,144,123717,1,2,0:0:0:0:
84,196,123887,2,0,L|16:184,1,70,2|0,0:0|0:0,0:0:0:0:
68,108,124228,2,0,P|112:56|180:48,1,140,2|2,0:0|0:0,0:0:0:0:
316,168,124910,6,0,P|324:200|320:240,2,70,0|2|2,0:0|0:0|0:0,0:0:0:0:
244,112,125421,1,0,0:0:0:0:
272,24,125592,2,0,P|352:20|400:52,1,140,2|2,0:0|0:0,0:0:0:0:
484,212,126273,6,0,L|491:142,2,70,0|2|2,0:0|0:0|0:0,0:0:0:0:
432,288,126785,1,0,0:0:0:0:
352,244,126955,2,0,P|316:244|284:252,1,70,2|0,0:0|0:0,0:0:0:0:
220,316,127296,2,0,P|184:316|152:308,1,70,2|0,0:0|0:0,0:0:0:0:
