osu file format v14

[General]
AudioFilename: Utopiosphere.mp3
AudioLeadIn: 0
PreviewTime: 94910
Countdown: 0
SampleSet: Soft
StackLeniency: 0.7
Mode: 0
LetterboxInBreaks: 0
WidescreenStoryboard: 0

[Editor]
DistanceSpacing: 0.5
BeatDivisor: 4
GridSize: 4
TimelineZoom: 1.4

[Metadata]
Title:Utopiosphere
TitleUnicode:Utopiosphere
Artist:Mili
ArtistUnicode:Mili
Creator:alacat
Version:Ecstasia
Source:Deemo
Tags:Mag Mell luxoDeh EvilElvis Sylith iyasine
BeatmapID:438732
BeatmapSetID:180002

[Difficulty]
HPDrainRate:6
CircleSize:5
OverallDifficulty:9
ApproachRate:9
SliderMultiplier:1.9
SliderTickRate:1

[Events]
//Background and Video events
0,0,"u.png",0,0
//Break Periods
2,73092,83401
//Storyboard Layer 0 (Background)
//Storyboard Layer 1 (Fail)
//Storyboard Layer 2 (Pass)
//Storyboard Layer 3 (Foreground)
//Storyboard Sound Samples

[TimingPoints]
2183,340.909090909091,4,2,1,40,1,0
2353,-142.857142857143,4,2,1,40,0,0
12410,-142.857142857143,4,2,1,30,0,0
13092,-100,4,2,1,70,0,0
26387,-100,4,2,1,30,0,0
26558,-100,4,2,1,40,0,0
26728,-142.857142857143,4,2,1,40,0,0
48546,-142.857142857143,4,2,1,50,0,0
56728,-100,4,2,1,50,0,0
63887,-200,4,2,1,40,0,0
64739,-100,4,2,1,60,0,0
84001,-142.857142857143,4,2,2,40,0,0
94228,-142.857142857143,4,2,1,40,0,0
94910,-100,4,2,1,60,0,1
95080,-100,4,2,1,40,0,1
95251,-100,4,2,1,60,0,1
95592,-100,4,2,1,40,0,1
96444,-100,4,2,1,60,0,1
96614,-100,4,2,1,50,0,1
97296,-100,4,2,1,60,0,1
97637,-100,4,2,1,50,0,1
98319,-200,4,2,1,60,0,1
98660,-100,4,2,1,50,0,1
99683,-200,4,2,1,50,0,1
100023,-200,4,2,1,40,0,1
100364,-100,4,2,1,60,0,1
100535,-100,4,2,1,50,0,1
101387,-100,4,2,1,60,0,1
101728,-100,4,2,1,50,0,1
102069,-100,4,2,1,40,0,1
103092,-125,4,2,1,50,0,1
105137,-100,4,2,1,50,0,1
105563,-100,4,2,1,40,0,1
105819,-100,4,2,1,60,0,1
105989,-100,4,2,1,50,0,1
106330,-100,4,2,1,40,0,1
106501,-100,4,2,1,55,0,1
106671,-100,4,2,1,40,0,1
107183,-100,4,2,1,50,0,1
108546,-100,4,2,1,60,0,1
109569,-100,4,2,1,50,0,1
110080,-100,4,2,1,60,0,1
111018,-100,4,2,1,45,0,1
111273,-100,4,2,1,60,0,1
111444,-100,4,2,1,50,0,1
111955,-100,4,2,1,45,0,1
112296,-100,4,2,1,50,0,1
114683,-100,4,2,1,60,0,1
115023,-100,4,2,1,50,0,1
116046,-100,4,2,1,40,0,1
116728,-125,4,2,1,40,0,0
117069,-125,4,2,1,30,0,0
117410,-125,4,2,1,25,0,0
123546,-166.666666666667,4,2,1,25,0,0
126955,-200,4,2,1,30,0,0

[Colours]
Combo1 : 255,255,166
Combo2 : 255,170,213
Combo3 : 198,140,255
Combo4 : 255,196,136

[HitObjects]
449,135,2183,5,2,0:0:0:0:
408,260,2353,2,0,L|396:194,1,66.4999979705811
456,108,2694,1,2,0:0:0:0:
288,156,2864,1,2,0:0:0:0:
356,128,3035,1,0,0:0:0:0:
236,212,3205,1,0,0:0:0:0:
304,184,3376,1,2,0:0:0:0:
196,76,3546,6,0,B|196:120|196:120|212:140,1,66.4999979705811,2|0,0:0|0:0,0:0:0:0:
324,212,3887,1,2,0:0:0:0:
372,156,4058,1,0,0:0:0:0:
348,224,4228,1,2,0:0:0:0:
368,296,4398,1,0,0:0:0:0:
424,344,4569,1,0,0:0:0:0:
496,352,4739,1,2,0:0:0:0:
344,312,4910,6,0,L|276:320,1,66.4999979705811,2|0,0:0|0:0,0:0:0:0:
164,236,5251,2,0,L|232:244,1,66.4999979705811,0|2,0:0|0:0,0:0:0:0:
200,360,5592,1,2,0:0:0:0:
164,236,5762,1,0,0:0:0:0:
212,336,5933,1,0,0:0:0:0:
88,224,6103,1,2,0:0:0:0:
28,332,6273,5,2,0:0:0:0:
180,264,6444,1,0,0:0:0:0:
8,208,6614,1,0,0:0:0:0:
200,360,6785,1,2,0:0:0:0:
200,192,6955,1,2,0:0:0:0:
180,264,7126,1,0,0:0:0:0:
116,144,7296,2,0,L|124:212,1,66.4999979705811,2|0,0:0|0:0,0:0:0:0:
256,244,7637,5,2,0:0:0:0:
324,216,7808,1,0,0:0:0:0:
228,220,7978,1,0,0:0:0:0:
368,280,8148,2,0,L|436:272,2,66.4999979705811,0|2|0,0:0|0:0|0:0,0:0:0:0:
200,192,8660,2,0,L|133:199,1,66.4999979705811,0|2,0:0|0:0,0:0:0:0:
228,64,9001,5,2,0:0:0:0:
256,140,9171,1,0,0:0:0:0:
172,268,9342,1,2,0:0:0:0:
200,192,9512,1,0,0:0:0:0:
352,244,9683,1,2,0:0:0:0:
276,216,9853,1,0,0:0:0:0:
356,272,10023,1,0,0:0:0:0:
280,244,10193,1,2,0:0:0:0:
360,296,10364,6,0,B|364:324|364:324|440:348|440:348|444:372,1,132.999995941162,2|0,0:0|0:0,0:0:0:0:
504,312,10876,1,2,0:0:0:0:
504,312,11046,2,0,L|496:244,1,66.4999979705811,2|0,0:0|0:0,0:0:0:0:
416,192,11387,1,0,0:0:0:0:
492,216,11558,1,2,0:0:0:0:
360,296,11728,6,0,B|338:302|338:302|260:261|260:261|254:239,1,132.999995941162,2|0,0:0|0:0,0:0:0:0:
280,164,12239,1,2,0:0:0:0:
192,284,12410,5,0,1:0:0:0:
195,296,12495,1,0,1:0:0:0:
198,308,12580,1,0,1:0:0:0:
201,320,12665,1,0,1:0:0:0:
192,352,12751,5,8,0:0:0:0:
164,368,12836,1,8,0:0:0:0:
132,368,12921,1,8,0:0:0:0:
104,352,13006,1,8,0:0:0:0:
88,324,13092,5,4,0:0:0:0:
104,232,13262,1,0,0:0:0:0:
124,140,13433,1,0,0:0:0:0:
12,240,13603,1,0,0:0:0:0:
28,148,13773,1,8,0:0:0:0:
48,56,13944,1,0,0:0:0:0:
224,140,14114,2,0,L|320:156,1,95,0|8,0:0|0:0,0:0:0:0:
208,232,14455,5,2,0:2:0:0:
124,140,14626,1,8,0:0:0:0:
244,48,14796,2,0,L|340:64,1,95
500,112,15137,1,8,0:0:0:0:
380,152,15308,1,0,0:0:0:0:
408,28,15478,1,8,0:0:0:0:
452,172,15648,1,8,0:0:0:0:
308,132,15819,6,0,B|260:116|260:116|292:252,1,190,2|0,1:2|0:0,0:0:0:0:
316,344,16330,1,0,0:0:0:0:
96,252,16501,1,8,0:0:0:0:
96,252,16842,1,0,0:0:0:0:
109,156,17012,1,0,0:0:0:0:
184,217,17183,5,2,0:0:0:0:
21,190,17353,1,8,0:0:0:0:
198,125,17523,1,0,0:0:0:0:
96,252,17694,1,0,0:0:0:0:
123,64,17864,1,8,0:0:0:0:
21,190,18035,1,0,0:0:0:0:
198,125,18205,1,8,0:0:0:0:
34,94,18376,5,8,0:0:0:0:
34,94,18461,1,8,0:0:0:0:
34,94,18546,1,4,0:0:0:0:
108,156,18717,1,0,0:0:0:0:
21,190,18887,1,0,0:0:0:0:
78,117,19058,1,0,0:0:0:0:
40,219,19229,1,8,0:0:0:0:
144,204,19399,1,0,0:0:0:0:
276,104,19569,2,0,L|180:92,1,95,0|8,0:0|0:0,0:0:0:0:
300,196,19910,5,2,0:0:0:0:
328,288,20080,1,8,0:0:0:0:
165,344,20251,2,0,L|260:356,1,95
396,224,20592,1,8,0:0:0:0:
328,288,20762,1,0,0:0:0:0:
463,161,20933,1,8,0:0:0:0:
488,252,21103,1,8,0:0:0:0:
300,196,21273,6,0,B|212:189|212:189|203:193|203:193|108:186,1,190,2|0,1:2|0:0,0:0:0:0:
28,232,21785,1,0,0:0:0:0:
15,45,21955,2,0,L|4:140,1,95,8|0,0:0|0:0,0:0:0:0:
55,350,22296,2,0,L|44:256,1,95,0|8,0:0|0:0,0:0:0:0:
120,148,22637,5,2,0:0:0:0:
145,55,22808,1,8,0:0:0:0:
148,150,22978,1,0,0:0:0:0:
219,88,23148,1,0,0:0:0:0:
171,172,23319,1,8,0:0:0:0:
265,157,23489,1,0,0:0:0:0:
181,203,23660,1,8,0:0:0:0:
266,243,23830,1,0,0:0:0:0:
120,272,24001,6,0,L|24:264,2,95,2|0|0,0:0|0:0|0:0,0:0:0:0:
260,332,24512,1,0,0:0:0:0:
181,203,24683,1,2,0:0:0:0:
172,348,24853,1,0,0:0:0:0:
172,348,24938,1,0,0:0:0:0:
172,348,25023,1,0,0:0:0:0:
266,243,25194,1,0,0:0:0:0:
120,272,25364,5,2,0:0:0:0:
340,296,25705,1,0,0:0:0:0:
266,243,25876,1,0,0:0:0:0:
336,380,26046,1,2,0:0:0:0:
336,380,26131,1,0,0:0:0:0:
336,380,26217,1,8,0:0:0:0:
260,332,26387,1,4,0:0:0:0:
416,344,26558,5,0,0:0:0:0:
428,328,26643,1,0,0:0:0:0:
440,312,26728,2,0,B|452:284|452:284|444:248,1,66.4999979705811,4|0,0:0|0:0,0:0:0:0:
400,184,27069,1,2,0:0:0:0:
376,204,27410,2,0,L|308:196,1,66.4999979705811,2|0,0:0|0:0,0:0:0:0:
188,140,27751,2,0,L|256:132,1,66.4999979705811
312,76,28092,5,0,0:0:0:0:
392,68,28262,1,2,0:0:0:0:
312,76,28433,1,2,0:0:0:0:
136,208,28773,1,2,0:0:0:0:
56,200,28943,1,8,0:3:0:0:
136,208,29114,1,0,0:0:0:0:
216,216,29285,5,0,0:0:0:0:
216,216,29370,1,0,0:0:0:0:
216,216,29455,1,4,0:0:0:0:
236,292,29626,1,2,0:0:0:0:
216,216,29796,1,2,0:0:0:0:
200,136,29967,1,0,0:0:0:0:
267,17,30137,2,0,L|260:84,1,66.4999979705811,2|2,0:0|0:0,0:0:0:0:
200,136,30478,1,0,0:0:0:0:
180,60,30648,1,2,0:0:0:0:
336,60,30819,6,0,L|402:67,1,66.4999979705811,2|0,0:0|0:0,0:0:0:0:
492,132,31160,2,0,L|425:139,1,66.4999979705811,2|0,0:0|0:0,0:0:0:0:
348,144,31501,1,2,0:0:0:0:
268,148,31671,1,0,0:0:0:0:
268,148,31756,1,0,0:0:0:0:
268,148,31842,2,0,L|248:176,3,33.2499989852906,2|0|0|0,0:0|0:0|0:0|0:0,0:0:0:0:
236,192,32183,5,4,0:0:0:0:
248,272,32353,1,2,0:0:0:0:
260,352,32523,1,2,0:0:0:0:
128,104,32864,2,0,L|60:112,1,66.4999979705811,2|0,0:0|0:0,0:0:0:0:
164,32,33205,1,0,0:0:0:0:
184,204,33546,6,0,L|252:212,1,66.4999979705811,0|2,0:0|0:0,0:0:0:0:
148,132,33887,1,2,0:0:0:0:
24,288,34228,2,0,L|32:356,1,66.4999979705811,2|0,0:0|0:0,0:0:0:0:
100,308,34569,2,0,L|92:241,1,66.4999979705811,0|4,0:0|0:0,0:0:0:0:
176,328,34910,5,4,0:0:0:0:
100,308,35080,1,2,0:0:0:0:
24,288,35251,1,2,0:0:0:0:
176,328,35592,1,2,0:0:0:0:
92,241,35762,2,0,L|100:308,1,66.4999979705811,2|0,0:0|0:0,0:0:0:0:
156,192,36103,1,8,0:3:0:0:
0,124,36273,5,2,0:0:0:0:
68,88,36444,1,0,0:0:0:0:
156,192,36614,1,2,0:0:0:0:
228,228,36785,1,0,0:0:0:0:
312,112,36955,1,2,0:0:0:0:
392,100,37126,1,0,0:0:0:0:
472,84,37296,1,2,0:0:0:0:
452,160,37467,1,0,0:0:0:0:
312,112,37637,6,0,L|180:100,2,132.999995941162,2|2|0,0:0|0:0|0:0,0:0:0:0:
312,112,38660,1,0,0:0:0:0:
328,192,38830,1,0,0:0:0:0:
312,112,39001,5,2,0:0:0:0:
348,268,39342,1,2,0:0:0:0:
348,268,40364,6,0,L|480:284,2,132.999995941162,2|2|0,0:0|0:0|0:0,0:0:0:0:
272,292,41217,1,0,0:0:0:0:
348,268,41387,1,0,0:0:0:0:
332,348,41558,1,0,0:0:0:0:
272,292,41728,6,0,L|260:160,1,132.999995941162,2|2,0:0|0:0,0:0:0:0:
136,60,42410,2,0,L|148:192,1,132.999995941162,2|2,0:0|0:0,0:0:0:0:
168,352,43092,5,2,0:0:0:0:
20,292,43433,1,2,0:0:0:0:
68,56,43944,1,0,0:0:0:0:
24,124,44114,2,0,L|32:192,1,66.4999979705811
137,269,44455,6,0,B|102:275|74:256|74:256|59:284|20:292,1,132.999995941162,2|2,0:0|0:0,0:0:0:0:
256,320,45648,1,0,0:0:0:0:
316,376,45819,6,0,L|452:360,2,132.999995941162,2|2|0,0:0|0:0|0:0,0:0:0:0:
256,228,46842,1,0,0:0:0:0:
256,228,47183,5,2,0:0:0:0:
404,164,47523,1,2,0:0:0:0:
284,156,47864,1,2,0:0:0:0:
376,236,48205,1,2,0:0:0:0:
380,76,48546,5,2,0:0:0:0:
304,48,48717,1,0,0:0:0:0:
228,72,48887,1,0,0:0:0:0:
160,116,49058,1,0,0:0:0:0:
80,128,49228,1,2,0:0:0:0:
28,68,49398,1,0,0:0:0:0:
108,56,49569,5,2,0:0:0:0:
24,192,49910,1,2,0:0:0:0:
124,316,50251,1,2,0:0:0:0:
196,284,50421,1,0,0:0:0:0:
192,364,50592,5,2,0:0:0:0:
124,316,50762,1,0,0:0:0:0:
128,236,50933,1,0,0:0:0:0:
200,204,51103,1,0,0:0:0:0:
268,248,51273,1,2,0:0:0:0:
264,328,51444,1,0,0:0:0:0:
196,284,51614,1,2,0:0:0:0:
412,376,51955,5,2,0:0:0:0:
412,376,52296,1,2,0:0:0:0:
388,200,52637,5,2,0:0:0:0:
448,252,52808,1,0,0:0:0:0:
476,328,52978,1,0,0:0:0:0:
476,248,53148,1,0,0:0:0:0:
496,172,53319,1,2,0:0:0:0:
472,96,53489,1,0,0:0:0:0:
492,20,53660,5,2,0:0:0:0:
340,72,54001,1,2,0:0:0:0:
184,36,54342,1,2,0:0:0:0:
216,108,54512,1,0,0:0:0:0:
268,44,54683,5,2,0:0:0:0:
340,72,54853,1,0,0:0:0:0:
380,140,55023,1,0,0:0:0:0:
364,220,55194,1,0,0:0:0:0:
284,212,55364,1,2,0:0:0:0:
208,240,55535,1,0,0:0:0:0:
172,312,55705,1,2,0:0:0:0:
72,112,56046,5,2,0:0:0:0:
72,112,56387,1,4,0:0:0:0:
288,344,56728,5,2,1:2:0:0:
404,192,57069,1,2,0:0:0:0:
288,344,57410,1,8,0:0:0:0:
256,256,57580,1,2,0:0:0:0:
228,164,57751,1,2,1:2:0:0:
228,164,57921,1,0,1:2:0:0:
228,164,58092,1,8,0:0:0:0:
480,300,58433,5,10,0:0:0:0:
312,208,58773,6,0,B|228:164|228:164|228:68,1,190,2|2,1:2|0:0,0:0:0:0:
136,236,59455,1,8,0:0:0:0:
44,212,59626,1,2,0:0:0:0:
96,292,59796,2,0,L|192:276,2,95,2|0|8,1:2|1:0|0:0,0:0:0:0:
108,44,60478,5,8,0:0:0:0:
40,336,60819,6,0,B|76:368|76:368|124:356,1,95,2|0,1:2|0:0,0:0:0:0:
102,151,61160,2,0,B|56:166|56:166|44:212,1,95,8|2,0:0|0:0,0:0:0:0:
216,360,61501,2,0,B|236:268,1,95,8|0,0:0|0:0,0:0:0:0:
180,192,61842,5,2,1:2:0:0:
308,332,62183,1,0,1:0:0:0:
488,268,62523,1,8,0:0:0:0:
408,192,62694,1,2,0:0:0:0:
468,328,62864,6,0,B|496:236|496:236|482:198|482:198|500:148,1,190,2|8,1:2|0:0,0:0:0:0:
256,64,63546,1,2,0:0:0:0:
284,156,63717,1,2,0:0:0:0:
332,56,63887,6,0,B|296:52|256:64|256:64|268:48|268:48|224:64|176:56,1,190,8|2,0:0|0:0,0:0:0:0:
108,168,64739,5,0,0:0:0:0:
108,168,64910,2,0,B|120:72|120:72|204:116,1,190,4|8,1:2|0:0,0:0:0:0:
24,236,65592,2,0,L|36:140,1,95,8|2,0:0|0:0,0:0:0:0:
0,52,65933,1,2,1:2:0:0:
0,52,66103,1,0,1:2:0:0:
0,52,66273,1,8,0:0:0:0:
256,328,66614,5,8,0:0:0:0:
56,108,66955,6,0,B|140:120|140:120|168:112|168:112|244:124,2,190,2|8|8,1:2|0:0|0:0,0:0:0:0:
12,192,67808,1,2,0:0:0:0:
68,268,67978,1,2,1:2:0:0:
152,228,68148,1,0,1:2:0:0:
56,108,68319,1,8,0:0:0:0:
148,320,68660,5,8,0:0:0:0:
276,180,69001,5,2,1:2:0:0:
188,140,69171,1,0,0:0:0:0:
296,208,69342,1,10,0:0:0:0:
384,168,69512,1,0,0:0:0:0:
200,112,69683,1,8,0:0:0:0:
288,72,69853,1,2,0:0:0:0:
288,72,70023,2,0,L|380:96,1,95,2|0,1:2|0:0,0:0:0:0:
280,236,70364,2,0,L|188:212,1,95,2|0,1:2|0:0,0:0:0:0:
108,40,70705,1,10,0:0:0:0:
108,40,71046,6,0,B|76:180|76:180|48:144,1,190,2|8,1:2|0:0,0:0:0:0:
48,144,71728,2,0,L|144:136,1,95,2|2,0:0|0:0,0:0:0:0:
256,80,72069,1,12,0:0:0:0:
188,208,84001,6,0,B|268:188|268:188|380:204|380:204|352:140,1,265.999991882324,6|2,0:0|0:0,0:0:0:0:
352,140,85364,1,2,0:0:0:0:
352,140,86046,1,2,0:0:0:0:
388,52,86387,1,0,0:0:0:0:
300,76,86728,6,0,B|168:60|168:60|228:32,2,199.499993911743,2|0|0,0:0|0:0|0:0,0:0:0:0:
376,24,88092,1,2,0:0:0:0:
256,168,88773,2,0,B|228:304|228:304|272:260,1,199.499993911743,2|0,0:0|0:0,0:0:0:0:
256,168,89455,5,2,0:0:0:0:
256,168,90137,1,2,0:0:0:0:
116,288,90819,1,2,0:0:0:0:
192,116,91501,1,2,0:0:0:0:
256,192,92183,12,12,94228,0:0:0:0:
225,62,94910,5,4,0:0:0:0:
292,128,95080,1,2,0:0:0:0:
131,77,95251,2,0,L|225:62,1,95,0|0,0:0|0:0,0:0:0:0:
443,142,95592,2,0,B|292:127|292:127|317:160,1,190,10|0,0:0|0:0,0:0:0:0:
387,258,96103,1,2,0:0:0:0:
300,349,96273,5,2,0:0:0:0:
230,172,96444,1,8,0:0:0:0:
387,258,96614,2,0,L|292:246,1,95,2|0,0:0|0:0,0:0:0:0:
273,243,96870,1,0,0:0:0:0:
254,240,96955,1,10,0:0:0:0:
139,285,97126,1,0,0:0:0:0:
230,172,97296,1,10,0:0:0:0:
185,340,97467,1,8,0:0:0:0:
213,100,97637,5,4,0:0:0:0:
213,100,97978,1,0,0:0:0:0:
241,14,98148,1,2,0:0:0:0:
162,174,98319,6,0,P|133:199|100:207,1,71.25,8|0,0:0|0:0,0:0:0:0:
88,207,98660,6,0,L|183:220,1,95,2|2,0:0|0:0,0:0:0:0:
439,268,99001,1,2,0:0:0:0:
340,304,99171,1,8,0:0:0:0:
185,340,99342,1,2,0:0:0:0:
289,372,99512,1,2,0:0:0:0:
109,309,99683,6,0,L|91:228,1,71.25,10|0,0:0|0:0,0:0:0:0:
88,207,100023,2,0,L|117:212,1,23.75,8|0,0:0|1:0,0:0:0:0:
181,171,100194,2,0,L|177:148,1,23.75,0|0,1:0|1:0,0:0:0:0:
166,73,100364,5,4,0:0:0:0:
272,137,100535,2,0,L|285:42,1,95,2|0,0:0|0:0,0:0:0:0:
381,95,100876,1,0,0:0:0:0:
290,17,101046,1,10,0:0:0:0:
463,305,101387,2,0,L|477:212,1,95,2|2,0:0|0:0,0:0:0:0:
334,368,101728,5,2,0:0:0:0:
318,270,101899,1,8,0:0:0:0:
214,338,102069,1,2,0:0:0:0:
223,250,102239,1,2,0:0:0:0:
111,278,102410,1,10,0:0:0:0:
139,192,102580,1,2,0:0:0:0:
46,213,102751,2,0,P|23:222|0:224,2,47.5,8|0|0,0:0|1:0|1:0,0:0:0:0:
225,130,103092,6,0,B|269:112|322:157|376:133,1,152,2|2,0:0|0:0,0:0:0:0:
223,250,103603,1,2,0:0:0:0:
358,370,103773,2,0,P|378:336|382:298,1,76,10|0,0:0|0:0,0:0:0:0:
147,228,104114,2,0,P|145:266|160:300,1,76,2|2,0:0|0:0,0:0:0:0:
276,352,104455,1,2,0:0:0:0:
178,330,104626,1,8,0:0:0:0:
80,306,104796,1,2,0:0:0:0:
80,306,105137,6,0,L|269:280,1,190,10|8,0:0|0:0,0:0:0:0:
255,273,105563,1,0,1:0:0:0:
242,266,105648,1,0,1:0:0:0:
229,259,105734,1,0,1:0:0:0:
216,252,105819,5,4,0:0:0:0:
175,95,105989,1,2,0:0:0:0:
193,84,106330,1,2,0:0:0:0:
260,188,106501,1,10,0:0:0:0:
270,24,106671,1,2,0:0:0:0:
175,95,106842,2,0,P|222:104|270:109,1,95,2|2,0:0|0:0,0:0:0:0:
445,168,107183,6,0,P|484:192|504:237,1,95,2|8,0:0|0:0,0:0:0:0:
289,328,107523,2,0,P|291:282|318:243,1,95,2|0,0:0|0:0,0:0:0:0:
207,194,107864,1,10,0:0:0:0:
103,206,108035,1,0,0:0:0:0:
0,222,108205,2,0,L|103:240,1,95,10|10,0:0|0:0,0:0:0:0:
412,91,108546,6,0,L|223:59,1,190,2|2,0:0|0:0,0:0:0:0:
61,124,109058,1,2,0:0:0:0:
157,44,109228,1,8,0:0:0:0:
163,297,109569,1,2,0:0:0:0:
189,198,109739,1,2,0:0:0:0:
215,98,109910,5,2,0:0:0:0:
110,189,110080,1,8,0:0:0:0:
282,141,110251,2,0,P|293:95|276:50,1,95,2|2,0:0|0:0,0:0:0:0:
189,198,110592,2,0,L|380:174,1,190,8|8,0:0|0:0,0:0:0:0:
394,182,111018,1,0,1:0:0:0:
410,190,111103,1,0,1:0:0:0:
426,198,111188,1,0,1:0:0:0:
442,206,111273,5,4,0:0:0:0:
509,135,111444,1,2,0:0:0:0:
397,90,111614,1,0,0:0:0:0:
449,9,111785,1,2,0:0:0:0:
282,141,111955,2,0,L|296:334,1,190,10|2,0:0|0:0,0:0:0:0:
405,296,112467,1,2,0:0:0:0:
299,368,112637,5,2,0:0:0:0:
420,309,112808,1,8,0:0:0:0:
310,268,112978,1,2,0:0:0:0:
199,276,113148,1,2,0:0:0:0:
109,328,113319,2,0,L|209:347,1,95,10|0,0:0|0:0,0:0:0:0:
44,242,113660,2,0,L|-1:258,2,47.5,8|0|0,0:0|1:0|1:0,0:0:0:0:
215,182,114001,5,2,0:0:0:0:
212,158,114342,1,0,0:0:0:0:
291,106,114512,1,2,0:0:0:0:
137,197,114683,1,8,0:0:0:0:
294,82,114853,2,0,L|185:65,1,95,0|2,0:0|0:0,0:0:0:0:
365,43,115194,1,2,0:0:0:0:
170,62,115364,5,2,0:0:0:0:
276,0,115535,1,8,0:0:0:0:
212,158,115705,1,2,0:0:0:0:
291,106,115876,1,0,0:0:0:0:
233,261,116046,1,10,0:0:0:0:
288,200,116217,1,0,0:0:0:0:
258,384,116387,1,10,0:0:0:0:
287,319,116558,1,0,0:0:0:0:
258,384,116728,6,0,P|226:357|215:326,1,76,2|0,0:0|0:0,0:0:0:0:
288,200,117069,1,2,0:0:0:0:
342,260,117239,1,0,0:0:0:0:
106,307,117410,1,2,0:0:0:0:
136,230,117580,1,0,0:0:0:0:
207,187,117751,1,2,0:0:0:0:
132,381,118092,5,0,0:0:0:0:
106,307,118262,1,2,0:0:0:0:
136,230,118433,1,0,0:0:0:0:
207,187,118603,1,2,0:0:0:0:
372,327,118773,2,0,P|365:290|342:260,1,76,0|2,0:0|0:0,0:0:0:0:
295,322,119114,1,2,0:0:0:0:
454,245,119285,1,2,0:0:0:0:
288,327,119455,5,2,0:0:0:0:
454,245,119626,2,0,L|373:233,1,76,2|2,0:0|0:0,0:0:0:0:
282,333,119967,1,0,0:0:0:0:
363,229,120137,2,0,L|354:149,1,76,2|0,0:0|0:0,0:0:0:0:
177,84,120478,1,2,0:0:0:0:
177,84,120819,6,0,P|182:43|203:17,1,76,0|2,0:0|0:0,0:0:0:0:
341,137,121160,2,0,L|265:147,1,76,0|2,0:0|0:0,0:0:0:0:
419,79,121501,1,0,0:0:0:0:
363,229,121671,1,2,0:0:0:0:
341,137,121842,1,2,0:0:0:0:
428,297,122012,1,2,0:0:0:0:
268,384,122183,6,0,P|274:341|284:311,1,76,0|2,0:0|0:0,0:0:0:0:
341,137,122523,1,0,0:0:0:0:
363,229,122694,1,2,0:0:0:0:
455,209,122864,1,2,0:0:0:0:
434,115,123035,1,0,0:0:0:0:
368,245,123205,1,2,0:0:0:0:
430,98,123376,1,0,0:0:0:0:
374,262,123546,6,0,L|389:200,1,56.9999982604981,0|2,0:0|0:0,0:0:0:0:
262,322,123887,2,0,L|239:269,1,56.9999982604981,2|0,0:0|0:0,0:0:0:0:
153,376,124228,2,0,L|97:371,1,56.9999982604981,2|2,0:0|0:0,0:0:0:0:
268,342,124569,1,2,0:0:0:0:
390,306,124739,1,2,0:0:0:0:
504,268,124910,5,0,0:0:0:0:
509,251,125080,1,2,0:0:0:0:
328,180,125251,1,0,0:0:0:0:
324,163,125421,1,0,0:0:0:0:
499,146,125592,1,2,0:0:0:0:
504,129,125762,1,0,0:0:0:0:
365,60,125933,1,2,0:0:0:0:
361,43,126103,1,0,0:0:0:0:
357,26,126273,5,0,0:0:0:0:
255,104,126444,1,2,0:0:0:0:
214,225,126614,1,0,0:0:0:0:
252,348,126785,1,2,0:0:0:0:
356,297,126955,6,0,L|344:247,1,47.5,2|0,0:0|0:0,0:0:0:0:
188,309,127296,2,0,L|172:355,1,47.5,2|0,0:0|0:0,0:0:0:0:
