osu file format v14

[General]
AudioFilename: Mili - Utopiosphere.mp3
AudioLeadIn: 0
PreviewTime: 98250
Countdown: 0
SampleSet: Soft
StackLeniency: 0.7
Mode: 0
LetterboxInBreaks: 1
WidescreenStoryboard: 0

[Editor]
Bookmarks: 22909
DistanceSpacing: 1.4
BeatDivisor: 4
GridSize: 4
TimelineZoom: 1

[Metadata]
Title:Utopiosphere
TitleUnicode:Utopiosphere
Artist:Mili
ArtistUnicode:Mili
Creator:Azails
Version:Insane
Source:Deemo
Tags:deemo piano rayark vocal
BeatmapID:348699
BeatmapSetID:139602

[Difficulty]
HPDrainRate:6
CircleSize:4
OverallDifficulty:7
ApproachRate:8
SliderMultiplier:2.6
SliderTickRate:1

[Events]
//Background and Video events
0,0,"BG.jpg",0,0
//Break Periods
2,24132,25568
2,48477,55909
//Storyboard Layer 0 (Background)
//Storyboard Layer 1 (Fail)
//Storyboard Layer 2 (Pass)
//Storyboard Layer 3 (Foreground)
//Storyboard Sound Samples

[TimingPoints]
2114,681.818181818182,4,2,1,55,1,0
12341,-100,4,2,1,20,0,0
12682,-100,4,2,1,35,0,0
13023,-100,4,2,1,55,0,0
26318,-117.647058823529,4,2,1,45,0,0
37568,-117.647058823529,4,2,1,35,0,0
41148,-117.647058823529,4,2,1,15,0,0
41318,-117.647058823529,4,2,1,30,0,0
42341,-100,4,2,1,40,0,0
45579,-117.647058823529,4,2,1,35,0,0
46091,-117.647058823529,4,2,1,30,0,0
56659,-100,4,2,1,45,0,0
63818,-200,4,2,1,30,0,0
64500,-100,4,2,1,45,0,0
72341,-100,4,2,1,25,0,0
73023,-125,4,2,1,35,0,0
83932,-100,4,2,1,45,0,0
90068,-86.9565217391304,4,2,1,50,0,0
90750,-80,4,2,1,55,0,0
91432,-66.6666666666667,4,2,1,60,0,0
91943,-100,4,2,1,5,0,0
92114,-100,4,2,1,55,0,0
94841,-100,4,2,1,75,0,1
116659,-100,4,2,1,5,0,0

[Colours]
Combo1 : 50,120,255
Combo2 : 255,255,255
Combo3 : 50,255,253
Combo4 : 50,185,255

[HitObjects]
120,144,12341,6,0,L|75:109,7,32.5
120,144,13023,6,0,P|187:132|228:216,1,130,4|0,0:0|0:0,0:0:0:0:
280,248,13534,1,8,0:0:0:0:
196,280,13704,2,0,P|205:310|209:343,1,65,0|0,0:0|0:0,0:0:0:0:
100,304,14045,2,0,P|90:273|86:240,1,65,0|8,0:0|0:0,0:0:0:0:
204,148,14386,2,0,P|198:102|102:68,1,130,0|0,0:0|0:0,0:0:0:0:
56,136,14898,2,0,P|88:137|120:144,1,65,8|0,0:0|0:0,0:0:0:0:
196,244,15239,1,0,0:0:0:0:
196,244,15409,2,0,P|228:242|260:235,1,65,0|0,0:0|0:0,0:0:0:0:
360,288,15750,6,0,P|356:220|376:160,1,130,4|0,0:0|0:0,0:0:0:0:
484,96,16261,2,0,P|488:164|468:224,1,130,8|0,0:0|0:0,0:0:0:0:
389,345,16773,2,0,P|376:316|360:288,1,65,0|8,0:0|0:0,0:0:0:0:
368,156,17114,2,0,P|304:164|236:184,1,130,2|0,0:0|0:0,0:0:0:0:
128,244,17625,1,8,0:0:0:0:
136,116,17795,2,0,P|52:100|40:96,1,65,0|8,0:0|0:0,0:0:0:0:
204,40,18136,1,0,0:0:0:0:
296,52,18307,1,8,0:0:0:0:
368,108,18477,6,0,B|396:124|432:108|432:108|416:224,1,130,4|0,0:0|0:0,0:0:0:0:
472,288,18989,2,0,P|448:296|409:303,1,65,8|0,0:0|0:0,0:0:0:0:
320,320,19329,1,0,0:0:0:0:
320,228,19500,2,0,P|289:218|257:212,1,65,0|8,0:0|0:0,0:0:0:0:
164,112,19841,2,0,P|142:181|159:282,1,130,2|0,0:0|0:0,0:0:0:0:
28,296,20352,2,0,P|53:236|57:172,1,130,2|8,0:0|0:0,0:0:0:0:
20,52,20864,2,0,P|80:68|100:80,1,65,0|8,0:0|0:0,0:0:0:0:
164,112,21204,6,0,B|236:132|272:68|272:68|312:72|344:104,1,195,4|8,0:0|0:0,0:0:0:0:
424,48,21886,1,2,0:0:0:0:
448,147,22057,2,0,P|455:186|455:215,2,65,8|0|8,0:0|0:0|0:0,0:0:0:0:
366,227,22568,2,0,P|361:259|360:292,1,65,2|0,0:0|0:0,0:0:0:0:
260,288,22909,2,0,P|232:304|200:312,1,65,2|0,0:0|0:0,0:0:0:0:
72,276,23250,1,8,0:0:0:0:
168,184,23420,1,0,0:0:0:0:
44,136,23591,2,0,P|44:100|48:68,1,65,0|0,0:0|0:0,0:0:0:0:
160,52,23932,1,0,0:0:0:0:
368,44,26318,5,0,0:0:0:0:
412,120,26489,1,0,0:0:0:0:
348,180,26659,2,0,P|344:200|348:268,2,55.2500010538101,8|2|0,0:0|0:0|0:0,0:0:0:0:
212,320,27341,2,0,P|136:316|108:296,2,110.50000210762,0|0|8,0:0|0:0|0:0,0:0:0:0:
180,232,28193,1,2,0:0:0:0:
104,188,28364,2,0,B|104:152|112:108,1,55.2500010538101
204,76,28704,2,0,B|204:112|196:156,2,55.2500010538101
144,12,29216,1,0,0:0:0:0:
56,116,29386,2,0,P|83:112|118:100,1,55.2500010538101,8|2,0:0|0:0,0:0:0:0:
180,232,29727,6,0,P|200:272|240:304,1,55.2500010538101
288,204,30068,6,0,P|296:177|311:154,1,55.2500010538101
443,214,30409,6,0,P|416:219|392:232,1,55.2500010538101
344,308,30750,5,0,0:0:0:0:
212,128,31091,5,0,0:0:0:0:
360,164,31261,1,0,0:0:0:0:
252,272,31432,1,0,0:0:0:0:
176,40,31773,5,0,0:0:0:0:
122,109,31944,1,0,0:0:0:0:
37,80,32114,2,0,P|32:148|36:164,2,55.2500010538101,4|8|0,0:0|0:0|0:0,0:0:0:0:
144,220,32795,2,0,P|197:214|242:245,1,110.50000210762,2|0,0:0|0:0,0:0:0:0:
296,320,33307,1,8,0:0:0:0:
308,172,33477,2,0,P|352:141|406:146,1,110.50000210762,0|8,0:0|0:0,0:0:0:0:
192,120,34159,2,0,P|138:132|83:137,1,110.50000210762
36,56,34670,1,8,0:0:0:0:
8,200,34841,2,0,P|28:208|64:232,1,55.2500010538101,4|0,0:0|0:0,0:0:0:0:
56,316,35182,5,0,0:0:0:0:
136,276,35352,1,0,0:0:0:0:
172,360,35523,2,0,L|268:352,1,55.2500010538101,8|0,0:0|0:0,0:0:0:0:
396,224,35864,1,0,0:0:0:0:
316,184,36034,1,0,0:0:0:0:
280,268,36205,2,0,L|184:260,1,55.2500010538101,8|0,0:0|0:0,0:0:0:0:
180,72,36545,5,0,0:0:0:0:
96,100,36715,1,0,0:0:0:0:
140,180,36886,2,0,L|132:276,1,55.2500010538101,8|0,0:0|0:0,0:0:0:0:
204,320,37227,1,0,0:0:0:0:
280,268,37398,1,0,0:0:0:0:
420,124,37568,6,0,P|372:96|304:100,1,110.50000210762,4|2,0:0|0:0,0:0:0:0:
318,95,38591,1,8,0:0:0:0:
240,132,38761,1,8,0:0:0:0:
284,216,38932,2,0,P|292:264|288:352,1,110.50000210762,4|2,0:0|0:0,0:0:0:0:
72,200,40295,5,0,0:0:0:0:
40,96,40636,2,0,B|80:104|120:68|120:68|168:80|196:160,1,165.75000316143,2|0,0:0|0:0,0:0:0:0:
204,208,41318,2,0,P|196:240|172:288,1,55.2500010538101
320,220,41659,2,0,P|332:268|320:356,1,110.50000210762,2|8,0:0|0:0,0:0:0:0:
488,196,42341,6,0,P|464:144|458:63,2,130,8|8|4,0:0|0:0|0:0,0:0:0:0:
268,148,43364,1,0,0:0:0:0:
268,148,43875,5,8,0:0:0:0:
200,68,44045,1,0,0:0:0:0:
104,112,44216,1,0,0:0:0:0:
112,216,44386,2,0,P|88:240|62:258,1,65,4|8,0:0|0:0,0:0:0:0:
136,332,44727,1,0,0:0:0:0:
484,84,45579,5,0,0:0:0:0:
408,128,45750,2,0,P|411:159|417:184,1,55.2500010538101,4|8,0:0|0:0,0:0:0:0:
384,304,46091,2,0,B|360:296|336:268|336:268|288:328|224:328|224:328|184:280|104:288,1,276.250005269051,2|0,0:0|0:0,0:0:0:0:
44,240,47114,2,0,B|41:199|41:199|25:179|25:179|21:119,1,110.50000210762,8|2,0:0|0:0,0:0:0:0:
320,260,56659,6,0,B|368:268|400:236|400:236|488:288,1,130,4|0,0:0|0:0,0:0:0:0:
308,128,57341,2,0,P|296:92|280:32,1,65,8|2,0:0|0:0,0:0:0:0:
208,112,57682,2,0,P|140:112|112:184,1,130
236,292,58364,2,0,L|228:364,1,65,8|2,0:0|0:0,0:0:0:0:
316,332,58704,2,0,B|370:344|405:299|405:299|434:318|449:358,1,130,4|0,0:0|0:0,0:0:0:0:
492,148,59386,1,8,0:0:0:0:
400,148,59557,1,8,0:0:0:0:
356,68,59727,2,0,P|284:68|204:80,2,130,2|0|0,0:0|0:0|0:0,0:0:0:0:
272,228,60750,6,0,B|272:272|228:288|228:288|236:352,1,130,4|0,0:0|0:0,0:0:0:0:
60,292,61432,1,2,0:0:0:0:
208,184,61773,2,0,P|268:152|344:200,1,130,8|0,0:0|0:0,0:0:0:0:
456,292,62454,1,2,0:0:0:0:
484,112,62795,2,0,B|436:120|404:76|404:76|376:76|332:96,1,130,8|0,0:0|0:0,0:0:0:0:
236,208,63477,1,8,0:0:0:0:
220,296,63648,1,0,0:0:0:0:
148,228,63818,6,0,B|108:268|48:240|48:240|64:288,1,130,2|0,0:0|0:0,0:0:0:0:
80,88,64841,6,0,P|80:64|84:16,2,65,4|8|0,0:0|0:0|0:0,0:0:0:0:
264,80,65523,2,0,P|264:104|260:152,2,65,2|8|0,0:0|0:0|0:0,0:0:0:0:
148,228,66204,1,4,0:0:0:0:
328,288,66545,1,8,0:0:0:0:
436,140,66886,2,0,P|441:116|447:76,2,65,2|8|0,0:0|0:0|0:0,0:0:0:0:
272,216,67568,1,2,0:0:0:0:
328,288,67739,1,8,0:0:0:0:
256,344,67909,2,0,P|224:350|191:354,1,65,0|8,0:0|0:0,0:0:0:0:
100,344,68250,1,2,0:0:0:0:
128,256,68420,2,0,P|160:260|192:266,1,65,8|0,0:0|0:0,0:0:0:0:
348,172,68932,6,0,P|366:104|360:40,1,130,4|0,0:0|0:0,0:0:0:0:
192,116,69614,2,0,P|172:180|177:235,1,65,2|8,0:0|0:0,0:0:0:0:
204,92,69954,2,0,P|148:120|72:80,2,130,0|4|0,0:0|0:0|0:0,0:0:0:0:
376,28,70977,2,0,B|384:72|436:80|436:80|412:152,1,130,2|0,0:0|0:0,0:0:0:0:
352,292,71659,1,10,0:0:0:0:
328,164,71829,1,8,0:0:0:0:
204,208,72000,2,0,P|144:200|72:192,1,130,2|0,0:0|0:0,0:0:0:0:
484,104,73023,6,0,B|456:76|456:76|416:136|360:136|360:136|336:104|288:84,1,208,0|0,0:0|0:0,0:0:0:0:
372,260,74045,2,0,L|380:344,1,52,0|8,0:0|0:0,0:0:0:0:
296,332,74386,2,0,P|224:344|112:292,2,156,2|0|0,0:0|0:0|0:0,0:0:0:0:
240,164,75750,2,0,P|316:152|389:176,2,156,4|0|0,0:0|0:0|0:0,0:0:0:0:
112,40,77114,2,0,B|116:124|44:148|44:148|96:236,1,208,8|0,0:0|0:0,0:0:0:0:
248,256,78136,1,0,0:0:0:0:
320,92,78477,2,0,P|416:74|474:154,1,208,4|0,0:0|0:0,0:0:0:0:
344,272,79500,2,0,L|312:360,1,52,0|8,0:0|0:0,0:0:0:0:
248,256,79841,2,0,P|176:272|124:184,2,156,2|0|0,0:0|0:0|0:0,0:0:0:0:
56,140,81204,6,0,P|40:200|80:320,1,156,8|0,0:0|0:0,0:0:0:0:
200,200,81886,2,0,P|216:124|196:49,1,156
304,88,82568,2,0,P|332:96|380:116,1,52
428,176,82909,2,0,P|453:168|477:160,1,52,8|8,0:0|0:0,0:0:0:0:
448,60,83250,1,2,0:0:0:0:
353,103,83420,1,0,0:0:0:0:
336,208,83591,1,0,0:0:0:0:
408,284,83761,1,0,0:0:0:0:
264,328,83932,6,0,P|144:340|64:200,1,260,4|8,0:0|0:0,0:0:0:0:
196,136,84954,2,0,P|192:168|192:200,1,65
124,96,85295,2,0,P|172:56|240:68,1,130,0|0,0:0|0:0,0:0:0:0:
448,152,85977,2,0,P|399:192|336:183,1,130
372,108,86489,1,0,0:0:0:0:
260,152,86659,2,0,B|240:200|272:236|272:236|256:272|256:272|272:364,2,195,4|0|0,0:0|0:0|0:0,0:0:0:0:
116,244,88023,2,0,P|84:240|32:228,1,65,0|8,0:0|0:0,0:0:0:0:
16,128,88364,2,0,P|48:132|100:144,1,65,0|2,0:0|0:0,0:0:0:0:
124,48,88704,2,0,P|196:96|316:48,1,195,8|0,0:0|0:0,0:0:0:0:
452,212,89386,6,0,P|376:164|256:216,1,195,4|0,0:0|0:0,0:0:0:0:
352,336,90068,6,0,P|245:360|157:296,1,224.250004277229,8|0,0:0|0:0,0:0:0:0:
360,240,90750,6,0,B|364:208|356:188|356:188|380:152|380:152|320:96|360:0,1,243.75,4|0,0:0|0:0,0:0:0:0:
256,132,91432,6,0,B|160:144|112:61|112:61|30:93|24:187,1,292.50001115799,8|0,0:0|0:0,0:0:0:0:
256,192,92114,12,4,94159,0:0:0:0:
68,64,94841,6,0,P|124:48|200:80,1,130,4|0,0:0|0:0,0:0:0:0:
208,160,95352,1,8,0:0:0:0:
300,176,95523,2,0,B|356:180|388:140|388:140|428:196,1,130,2|0,0:0|0:0,0:0:0:0:
384,268,96034,1,8,0:0:0:0:
288,304,96204,2,0,P|248:300|152:272,1,130,4|0,0:0|0:0,0:0:0:0:
72,292,96716,2,0,P|68:264|65:227,1,65,8|2,0:0|0:0,0:0:0:0:
180,160,97057,1,8,0:0:0:0:
56,116,97227,1,0,0:0:0:0:
170,48,97398,1,8,0:0:0:0:
256,76,97568,6,0,B|312:92|356:56|356:56|348:104,1,130,4|0,0:0|0:0,0:0:0:0:
400,160,98079,1,8,0:0:0:0:
484,128,98250,2,0,P|495:158|509:204,1,65,2|8,0:0|0:0,0:0:0:0:
476,276,98591,2,0,P|428:308|344:276,1,130,0|2,0:0|0:0,0:0:0:0:
280,336,99102,2,0,P|261:337|216:344,1,65,8|0,0:0|0:0,0:0:0:0:
108,364,99443,2,0,B|96:336|96:336|112:264,1,65,8|2,0:0|0:0,0:0:0:0:
200,252,99784,1,8,0:0:0:0:
124,172,99954,1,0,0:0:0:0:
224,128,100125,1,8,0:0:0:0:
180,28,100295,6,0,P|268:32|324:80,1,130,4|0,0:0|0:0,0:0:0:0:
332,140,100807,1,8,0:0:0:0:
422,131,100977,2,0,P|408:192|351:227,1,130,2|0,0:0|0:0,0:0:0:0:
224,128,101489,1,8,0:0:0:0:
224,220,101659,2,0,B|184:216|160:192|160:192|128:188|64:236,1,130,2|0,0:0|0:0,0:0:0:0:
32,264,102170,1,8,0:0:0:0:
68,360,102341,1,2,0:0:0:0:
172,368,102511,2,0,L|181:293,1,65,8|0,0:0|0:0,0:0:0:0:
224,220,102852,1,0,0:0:0:0:
280,312,103023,6,0,P|364:320|408:280,1,130,4|0,0:0|0:0,0:0:0:0:
329,234,103534,1,8,0:0:0:0:
476,344,103704,2,0,P|488:284|452:184,1,130,0|0,0:0|0:0,0:0:0:0:
384,128,104216,1,8,0:0:0:0:
264,88,104386,2,0,P|260:128|264:180,1,65,2|0,0:0|0:0,0:0:0:0:
149,245,104727,2,0,P|147:206|141:158,1,65,2|0,0:0|0:0,0:0:0:0:
129,90,105068,1,10,0:0:0:0:
36,139,105239,1,0,0:0:0:0:
20,262,105409,1,0,0:0:0:0:
124,369,105580,1,0,0:0:0:0:
212,328,105750,6,0,P|284:332|340:264,1,130,4|0,0:0|0:0,0:0:0:0:
252,244,106261,1,8,0:0:0:0:
330,197,106432,2,0,B|379:187|413:231|413:231|434:208|442:178,1,130,2|0,0:0|0:0,0:0:0:0:
455,112,106943,1,8,0:0:0:0:
389,48,107114,2,0,P|343:36|227:41,1,130,2|0,0:0|0:0,0:0:0:0:
182,80,107625,2,0,P|152:88|118:88,1,65,8|2,0:0|0:0,0:0:0:0:
37,46,107966,1,8,0:0:0:0:
4,151,108136,1,0,0:0:0:0:
103,198,108307,1,8,0:0:0:0:
147,297,108477,6,0,B|182:291|202:257|202:257|244:249|310:278,1,130,4|0,0:0|0:0,0:0:0:0:
370,281,108989,1,8,0:0:0:0:
447,203,109159,1,2,0:0:0:0:
418,96,109329,1,8,0:0:0:0:
307,90,109500,2,0,P|302:57|302:25,1,65,4|8,0:0|0:0,0:0:0:0:
195,56,109841,2,0,P|162:53|130:57,1,65,0|8,0:0|0:0,0:0:0:0:
38,152,110182,2,0,P|70:156|102:153,1,65
242,223,110523,2,0,P|217:217|147:216,1,65,2|8,0:0|0:0,0:0:0:0:
87,249,110864,1,0,0:0:0:0:
102,153,111034,1,8,0:0:0:0:
199,297,111204,6,0,L|203:381,2,65,4|8|0,0:0|0:0|0:0,0:0:0:0:
245,217,111716,1,8,0:0:0:0:
329,249,111886,2,0,P|365:245|413:221,1,65,2|8,0:0|0:0,0:0:0:0:
416,120,112227,1,0,0:0:0:0:
488,176,112398,1,8,0:0:0:0:
472,264,112568,2,0,L|432:356,1,65,2|0,0:0|0:0,0:0:0:0:
342,167,112909,2,0,P|332:135|326:103,1,65,2|0,0:0|0:0,0:0:0:0:
229,153,113250,2,0,B|164:168|116:116|116:116|76:140|72:184,1,195,4|0,0:0|0:0,0:0:0:0:
256,192,113932,12,0,116659,0:0:0:0:
