osu file format v13

[General]
AudioFilename: Nine Point Eight.mp3
AudioLeadIn: 0
PreviewTime: 51209
Countdown: 0
SampleSet: Normal
StackLeniency: 0.7
Mode: 1
LetterboxInBreaks: 0
WidescreenStoryboard: 0

[Editor]
DistanceSpacing: 1.5
BeatDivisor: 4
GridSize: 8
TimelineZoom: 1.1

[Metadata]
Title:Nine Point Eight
TitleUnicode:Nine Point Eight
Artist:Mili
ArtistUnicode:Mili
Creator:ReySHeL
Version:Muzukashii
Source:Deemo
Tags:mag mell rayark projectmili
BeatmapID:470277
BeatmapSetID:198268

[Difficulty]
HPDrainRate:5
CircleSize:5
OverallDifficulty:5
ApproachRate:5
SliderMultiplier:1.4
SliderTickRate:1

[Events]
//Background and Video events
0,0,"BG.jpg",0,118
//Break Periods
//Storyboard Layer 0 (Background)
//Storyboard Layer 1 (Fail)
//Storyboard Layer 2 (Pass)
//Storyboard Layer 3 (Foreground)
//Storyboard Sound Samples
//Background Colour Transformations
3,100,163,162,255

[TimingPoints]
1453,365.853658536585,4,1,0,40,1,0
13159,-100,4,1,0,60,0,0
51209,-100,4,1,0,60,0,1
57062,-100,4,1,0,60,0,0
62916,-100,4,1,0,60,0,1
74440,-100,4,1,0,40,0,1
74623,-100,4,1,0,40,0,0
86148,-100,4,1,0,60,0,0
86513,-100,4,1,0,40,0,0
96757,-100,4,1,0,50,0,0
97398,-100,4,1,0,60,0,0
98038,-100,4,1,0,60,0,1
108831,-100,4,1,0,60,0,0
111209,-100,4,1,0,60,0,1
117062,-100,4,1,0,60,0,0
122916,-100,4,1,0,60,0,1
134623,-100,4,1,0,40,0,0

[Colours]
Combo1 : 255,255,255
Combo2 : 0,0,0

[HitObjects]
256,192,1453,5,0,0:0:0:0:
256,192,2001,5,8,0:0:0:0:
256,192,2550,5,0,0:0:0:0:
256,192,2916,1,0,0:0:0:0:
256,192,3465,5,8,0:0:0:0:
256,192,3831,5,0,0:0:0:0:
256,192,4013,5,8,0:0:0:0:
256,192,4379,1,8,0:0:0:0:
256,192,4928,1,8,0:0:0:0:
256,192,5477,5,0,0:0:0:0:
256,192,5843,5,8,0:0:0:0:
256,192,6392,1,8,0:0:0:0:
256,192,6757,5,0,0:0:0:0:
256,192,6940,5,8,0:0:0:0:
256,192,7306,5,0,0:0:0:0:
256,192,7855,5,8,0:0:0:0:
256,192,8404,5,0,0:0:0:0:
256,192,8770,1,0,0:0:0:0:
256,192,9318,5,8,0:0:0:0:
256,192,9684,5,0,0:0:0:0:
256,192,9867,5,8,0:0:0:0:
256,192,10233,1,8,0:0:0:0:
256,192,10782,1,8,0:0:0:0:
256,192,11331,5,0,0:0:0:0:
256,192,11696,5,8,0:0:0:0:
256,192,12062,5,0,0:0:0:0:
256,192,12245,5,8,0:0:0:0:
256,192,13160,5,4,0:0:0:0:
256,192,13526,5,8,0:0:0:0:
256,192,14074,5,0,0:0:0:0:
256,192,14257,5,8,0:0:0:0:
256,192,14623,5,0,0:0:0:0:
256,192,14989,5,8,0:0:0:0:
256,192,15172,5,0,0:0:0:0:
256,192,15538,1,0,0:0:0:0:
256,192,15721,5,8,0:0:0:0:
256,192,15904,5,0,0:0:0:0:
256,192,16087,1,4,0:0:0:0:
256,192,16452,5,8,0:0:0:0:
256,192,17001,5,0,0:0:0:0:
256,192,17184,5,8,0:0:0:0:
256,192,17550,5,0,0:0:0:0:
256,192,17916,5,8,0:0:0:0:
256,192,18099,5,0,0:0:0:0:
256,192,18465,1,0,0:0:0:0:
256,192,18648,5,8,0:0:0:0:
256,192,18831,1,8,0:0:0:0:
256,192,19013,5,4,0:0:0:0:
256,192,19379,5,8,0:0:0:0:
256,192,19928,5,0,0:0:0:0:
256,192,20111,5,8,0:0:0:0:
256,192,20477,5,0,0:0:0:0:
256,192,20843,5,8,0:0:0:0:
256,192,21026,5,0,0:0:0:0:
256,192,21392,1,0,0:0:0:0:
256,192,21574,5,8,0:0:0:0:
256,192,21757,5,0,0:0:0:0:
256,192,21940,1,4,0:0:0:0:
256,192,22306,5,8,0:0:0:0:
256,192,22855,5,0,0:0:0:0:
256,192,23038,5,8,0:0:0:0:
256,192,23404,5,0,0:0:0:0:
256,192,23770,5,8,0:0:0:0:
256,192,23952,5,0,0:0:0:0:
256,192,24318,1,0,0:0:0:0:
256,192,24501,5,12,0:0:0:0:
256,192,24867,5,4,0:0:0:0:
256,192,25233,5,8,0:0:0:0:
256,192,25416,5,0,0:0:0:0:
256,192,25782,1,0,0:0:0:0:
256,192,26148,5,8,0:0:0:0:
256,192,26331,5,0,0:0:0:0:
256,192,26513,1,0,0:0:0:0:
256,184,26696,5,8,0:0:0:0:
256,192,26879,5,0,0:0:0:0:
256,192,27245,1,0,0:0:0:0:
256,192,27428,5,8,0:0:0:0:
256,192,27611,1,8,0:0:0:0:
256,192,27794,5,0,0:0:0:0:
256,192,28160,5,8,0:0:0:0:
256,192,28343,5,0,0:0:0:0:
256,192,28709,5,8,0:0:0:0:
256,192,28892,5,0,0:0:0:0:
256,192,29074,5,8,0:0:0:0:
256,192,29257,5,0,0:0:0:0:
256,192,29623,5,8,0:0:0:0:
256,192,29989,1,8,0:0:0:0:
256,192,30172,5,0,0:0:0:0:
256,192,30355,5,8,0:0:0:0:
256,192,30538,1,8,0:0:0:0:
256,192,30721,5,4,0:0:0:0:
256,192,31087,5,8,0:0:0:0:
256,192,31270,5,0,0:0:0:0:
256,192,31635,1,0,0:0:0:0:
256,192,31818,5,8,0:0:0:0:
256,192,32184,5,0,0:0:0:0:
256,192,32367,1,0,0:0:0:0:
256,192,32550,5,8,0:0:0:0:
256,192,32733,5,0,0:0:0:0:
256,192,33099,1,0,0:0:0:0:
256,192,33282,5,8,0:0:0:0:
256,192,33465,1,8,0:0:0:0:
256,192,33648,5,0,0:0:0:0:
256,192,34013,5,8,0:0:0:0:
256,192,34196,5,0,0:0:0:0:
256,192,34562,5,8,0:0:0:0:
256,192,34745,5,0,0:0:0:0:
256,192,34928,5,8,0:0:0:0:
256,192,35111,5,0,0:0:0:0:
256,192,35477,5,8,0:0:0:0:
256,192,35843,5,0,0:0:0:0:
256,192,36026,5,8,0:0:0:0:
256,192,36209,1,8,0:0:0:0:
256,192,36300,1,8,0:0:0:0:
256,192,36392,1,8,0:0:0:0:
256,192,36574,5,0,0:0:0:0:
256,192,37123,1,0,0:0:0:0:
256,192,37306,5,8,0:0:0:0:
256,192,37489,5,0,0:0:0:0:
256,192,37672,5,8,0:0:0:0:
256,192,38038,5,0,0:0:0:0:
256,192,38221,5,8,0:0:0:0:
256,192,38587,5,0,0:0:0:0:
256,192,38770,5,8,0:0:0:0:
256,192,39135,1,8,0:0:0:0:
256,192,39501,5,0,0:0:0:0:
256,192,40050,1,0,0:0:0:0:
256,192,40233,5,8,0:0:0:0:
256,192,40416,5,0,0:0:0:0:
256,192,40599,5,8,0:0:0:0:
256,192,40965,5,0,0:0:0:0:
256,192,41148,5,8,0:0:0:0:
256,192,41513,5,0,0:0:0:0:
256,192,41696,5,8,0:0:0:0:
256,192,42062,5,0,0:0:0:0:
256,192,42428,1,0,0:0:0:0:
256,192,42977,1,0,0:0:0:0:
256,192,43160,5,8,0:0:0:0:
256,192,43343,5,0,0:0:0:0:
256,192,43526,5,8,0:0:0:0:
256,192,43892,5,0,0:0:0:0:
256,192,44074,5,8,0:0:0:0:
256,192,44440,5,0,0:0:0:0:
256,192,44623,5,8,0:0:0:0:
256,192,44989,1,8,0:0:0:0:
256,192,45355,5,0,0:0:0:0:
256,192,45721,1,0,0:0:0:0:
256,192,45904,1,0,0:0:0:0:
256,192,46087,5,8,0:0:0:0:
256,192,46452,5,0,0:0:0:0:
256,192,46818,1,0,0:0:0:0:
256,192,47001,5,8,0:0:0:0:
256,192,47184,5,0,0:0:0:0:
256,192,47550,5,8,0:0:0:0:
256,192,47733,5,0,0:0:0:0:
256,192,47916,5,8,0:0:0:0:
256,192,48007,1,8,0:0:0:0:
256,192,48099,1,8,0:0:0:0:
256,192,48282,5,4,0:0:0:0:
256,192,49745,5,8,0:0:0:0:
256,192,50111,1,8,0:0:0:0:
256,192,50477,5,0,0:0:0:0:
256,192,50568,1,0,0:0:0:0:
256,192,50660,1,0,0:0:0:0:
256,192,50843,5,8,0:0:0:0:
256,192,51026,5,0,0:0:0:0:
256,192,51209,1,4,0:0:0:0:
256,192,51574,5,8,0:0:0:0:
256,192,51757,5,0,0:0:0:0:
256,192,52123,1,0,0:0:0:0:
256,192,52306,5,8,0:0:0:0:
256,192,52672,5,0,0:0:0:0:
256,192,52855,1,0,0:0:0:0:
256,192,53038,5,8,0:0:0:0:
256,192,53221,5,0,0:0:0:0:
256,192,53587,1,0,0:0:0:0:
256,192,53770,5,8,0:0:0:0:
256,192,53952,1,8,0:0:0:0:
256,192,54135,5,0,0:0:0:0:
256,192,54318,1,0,0:0:0:0:
256,192,54501,5,8,0:0:0:0:
256,192,54684,5,0,0:0:0:0:
256,192,55050,1,0,0:0:0:0:
256,192,55233,5,8,0:0:0:0:
256,192,55416,1,8,0:0:0:0:
256,192,55599,5,0,0:0:0:0:
256,192,55965,5,8,0:0:0:0:
256,192,56148,5,0,0:0:0:0:
256,192,56331,1,0,0:0:0:0:
256,192,56513,1,0,0:0:0:0:
256,192,56696,5,12,0:0:0:0:
256,192,57062,5,0,0:0:0:0:
256,192,57245,1,0,0:0:0:0:
256,192,57611,1,0,0:0:0:0:
256,192,57794,5,8,0:0:0:0:
256,192,57977,5,0,0:0:0:0:
256,192,58526,1,0,0:0:0:0:
256,192,58709,5,8,0:0:0:0:
256,192,59074,5,0,0:0:0:0:
256,192,59257,5,8,0:0:0:0:
256,192,59623,1,8,0:0:0:0:
256,192,59715,1,8,0:0:0:0:
256,192,59806,1,8,0:0:0:0:
256,192,59989,5,0,0:0:0:0:
256,192,60355,5,8,0:0:0:0:
256,192,60538,5,0,0:0:0:0:
256,192,60904,1,0,0:0:0:0:
256,192,61087,5,8,0:0:0:0:
256,192,61452,5,0,0:0:0:0:
256,192,61635,5,8,0:0:0:0:
256,192,61818,5,0,0:0:0:0:
256,192,62001,1,0,0:0:0:0:
256,192,62184,5,12,0:0:0:0:
256,192,62550,1,12,0:0:0:0:
256,192,62916,5,0,0:0:0:0:
256,192,63099,1,0,0:0:0:0:
256,192,63282,5,8,0:0:0:0:
256,192,63465,5,0,0:0:0:0:
256,192,63831,1,0,0:0:0:0:
256,192,64013,5,8,0:0:0:0:
256,192,64379,5,0,0:0:0:0:
256,192,64562,1,0,0:0:0:0:
256,192,64745,5,8,0:0:0:0:
256,192,64928,5,0,0:0:0:0:
256,192,65294,1,0,0:0:0:0:
256,192,65477,5,8,0:0:0:0:
256,192,65660,1,8,0:0:0:0:
256,192,65843,5,0,0:0:0:0:
256,192,66026,1,0,0:0:0:0:
256,192,66209,5,8,0:0:0:0:
256,192,66392,5,0,0:0:0:0:
256,192,66757,1,0,0:0:0:0:
256,192,66940,5,8,0:0:0:0:
256,192,67123,1,8,0:0:0:0:
256,192,67306,5,0,0:0:0:0:
256,192,67672,5,8,0:0:0:0:
256,192,67855,5,0,0:0:0:0:
256,192,68038,5,8,0:0:0:0:
256,192,68404,1,12,0:0:0:0:
256,192,68770,5,0,0:0:0:0:
256,192,68952,1,0,0:0:0:0:
256,192,69318,1,0,0:0:0:0:
256,192,69501,5,8,0:0:0:0:
256,192,69684,5,0,0:0:0:0:
256,192,70233,1,0,0:0:0:0:
256,192,70416,5,8,0:0:0:0:
256,192,70782,5,0,0:0:0:0:
256,192,70965,5,8,0:0:0:0:
256,192,71331,1,8,0:0:0:0:
256,192,71422,1,8,0:0:0:0:
256,192,71513,1,8,0:0:0:0:
256,192,71696,5,0,0:0:0:0:
256,192,72062,5,8,0:0:0:0:
256,192,72428,5,0,0:0:0:0:
256,192,72611,1,0,0:0:0:0:
256,192,72794,5,8,0:0:0:0:
256,192,73160,5,0,0:0:0:0:
256,192,73343,5,8,0:0:0:0:
256,192,73526,5,0,0:0:0:0:
256,192,73709,1,0,0:0:0:0:
256,192,73892,5,12,0:0:0:0:
256,192,74257,1,12,0:0:0:0:
256,192,74623,5,0,0:0:0:0:
256,192,74806,1,0,0:0:0:0:
256,192,75721,5,8,0:0:0:0:
256,192,76087,5,0,0:0:0:0:
256,192,76270,1,0,0:0:0:0:
256,192,77550,1,0,0:0:0:0:
256,192,77733,1,0,0:0:0:0:
256,192,78648,5,8,0:0:0:0:
256,192,78831,1,8,0:0:0:0:
256,192,79013,5,0,0:0:0:0:
256,192,79196,1,0,0:0:0:0:
256,192,79745,1,0,0:0:0:0:
256,192,79928,1,0,0:0:0:0:
256,192,80477,1,0,0:0:0:0:
256,192,81026,1,0,0:0:0:0:
256,192,81574,5,8,0:0:0:0:
256,192,81940,5,0,0:0:0:0:
256,192,82123,1,0,0:0:0:0:
256,192,83404,1,0,0:0:0:0:
256,192,83587,1,0,0:0:0:0:
256,192,84501,5,8,0:0:0:0:
256,192,84684,1,8,0:0:0:0:
256,192,84867,5,0,0:0:0:0:
256,192,85050,1,0,0:0:0:0:
256,192,85599,1,0,0:0:0:0:
256,192,85782,1,0,0:0:0:0:
256,192,86331,1,4,0:0:0:0:
256,192,86879,5,8,0:0:0:0:
256,192,87428,5,0,0:0:0:0:
256,192,87794,1,0,0:0:0:0:
256,192,88343,5,8,0:0:0:0:
256,192,88709,5,0,0:0:0:0:
256,192,88892,5,8,0:0:0:0:
256,192,89257,5,0,0:0:0:0:
256,192,89806,5,8,0:0:0:0:
256,192,90355,5,0,0:0:0:0:
256,192,90721,1,0,0:0:0:0:
256,192,91270,5,8,0:0:0:0:
256,192,91635,5,0,0:0:0:0:
256,192,91818,5,8,0:0:0:0:
256,192,92001,1,8,0:0:0:0:
256,192,92093,1,8,0:0:0:0:
256,192,92184,1,8,0:0:0:0:
256,192,92550,5,0,0:0:0:0:
256,192,92733,5,8,0:0:0:0:
256,192,93099,5,0,0:0:0:0:
256,192,93282,1,0,0:0:0:0:
256,192,93465,5,8,0:0:0:0:
256,192,93556,1,8,0:0:0:0:
256,192,93648,1,8,0:0:0:0:
256,192,94013,5,0,0:0:0:0:
256,192,94196,5,8,0:0:0:0:
256,192,94562,5,0,0:0:0:0:
256,192,94745,5,8,0:0:0:0:
256,192,94928,1,8,0:0:0:0:
256,192,95020,1,8,0:0:0:0:
256,192,95111,1,8,0:0:0:0:
256,192,95477,5,0,0:0:0:0:
256,192,95660,5,8,0:0:0:0:
256,192,96026,5,0,0:0:0:0:
256,192,96209,1,0,0:0:0:0:
256,192,96392,5,8,0:0:0:0:
256,192,96483,1,8,0:0:0:0:
256,192,96574,1,8,0:0:0:0:
256,192,96940,5,0,0:0:0:0:
256,192,97123,5,8,0:0:0:0:
256,192,97489,5,0,0:0:0:0:
256,192,97672,5,8,0:0:0:0:
256,192,97763,1,8,0:0:0:0:
256,192,97855,1,8,0:0:0:0:
256,192,98038,5,4,0:0:0:0:
256,192,98404,5,8,0:0:0:0:
256,192,98587,1,8,0:0:0:0:
256,192,98770,5,0,0:0:0:0:
256,192,98952,1,0,0:0:0:0:
256,192,99135,5,8,0:0:0:0:
256,192,99318,5,0,0:0:0:0:
256,192,99684,1,0,0:0:0:0:
256,192,99867,5,8,0:0:0:0:
256,192,100233,5,0,0:0:0:0:
256,192,100416,1,0,0:0:0:0:
256,192,100599,5,8,0:0:0:0:
256,192,100782,1,8,0:0:0:0:
256,192,100965,5,0,0:0:0:0:
256,192,101331,5,8,0:0:0:0:
256,192,101513,5,0,0:0:0:0:
256,192,101879,1,0,0:0:0:0:
256,192,102062,5,8,0:0:0:0:
256,192,102245,5,0,0:0:0:0:
256,192,102428,1,0,0:0:0:0:
256,192,102794,5,8,0:0:0:0:
256,192,102977,5,0,0:0:0:0:
256,192,103160,5,8,0:0:0:0:
256,192,103343,5,0,0:0:0:0:
256,192,103526,1,0,0:0:0:0:
256,192,103709,5,8,0:0:0:0:
256,192,103892,5,4,0:0:0:0:
256,192,104257,5,8,0:0:0:0:
256,192,104440,5,0,0:0:0:0:
256,192,104806,1,0,0:0:0:0:
256,192,104989,5,8,0:0:0:0:
256,192,105355,5,0,0:0:0:0:
256,192,105538,1,0,0:0:0:0:
256,192,105721,5,8,0:0:0:0:
256,192,105904,5,0,0:0:0:0:
256,192,106270,1,0,0:0:0:0:
256,192,106452,5,8,0:0:0:0:
256,192,106635,1,8,0:0:0:0:
256,192,106818,5,0,0:0:0:0:
256,192,107001,1,0,0:0:0:0:
256,192,107184,5,8,0:0:0:0:
256,192,107367,5,0,0:0:0:0:
256,192,107733,1,0,0:0:0:0:
256,192,107916,5,8,0:0:0:0:
256,192,108099,5,0,0:0:0:0:
256,192,108282,5,12,0:0:0:0:
256,192,108648,5,0,0:0:0:0:
256,192,108831,5,12,0:0:0:0:
256,192,109745,1,8,0:0:0:0:
256,192,110111,1,8,0:0:0:0:
256,192,110477,5,0,0:0:0:0:
256,192,110568,1,0,0:0:0:0:
256,192,110660,1,0,0:0:0:0:
256,192,110843,5,8,0:0:0:0:
256,192,111026,1,8,0:0:0:0:
256,192,111209,5,4,0:0:0:0:
256,192,111574,5,8,0:0:0:0:
256,192,111757,5,0,0:0:0:0:
256,192,112123,1,0,0:0:0:0:
256,192,112306,5,8,0:0:0:0:
256,192,112489,1,8,0:0:0:0:
256,192,112672,5,0,0:0:0:0:
256,192,112855,1,0,0:0:0:0:
256,192,113038,5,8,0:0:0:0:
256,192,113221,5,0,0:0:0:0:
256,192,113587,1,0,0:0:0:0:
256,192,113770,5,8,0:0:0:0:
256,192,113952,1,8,0:0:0:0:
256,192,114135,5,0,0:0:0:0:
256,192,114318,1,0,0:0:0:0:
256,192,114501,5,8,0:0:0:0:
256,192,114684,1,8,0:0:0:0:
256,192,115050,5,0,0:0:0:0:
256,192,115233,5,8,0:0:0:0:
256,192,115416,5,0,0:0:0:0:
256,192,115599,1,0,0:0:0:0:
256,192,115782,1,0,0:0:0:0:
256,192,115965,5,8,0:0:0:0:
256,192,116331,5,0,0:0:0:0:
256,192,116513,1,0,0:0:0:0:
256,192,116696,5,12,0:0:0:0:
256,192,117062,5,0,0:0:0:0:
256,192,117245,1,0,0:0:0:0:
256,192,117611,1,0,0:0:0:0:
256,192,117794,5,8,0:0:0:0:
256,192,117977,5,0,0:0:0:0:
256,192,118526,1,0,0:0:0:0:
256,192,118709,5,8,0:0:0:0:
256,192,119074,5,0,0:0:0:0:
256,192,119257,5,8,0:0:0:0:
256,192,119623,1,8,0:0:0:0:
256,192,119715,1,8,0:0:0:0:
256,192,119806,1,8,0:0:0:0:
256,192,119989,5,0,0:0:0:0:
256,192,120355,5,8,0:0:0:0:
256,192,120538,5,0,0:0:0:0:
256,192,120904,1,0,0:0:0:0:
256,192,121087,5,8,0:0:0:0:
256,192,121452,5,0,0:0:0:0:
256,192,121635,5,8,0:0:0:0:
256,192,121818,5,0,0:0:0:0:
256,192,122001,1,0,0:0:0:0:
256,192,122184,5,12,0:0:0:0:
256,192,122550,1,12,0:0:0:0:
256,192,122916,5,0,0:0:0:0:
256,192,123099,1,0,0:0:0:0:
256,192,123282,5,8,0:0:0:0:
256,192,123465,5,0,0:0:0:0:
256,192,123831,1,0,0:0:0:0:
256,192,124013,5,8,0:0:0:0:
256,192,124196,1,8,0:0:0:0:
256,192,124379,5,0,0:0:0:0:
256,192,124562,1,0,0:0:0:0:
256,192,124745,5,8,0:0:0:0:
256,192,124928,5,0,0:0:0:0:
256,192,125294,1,0,0:0:0:0:
256,192,125477,5,8,0:0:0:0:
256,192,125660,1,8,0:0:0:0:
256,192,125843,5,0,0:0:0:0:
256,192,126026,1,0,0:0:0:0:
256,192,126209,5,8,0:0:0:0:
256,192,126392,1,8,0:0:0:0:
256,192,126757,5,0,0:0:0:0:
256,192,126940,5,8,0:0:0:0:
256,192,127123,5,0,0:0:0:0:
256,192,127306,1,0,0:0:0:0:
256,192,127672,5,8,0:0:0:0:
256,192,127855,5,0,0:0:0:0:
256,192,128038,1,0,0:0:0:0:
256,192,128221,1,0,0:0:0:0:
256,192,128404,5,12,0:0:0:0:
256,192,128770,5,0,0:0:0:0:
256,192,128952,1,0,0:0:0:0:
256,192,129318,1,0,0:0:0:0:
256,192,129501,5,8,0:0:0:0:
256,192,129684,5,0,0:0:0:0:
256,192,130233,1,0,0:0:0:0:
256,192,130416,5,8,0:0:0:0:
256,192,130782,5,0,0:0:0:0:
256,192,130965,5,8,0:0:0:0:
256,192,131331,1,8,0:0:0:0:
256,192,131422,1,8,0:0:0:0:
256,192,131513,1,8,0:0:0:0:
256,192,131696,5,0,0:0:0:0:
256,192,132062,5,8,0:0:0:0:
256,192,132245,5,0,0:0:0:0:
256,192,132611,1,0,0:0:0:0:
256,192,132794,5,8,0:0:0:0:
256,192,133160,5,0,0:0:0:0:
256,192,133343,5,8,0:0:0:0:
256,192,133526,5,0,0:0:0:0:
256,192,133709,1,0,0:0:0:0:
256,192,133892,5,12,0:0:0:0:
256,192,134257,1,12,0:0:0:0:
256,192,134623,5,0,0:0:0:0:
256,192,134806,1,0,0:0:0:0:
256,192,135721,5,8,0:0:0:0:
256,192,136087,5,0,0:0:0:0:
256,192,136270,1,0,0:0:0:0:
256,192,137550,1,0,0:0:0:0:
256,192,137733,1,0,0:0:0:0:
256,192,138648,5,8,0:0:0:0:
256,192,138831,1,8,0:0:0:0:
256,192,139013,5,0,0:0:0:0:
256,192,139196,1,0,0:0:0:0:
256,192,139745,1,0,0:0:0:0:
256,192,139928,1,0,0:0:0:0:
256,192,140477,1,0,0:0:0:0:
256,192,141026,1,0,0:0:0:0:
256,192,141574,5,8,0:0:0:0:
256,192,141940,5,0,0:0:0:0:
256,192,142123,1,0,0:0:0:0:
256,192,143404,1,0,0:0:0:0:
256,192,143587,1,0,0:0:0:0:
256,192,144501,5,8,0:0:0:0:
256,192,144867,5,0,0:0:0:0:
256,192,145050,1,0,0:0:0:0:
256,192,145599,5,12,0:0:0:0:
