osu file format v13

[General]
AudioFilename: Nine Point Eight.mp3
AudioLeadIn: 0
PreviewTime: 51209
Countdown: 0
SampleSet: Normal
StackLeniency: 0.7
Mode: 1
LetterboxInBreaks: 0
WidescreenStoryboard: 0

[Editor]
DistanceSpacing: 1.5
BeatDivisor: 2
GridSize: 8
TimelineZoom: 0.9

[Metadata]
Title:Nine Point Eight
TitleUnicode:Nine Point Eight
Artist:Mili
ArtistUnicode:Mili
Creator:ReySHeL
Version:Kantan
Source:Deemo
Tags:mag mell rayark projectmili
BeatmapID:470276
BeatmapSetID:198268

[Difficulty]
HPDrainRate:3
CircleSize:5
OverallDifficulty:4
ApproachRate:5
SliderMultiplier:1.2
SliderTickRate:1

[Events]
//Background and Video events
0,0,"BG.jpg",0,118
//Break Periods
//Storyboard Layer 0 (Background)
//Storyboard Layer 1 (Fail)
//Storyboard Layer 2 (Pass)
//Storyboard Layer 3 (Foreground)
//Storyboard Sound Samples
//Background Colour Transformations
3,100,163,162,255

[TimingPoints]
1453,365.853658536585,4,1,0,40,1,0
13159,-100,4,1,0,60,0,0
51209,-100,4,1,0,60,0,1
57062,-100,4,1,0,60,0,0
62916,-100,4,1,0,60,0,1
74440,-100,4,1,0,40,0,1
74623,-100,4,1,0,40,0,0
86148,-100,4,1,0,60,0,0
86513,-100,4,1,0,40,0,0
96757,-100,4,1,0,50,0,0
97398,-100,4,1,0,60,0,0
98038,-100,4,1,0,60,0,1
108831,-100,4,1,0,60,0,0
111209,-100,4,1,0,60,0,1
117062,-100,4,1,0,60,0,0
122916,-100,4,1,0,60,0,1
134623,-100,4,1,0,40,0,0

[Colours]
Combo1 : 255,255,255
Combo2 : 0,0,0

[HitObjects]
256,192,1453,5,0,0:0:0:0:
256,192,2916,1,0,0:0:0:0:
256,192,4013,5,8,0:0:0:0:
256,192,4379,1,8,0:0:0:0:
256,192,5843,1,8,0:0:0:0:
256,192,6940,5,0,0:0:0:0:
256,192,7306,1,0,0:0:0:0:
256,192,8770,1,0,0:0:0:0:
256,192,9867,5,8,0:0:0:0:
256,192,10233,1,8,0:0:0:0:
256,192,11696,1,8,0:0:0:0:
256,192,12245,1,8,0:0:0:0:
256,192,13160,5,4,0:0:0:0:
256,192,14623,1,0,0:0:0:0:
256,192,15721,5,8,0:0:0:0:
256,192,16087,5,4,0:0:0:0:
256,192,17550,1,0,0:0:0:0:
256,192,18648,1,0,0:0:0:0:
256,192,19013,1,4,0:0:0:0:
256,192,20477,1,0,0:0:0:0:
256,192,21574,5,8,0:0:0:0:
256,192,21940,5,4,0:0:0:0:
256,192,23404,1,0,0:0:0:0:
256,192,24501,5,8,0:0:0:0:
256,192,24867,5,4,0:0:0:0:
256,192,26331,5,8,0:0:0:0:
256,192,27794,5,0,0:0:0:0:
256,192,29257,1,0,0:0:0:0:
256,192,30355,5,8,0:0:0:0:
256,192,30721,5,4,0:0:0:0:
256,192,32184,5,8,0:0:0:0:
256,192,33648,5,0,0:0:0:0:
256,192,35111,1,0,0:0:0:0:
256,192,35843,5,8,0:0:0:0:
256,192,36574,5,0,0:0:0:0:
256,192,39501,1,0,0:0:0:0:
256,192,42428,1,0,0:0:0:0:
256,192,44623,5,8,0:0:0:0:
256,192,45355,5,0,0:0:0:0:
256,192,46818,1,0,0:0:0:0:
256,192,47550,5,8,0:0:0:0:
256,192,48282,1,12,0:0:0:0:
256,192,49745,1,8,0:0:0:0:
256,192,50111,1,8,0:0:0:0:
256,192,50843,1,8,0:0:0:0:
256,192,51209,5,4,0:0:0:0:
256,192,51940,5,8,0:0:0:0:
256,192,52306,1,8,0:0:0:0:
256,192,52672,5,0,0:0:0:0:
256,192,53404,5,8,0:0:0:0:
256,192,54135,5,0,0:0:0:0:
256,192,54501,1,0,0:0:0:0:
256,192,54867,1,0,0:0:0:0:
256,192,55599,5,8,0:0:0:0:
256,192,57062,5,0,0:0:0:0:
256,192,57794,5,8,0:0:0:0:
256,192,58892,5,0,0:0:0:0:
256,192,59257,5,8,0:0:0:0:
256,192,59989,5,0,0:0:0:0:
256,192,60721,5,8,0:0:0:0:
256,192,61452,5,0,0:0:0:0:
256,192,62184,5,12,0:0:0:0:
256,192,62550,1,12,0:0:0:0:
256,192,62916,5,4,0:0:0:0:
256,192,63648,5,8,0:0:0:0:
256,192,64013,1,8,0:0:0:0:
256,192,64379,5,0,0:0:0:0:
256,192,65111,5,8,0:0:0:0:
256,192,65843,1,8,0:0:0:0:
256,192,66209,1,8,0:0:0:0:
256,192,66574,1,8,0:0:0:0:
256,192,67306,5,0,0:0:0:0:
256,192,68770,1,0,0:0:0:0:
256,192,69501,5,8,0:0:0:0:
256,192,70599,5,0,0:0:0:0:
256,192,70965,5,8,0:0:0:0:
256,192,71696,5,0,0:0:0:0:
256,192,72428,5,8,0:0:0:0:
256,192,73160,5,0,0:0:0:0:
256,192,73892,5,12,0:0:0:0:
256,192,74623,5,0,0:0:0:0:
256,192,76087,1,0,0:0:0:0:
256,192,77550,5,8,0:0:0:0:
256,192,79013,5,0,0:0:0:0:
256,192,79745,5,8,0:0:0:0:
256,192,80477,5,0,0:0:0:0:
256,192,81940,1,0,0:0:0:0:
256,192,83404,5,8,0:0:0:0:
256,192,84867,5,0,0:0:0:0:
256,192,85599,5,8,0:0:0:0:
256,192,86331,5,4,0:0:0:0:
256,192,87794,1,0,0:0:0:0:
256,192,88892,1,0,0:0:0:0:
256,192,89257,1,0,0:0:0:0:
256,192,90721,1,0,0:0:0:0:
256,192,92184,5,8,0:0:0:0:
256,192,93648,1,8,0:0:0:0:
256,192,95111,1,8,0:0:0:0:
256,192,96574,1,8,0:0:0:0:
256,192,97672,1,8,0:0:0:0:
256,192,98038,5,4,0:0:0:0:
256,192,99135,5,8,0:0:0:0:
256,192,99867,1,8,0:0:0:0:
256,192,100599,1,8,0:0:0:0:
256,192,100965,5,0,0:0:0:0:
256,192,102062,5,8,0:0:0:0:
256,192,102794,1,8,0:0:0:0:
256,192,103160,1,8,0:0:0:0:
256,192,103892,5,4,0:0:0:0:
256,192,105355,1,0,0:0:0:0:
256,192,106087,5,8,0:0:0:0:
256,192,106452,1,8,0:0:0:0:
256,192,106818,5,0,0:0:0:0:
256,192,107550,1,0,0:0:0:0:
256,192,108282,5,12,0:0:0:0:
256,192,108831,1,12,0:0:0:0:
256,192,109745,1,8,0:0:0:0:
256,192,110111,1,8,0:0:0:0:
256,192,110843,1,8,0:0:0:0:
256,192,111209,5,4,0:0:0:0:
256,192,111940,5,0,0:0:0:0:
256,192,112306,5,8,0:0:0:0:
256,192,112672,5,0,0:0:0:0:
256,192,113404,5,8,0:0:0:0:
256,192,114135,5,0,0:0:0:0:
256,192,114501,1,0,0:0:0:0:
256,192,114867,5,8,0:0:0:0:
256,192,115599,5,0,0:0:0:0:
256,192,117062,1,0,0:0:0:0:
256,192,117794,5,8,0:0:0:0:
256,192,118892,5,0,0:0:0:0:
256,192,119257,5,8,0:0:0:0:
256,192,119989,5,0,0:0:0:0:
256,192,120721,5,8,0:0:0:0:
256,192,121452,5,0,0:0:0:0:
256,192,122184,5,12,0:0:0:0:
256,192,122550,1,12,0:0:0:0:
256,192,122916,5,4,0:0:0:0:
256,192,123648,5,8,0:0:0:0:
256,192,124013,1,8,0:0:0:0:
256,192,124379,5,0,0:0:0:0:
256,192,125111,5,8,0:0:0:0:
256,192,125843,1,8,0:0:0:0:
256,192,126209,1,8,0:0:0:0:
256,192,126574,1,8,0:0:0:0:
256,192,127306,5,0,0:0:0:0:
256,192,128770,1,0,0:0:0:0:
256,192,129501,5,8,0:0:0:0:
256,192,130599,5,0,0:0:0:0:
256,192,130965,5,8,0:0:0:0:
256,192,131696,5,0,0:0:0:0:
256,192,132428,5,8,0:0:0:0:
256,192,133160,5,0,0:0:0:0:
256,192,133892,5,12,0:0:0:0:
256,192,134257,1,12,0:0:0:0:
256,192,134623,5,0,0:0:0:0:
256,192,135721,5,8,0:0:0:0:
256,192,136087,5,0,0:0:0:0:
256,192,137550,1,0,0:0:0:0:
256,192,138648,5,8,0:0:0:0:
256,192,139013,5,0,0:0:0:0:
256,192,139745,5,8,0:0:0:0:
256,192,140477,5,0,0:0:0:0:
256,192,141574,5,8,0:0:0:0:
256,192,141940,5,0,0:0:0:0:
256,192,143404,1,0,0:0:0:0:
256,192,144501,5,8,0:0:0:0:
256,192,144867,5,0,0:0:0:0:
256,192,145599,5,12,0:0:0:0:
