osu file format v13

[General]
AudioFilename: 2-18 Fable.mp3
AudioLeadIn: 0
PreviewTime: 54246
Countdown: 0
SampleSet: Soft
StackLeniency: 0.7
Mode: 3
LetterboxInBreaks: 0
EpilepsyWarning: 1
SpecialStyle: 0
WidescreenStoryboard: 1

[Editor]
Bookmarks: 60821
DistanceSpacing: 0.7
BeatDivisor: 4
GridSize: 8
TimelineZoom: 1.3

[Metadata]
Title:Fable
TitleUnicode:Fable
Artist:Mili
ArtistUnicode:Mili
Creator:SanadaYukimura
Version:NM
Source:Deemo
Tags:rayark hamoloid
BeatmapID:510619
BeatmapSetID:217722

[Difficulty]
HPDrainRate:6
CircleSize:4
OverallDifficulty:7
ApproachRate:5
SliderMultiplier:1
SliderTickRate:1

[Events]
//Background and Video events
0,0,"fable.jpg",0,0
//Break Periods
//Storyboard Layer 0 (Background)
//Storyboard Layer 1 (Fail)
//Storyboard Layer 2 (Pass)
//Storyboard Layer 3 (Foreground)
//Storyboard Sound Samples
//Background Colour Transformations
3,100,163,162,255

[TimingPoints]
0,410.958904109589,4,2,1,15,1,0
39452,-100,4,2,1,40,0,0
54246,-100,4,2,1,50,0,1
61232,-100,4,2,1,30,0,1
65753,-100,4,2,1,50,0,1
67397,-100,4,2,1,30,0,0
73767,-100,4,2,1,40,0,0
74383,-100,4,2,2,50,0,0
77260,-100,4,2,1,30,0,0
86917,-100,4,2,1,50,0,0
100273,-100,4,2,1,35,0,0
106849,-100,4,2,2,35,0,0
112191,-100,4,2,1,35,0,0
113424,-100,4,2,0,15,0,0

[HitObjects]
192,192,1643,5,0,0:0:0:0:
64,192,1643,1,0,0:0:0:0:
320,192,1849,1,0,0:0:0:0:
448,192,2054,1,0,0:0:0:0:
192,192,2465,1,0,0:0:0:0:
64,192,2465,1,0,0:0:0:0:
448,192,2876,1,0,0:0:0:0:
320,192,3082,1,0,0:0:0:0:
64,192,3493,1,0,0:0:0:0:
320,192,3904,1,0,0:0:0:0:
64,192,4315,1,0,0:0:0:0:
448,192,4726,1,0,0:0:0:0:
192,192,4931,1,0,0:0:0:0:
64,192,4931,1,0,0:0:0:0:
320,192,5136,1,0,0:0:0:0:
448,192,5342,1,0,0:0:0:0:
64,192,5753,1,0,0:0:0:0:
320,192,5753,1,0,0:0:0:0:
320,192,6164,1,0,0:0:0:0:
192,192,6369,1,0,0:0:0:0:
448,192,6780,1,0,0:0:0:0:
192,192,7191,1,0,0:0:0:0:
448,192,7602,1,0,0:0:0:0:
192,192,8013,1,0,0:0:0:0:
448,192,8219,1,0,0:0:0:0:
64,192,8219,1,0,0:0:0:0:
320,192,8424,1,0,0:0:0:0:
192,192,8630,1,0,0:0:0:0:
64,192,9041,1,0,0:0:0:0:
320,192,9041,1,0,0:0:0:0:
192,192,9452,1,0,0:0:0:0:
320,192,9657,1,0,0:0:0:0:
64,192,10068,1,0,0:0:0:0:
448,192,10479,1,0,0:0:0:0:
64,192,10890,1,0,0:0:0:0:
448,192,11301,1,0,0:0:0:0:
64,192,11506,1,0,0:0:0:0:
320,192,11506,1,0,0:0:0:0:
192,192,11712,1,0,0:0:0:0:
320,192,11917,1,0,0:0:0:0:
320,192,12328,1,0,0:0:0:0:
448,192,12328,1,0,0:0:0:0:
320,192,12739,1,0,0:0:0:0:
192,192,12945,1,0,0:0:0:0:
64,192,13356,1,0,0:0:0:0:
320,192,13767,1,0,0:0:0:0:
64,192,14178,1,0,0:0:0:0:
320,192,14589,1,0,0:0:0:0:
64,192,14794,1,0,0:0:0:0:
448,192,14794,1,0,0:0:0:0:
192,192,14999,1,0,0:0:0:0:
320,192,15205,1,0,0:0:0:0:
64,192,15616,1,0,0:0:0:0:
192,192,15616,1,0,0:0:0:0:
448,192,16027,1,0,0:0:0:0:
320,192,16232,1,0,0:0:0:0:
64,192,16643,1,0,0:0:0:0:
448,192,17054,1,0,0:0:0:0:
192,192,17465,1,0,0:0:0:0:
448,192,17876,1,0,0:0:0:0:
192,192,18082,1,0,0:0:0:0:
64,192,18082,1,0,0:0:0:0:
320,192,18287,1,0,0:0:0:0:
448,192,18493,1,0,0:0:0:0:
64,192,18904,1,0,0:0:0:0:
320,192,18904,1,0,0:0:0:0:
64,192,19315,1,0,0:0:0:0:
192,192,19520,1,0,0:0:0:0:
448,192,19931,1,0,0:0:0:0:
192,192,20342,1,0,0:0:0:0:
448,192,20753,1,0,0:0:0:0:
192,192,21164,1,0,0:0:0:0:
320,192,21369,1,0,0:0:0:0:
448,192,21369,1,0,0:0:0:0:
192,192,21575,1,0,0:0:0:0:
64,192,21780,1,0,0:0:0:0:
320,192,22191,1,0,0:0:0:0:
448,192,22191,1,0,0:0:0:0:
192,192,22602,1,0,0:0:0:0:
320,192,22808,1,0,0:0:0:0:
64,192,23219,1,0,0:0:0:0:
448,192,23630,1,0,0:0:0:0:
64,192,24041,1,0,0:0:0:0:
320,192,24452,1,0,0:0:0:0:
64,192,24657,1,0,0:0:0:0:
448,192,24657,1,0,0:0:0:0:
192,192,24863,1,0,0:0:0:0:
320,192,25068,1,0,0:0:0:0:
448,192,25479,1,0,0:0:0:0:
64,192,25479,1,0,0:0:0:0:
192,192,25890,1,0,0:0:0:0:
320,192,26095,1,0,0:0:0:0:
64,192,26506,1,0,0:0:0:0:
320,192,26917,1,0,0:0:0:0:
64,192,27328,1,0,0:0:0:0:
192,192,27534,1,0,0:0:0:0:
320,192,27739,1,0,0:0:0:0:
192,192,27945,1,0,0:0:0:0:
448,192,27945,1,0,0:0:0:0:
320,192,28356,1,0,0:0:0:0:
448,192,28767,1,0,0:0:0:0:
64,192,29589,1,0,0:0:0:0:
448,192,29999,1,0,0:0:0:0:
64,192,30205,1,0,0:0:0:0:
192,192,30308,1,0,0:0:0:0:
320,192,30410,1,0,0:0:0:0:
320,192,30821,1,0,0:0:0:0:
448,192,31232,1,0,0:0:0:0:
192,192,31232,1,0,0:0:0:0:
64,192,31643,1,0,0:0:0:0:
320,192,32054,1,0,0:0:0:0:
64,192,32465,1,0,0:0:0:0:
448,192,32465,1,0,0:0:0:0:
448,192,32876,1,0,0:0:0:0:
192,192,33287,1,0,0:0:0:0:
64,192,33698,1,0,0:0:0:0:
448,192,33904,1,0,0:0:0:0:
320,192,34109,1,0,0:0:0:0:
192,192,34315,1,0,0:0:0:0:
64,192,34520,1,0,0:0:0:0:
448,192,34520,1,0,0:0:0:0:
320,192,34931,1,0,0:0:0:0:
192,192,35342,1,0,0:0:0:0:
64,192,35753,1,0,0:0:0:0:
192,192,36164,1,0,0:0:0:0:
320,192,36164,1,0,0:0:0:0:
64,192,36575,1,0,0:0:0:0:
448,192,36780,1,0,0:0:0:0:
320,192,36883,1,0,0:0:0:0:
192,192,36986,1,0,0:0:0:0:
320,192,37397,1,0,0:0:0:0:
448,192,37808,1,0,0:0:0:0:
64,192,37808,1,0,0:0:0:0:
192,192,38219,1,0,0:0:0:0:
320,192,38424,1,0,0:0:0:0:
448,192,38630,1,0,0:0:0:0:
192,192,38835,1,0,0:0:0:0:
64,192,39041,1,0,0:0:0:0:
448,192,39246,1,0,0:0:0:0:
320,192,39452,128,0,40684:0:0:0:0:
192,192,39452,1,8,0:0:0:0:
64,192,39863,1,0,0:0:0:0:
448,192,40273,1,0,0:0:0:0:
192,192,40684,1,8,0:0:0:0:
64,192,41095,1,6,0:0:0:0:
448,192,41095,1,0,0:0:0:0:
192,192,41712,1,0,0:0:0:0:
320,192,41917,1,0,0:0:0:0:
448,192,42534,1,0,0:0:0:0:
320,192,42534,1,6,0:0:0:0:
64,192,42739,1,0,0:0:0:0:
192,192,42739,1,0,0:0:0:0:
320,192,43561,1,8,0:0:0:0:
64,192,44178,1,0,0:0:0:0:
448,192,44383,1,0,0:0:0:0:
320,192,44383,1,6,0:0:0:0:
192,192,45000,1,2,0:0:0:0:
320,192,45205,1,2,0:0:0:0:
192,192,45616,1,6,0:0:0:0:
448,192,45616,1,0,0:0:0:0:
320,192,46027,1,0,0:0:0:0:
192,192,46438,1,0,0:0:0:0:
320,192,46849,1,0,0:0:0:0:
64,192,47671,1,6,0:0:0:0:
448,192,47671,1,0,0:0:0:0:
192,192,48082,1,2,0:0:0:0:
448,192,48493,1,2,0:0:0:0:
320,192,48698,1,0,0:0:0:0:
192,192,48904,1,2,0:0:0:0:
320,192,49315,1,2,0:0:0:0:
448,192,49520,1,0,0:0:0:0:
320,192,49726,1,2,0:0:0:0:
64,192,50136,1,2,0:0:0:0:
192,192,50342,1,0,0:0:0:0:
320,192,50547,1,2,0:0:0:0:
448,192,50958,1,0,0:0:0:0:
64,192,50958,1,6,0:0:0:0:
192,192,51164,1,0,0:0:0:0:
320,192,51369,1,2,0:0:0:0:
192,192,51780,1,2,0:0:0:0:
320,192,52054,1,2,0:0:0:0:
448,192,52328,1,2,0:0:0:0:
192,192,52602,1,6,0:0:0:0:
64,192,52602,1,0,0:0:0:0:
448,192,53013,1,2,0:0:0:0:
192,192,53424,1,2,0:0:0:0:
320,192,53630,1,0,0:0:0:0:
192,192,53835,1,2,0:0:0:0:
64,192,54041,1,0,0:0:0:0:
320,192,54246,1,6,0:0:0:0:
448,192,54246,1,0,0:0:0:0:
192,192,54657,1,10,0:0:0:0:
64,192,55068,1,2,0:0:0:0:
448,192,55273,1,0,0:0:0:0:
320,192,55376,1,0,0:0:0:0:
192,192,55479,1,2,0:0:0:0:
320,192,55684,1,14,0:0:0:0:
64,192,55890,1,0,0:0:0:0:
448,192,56095,1,2,0:0:0:0:
64,192,56301,1,10,0:0:0:0:
448,192,56506,1,0,0:0:0:0:
192,192,56712,1,0,0:0:0:0:
448,192,56917,1,10,0:0:0:0:
320,192,57123,1,10,0:0:0:0:
192,192,57328,1,0,0:0:0:0:
64,192,57534,1,0,0:0:0:0:
320,192,57534,1,6,0:0:0:0:
64,192,57945,1,10,0:0:0:0:
192,192,58047,1,0,0:0:0:0:
320,192,58150,1,0,0:0:0:0:
448,192,58356,1,2,0:0:0:0:
64,192,58356,1,0,0:0:0:0:
448,192,58767,1,0,0:0:0:0:
320,192,58869,1,0,0:0:0:0:
192,192,58972,1,10,0:0:0:0:
64,192,59178,1,0,0:0:0:0:
448,192,59178,1,6,0:0:0:0:
64,192,59589,1,10,0:0:0:0:
320,192,59794,1,0,0:0:0:0:
448,192,59999,1,2,0:0:0:0:
64,192,60205,1,0,0:0:0:0:
448,192,60410,1,10,0:0:0:0:
448,192,60821,1,6,0:0:0:0:
192,192,60821,1,0,0:0:0:0:
320,192,61232,1,0,0:0:0:0:
64,192,61438,1,0,0:0:0:0:
192,192,61643,1,0,0:0:0:0:
448,192,61849,1,0,0:0:0:0:
320,192,61952,1,0,0:0:0:0:
192,192,62054,1,10,0:0:0:0:
64,192,62260,1,2,0:0:0:0:
448,192,62465,1,0,0:0:0:0:
64,192,62671,1,0,0:0:0:0:
192,192,62671,1,6,0:0:0:0:
64,192,63082,1,0,0:0:0:0:
448,192,63287,1,0,0:0:0:0:
192,192,63493,1,0,0:0:0:0:
320,192,63595,1,0,0:0:0:0:
448,192,63698,1,10,0:0:0:0:
192,192,63904,1,0,0:0:0:0:
64,192,64109,1,6,0:0:0:0:
448,192,64109,1,0,0:0:0:0:
320,192,64315,1,0,0:0:0:0:
192,192,64520,1,10,0:0:0:0:
64,192,64726,1,0,0:0:0:0:
192,192,64931,1,0,0:0:0:0:
448,192,65136,1,10,0:0:0:0:
320,192,65239,1,0,0:0:0:0:
192,192,65342,1,10,0:0:0:0:
320,192,65547,1,0,0:0:0:0:
64,192,65753,1,6,0:0:0:0:
448,192,65753,1,0,0:0:0:0:
320,192,66164,1,0,0:0:0:0:
64,192,66164,1,6,0:0:0:0:
64,192,66575,1,6,0:0:0:0:
192,192,66575,1,0,0:0:0:0:
64,192,66986,1,6,0:0:0:0:
448,192,67397,1,6,0:0:0:0:
64,192,67808,1,8,0:0:0:0:
320,192,68219,1,0,0:0:0:0:
192,192,68630,1,8,0:0:0:0:
448,192,68630,1,0,0:0:0:0:
192,192,69041,1,2,0:0:0:0:
448,192,69041,1,0,0:0:0:0:
448,192,69452,1,2,0:0:0:0:
64,192,69657,1,0,0:0:0:0:
192,192,69760,1,0,0:0:0:0:
320,192,69863,1,10,0:0:0:0:
448,192,70273,1,10,0:0:0:0:
192,192,70479,1,0,0:0:0:0:
320,192,70684,1,2,0:0:0:0:
64,192,70684,1,0,0:0:0:0:
64,192,71095,1,2,0:0:0:0:
448,192,71301,1,0,0:0:0:0:
320,192,71404,1,0,0:0:0:0:
192,192,71506,1,2,0:0:0:0:
64,192,71917,1,2,0:0:0:0:
448,192,72123,1,0,0:0:0:0:
192,192,72328,1,2,0:0:0:0:
320,192,72534,1,0,0:0:0:0:
192,192,72636,1,0,0:0:0:0:
64,192,72739,1,2,0:0:0:0:
192,192,72945,1,0,0:0:0:0:
320,192,73047,1,0,0:0:0:0:
192,192,73150,1,2,0:0:0:0:
448,192,73356,1,0,0:0:0:0:
320,192,73458,1,0,0:0:0:0:
192,192,73561,1,2,0:0:0:0:
448,192,73767,1,0,0:0:0:0:
64,192,73972,1,0,0:0:0:0:
320,192,73972,1,6,0:0:0:0:
320,192,74383,1,8,0:0:0:0:
320,192,74794,1,8,0:0:0:0:
192,192,75205,1,8,0:0:0:0:
64,192,75616,1,8,0:0:0:0:
448,192,76027,1,8,0:0:0:0:
192,192,76438,1,8,0:0:0:0:
192,192,76849,1,8,0:0:0:0:
448,192,77260,128,2,78082:0:0:0:0:
192,192,78082,128,0,78904:0:0:0:0:
64,192,78904,128,2,79726:0:0:0:0:
320,192,79726,128,0,80547:0:0:0:0:
64,192,80547,1,2,0:0:0:0:
448,192,80753,1,0,0:0:0:0:
320,192,80958,1,0,0:0:0:0:
192,192,81164,1,2,0:0:0:0:
320,192,81575,1,0,0:0:0:0:
192,192,81780,1,2,0:0:0:0:
320,192,81986,1,0,0:0:0:0:
192,192,82397,1,0,0:0:0:0:
320,192,82602,1,0,0:0:0:0:
448,192,82808,1,2,0:0:0:0:
192,192,83013,1,0,0:0:0:0:
192,192,83424,1,2,0:0:0:0:
64,192,83835,128,2,84246:0:0:0:0:
192,192,84246,128,0,84657:0:0:0:0:
320,192,84657,128,0,85068:0:0:0:0:
448,192,85068,128,0,85479:0:0:0:0:
320,192,85479,128,0,85890:0:0:0:0:
192,192,85890,128,0,86301:0:0:0:0:
64,192,86301,128,0,86712:0:0:0:0:
448,192,86506,1,8,0:0:0:0:
320,192,86609,1,8,0:0:0:0:
192,192,86712,1,2,0:0:0:0:
64,192,87123,1,6,0:0:0:0:
192,192,87123,1,0,0:0:0:0:
448,192,87534,1,0,0:0:0:0:
192,192,87945,1,0,0:0:0:0:
64,192,87945,1,6,0:0:0:0:
320,192,88356,1,0,0:0:0:0:
192,192,88767,1,0,0:0:0:0:
64,192,88767,1,6,0:0:0:0:
448,192,89178,1,0,0:0:0:0:
64,192,89589,1,4,0:0:0:0:
448,192,89794,1,4,0:0:0:0:
64,192,90000,1,4,0:0:0:0:
192,192,90410,1,6,0:0:0:0:
320,192,90410,1,0,0:0:0:0:
64,192,90821,1,0,0:0:0:0:
192,192,91232,1,0,0:0:0:0:
320,192,91232,1,8,0:0:0:0:
448,192,91643,1,0,0:0:0:0:
320,192,92054,1,8,0:0:0:0:
192,192,92054,1,0,0:0:0:0:
448,192,92260,1,6,0:0:0:0:
64,192,92465,1,0,0:0:0:0:
448,192,92671,1,0,0:0:0:0:
320,192,92876,1,0,0:0:0:0:
192,192,92876,1,2,0:0:0:0:
64,192,93287,1,2,0:0:0:0:
320,192,93287,1,0,0:0:0:0:
448,192,93698,1,0,0:0:0:0:
64,192,93698,1,6,0:0:0:0:
320,192,93904,1,0,0:0:0:0:
192,192,94109,1,0,0:0:0:0:
64,192,94109,1,0,0:0:0:0:
64,192,94520,1,0,0:0:0:0:
192,192,94726,1,0,0:0:0:0:
320,192,94931,1,10,0:0:0:0:
448,192,94931,1,0,0:0:0:0:
320,192,95342,1,10,0:0:0:0:
192,192,95547,1,0,0:0:0:0:
64,192,95753,1,0,0:0:0:0:
448,192,95753,1,0,0:0:0:0:
320,192,95958,1,0,0:0:0:0:
192,192,95958,1,14,0:0:0:0:
64,192,96164,1,0,0:0:0:0:
192,192,96369,1,0,0:0:0:0:
320,192,96575,1,0,0:0:0:0:
192,192,96986,1,6,0:0:0:0:
448,192,96986,1,0,0:0:0:0:
320,192,97191,1,0,0:0:0:0:
448,192,97397,1,0,0:0:0:0:
192,192,97808,1,0,0:0:0:0:
320,192,98013,1,0,0:0:0:0:
192,192,98219,1,0,0:0:0:0:
64,192,98630,1,8,0:0:0:0:
448,192,98904,1,8,0:0:0:0:
192,192,99178,1,8,0:0:0:0:
448,192,99452,1,8,0:0:0:0:
64,192,99726,1,8,0:0:0:0:
320,192,100000,1,8,0:0:0:0:
64,192,100273,1,0,0:0:0:0:
448,192,100273,1,6,0:0:0:0:
192,192,100684,1,0,0:0:0:0:
320,192,101095,1,0,0:0:0:0:
320,192,101917,1,0,0:0:0:0:
448,192,101917,1,0,0:0:0:0:
64,192,102534,1,0,0:0:0:0:
192,192,102636,1,0,0:0:0:0:
320,192,102739,1,0,0:0:0:0:
192,192,103150,1,0,0:0:0:0:
192,192,103561,1,2,0:0:0:0:
448,192,103561,1,0,0:0:0:0:
320,192,103972,1,0,0:0:0:0:
192,192,104383,1,0,0:0:0:0:
64,192,104383,1,0,0:0:0:0:
448,192,104794,1,0,0:0:0:0:
320,192,105205,1,0,0:0:0:0:
192,192,105205,1,2,0:0:0:0:
64,192,105616,1,0,0:0:0:0:
320,192,106027,1,0,0:0:0:0:
192,192,106438,1,6,0:0:0:0:
64,192,106438,1,0,0:0:0:0:
448,192,106438,1,0,0:0:0:0:
320,192,106849,1,2,0:0:0:0:
64,192,107260,1,8,0:0:0:0:
192,192,107671,1,8,0:0:0:0:
448,192,108082,1,0,0:0:0:0:
320,192,108493,1,0,0:0:0:0:
448,192,109109,1,0,0:0:0:0:
320,192,109212,1,0,0:0:0:0:
192,192,109315,1,8,0:0:0:0:
320,192,109726,1,8,0:0:0:0:
64,192,110136,1,2,0:0:0:0:
320,192,110547,1,0,0:0:0:0:
448,192,110753,1,0,0:0:0:0:
320,192,110958,1,8,0:0:0:0:
192,192,111164,1,0,0:0:0:0:
320,192,111369,1,8,0:0:0:0:
448,192,111575,1,2,0:0:0:0:
64,192,111780,1,2,0:0:0:0:
192,192,112191,1,4,0:0:0:0:
448,192,112602,1,2,0:0:0:0:
192,192,113013,1,6,0:0:0:0:
448,192,113424,1,0,0:0:0:0:
64,192,113424,128,0,115068:0:0:0:0:
192,192,113835,1,0,0:0:0:0:
320,192,114246,1,0,0:0:0:0:
192,192,115068,1,0,0:0:0:0:
448,192,115684,1,0,0:0:0:0:
320,192,115787,1,0,0:0:0:0:
192,192,115890,1,0,0:0:0:0:
64,192,116301,1,0,0:0:0:0:
448,192,116712,1,0,0:0:0:0:
192,192,117123,1,0,0:0:0:0:
320,192,117534,1,0,0:0:0:0:
64,192,117945,1,0,0:0:0:0:
320,192,118356,1,0,0:0:0:0:
448,192,118356,1,0,0:0:0:0:
64,192,118767,1,0,0:0:0:0:
192,192,119178,1,0,0:0:0:0:
320,192,119589,1,0,0:0:0:0:
448,192,119999,1,0,0:0:0:0:
192,192,119999,128,0,121643:0:0:0:0:
64,192,120410,1,0,0:0:0:0:
448,192,120821,1,0,0:0:0:0:
64,192,121232,1,0,0:0:0:0:
448,192,121643,1,0,0:0:0:0:
64,192,122260,1,0,0:0:0:0:
192,192,122363,1,0,0:0:0:0:
320,192,122465,1,0,0:0:0:0:
448,192,122876,1,0,0:0:0:0:
64,192,123287,1,0,0:0:0:0:
64,192,123698,1,0,0:0:0:0:
192,192,123904,1,0,0:0:0:0:
448,192,124109,1,0,0:0:0:0:
64,192,124315,1,0,0:0:0:0:
320,192,124520,1,0,0:0:0:0:
192,192,124726,1,0,0:0:0:0:
448,192,124931,1,0,0:0:0:0:
64,192,124931,1,0,0:0:0:0:
192,192,125136,1,0,0:0:0:0:
448,192,125342,1,0,0:0:0:0:
320,192,125547,1,0,0:0:0:0:
64,192,125753,1,0,0:0:0:0:
448,192,125958,1,0,0:0:0:0:
192,192,126164,1,0,0:0:0:0:
320,192,126369,1,0,0:0:0:0:
64,192,126575,128,0,128013:0:0:0:0:
448,192,128219,128,0,129863:0:0:0:0:
192,192,128219,128,2,129863:0:0:0:0:
