osu file format v13

[General]
AudioFilename: Mili-Fable.mp3
AudioLeadIn: 0
PreviewTime: -1
Countdown: 1
SampleSet: Soft
StackLeniency: 0.2
Mode: 0
LetterboxInBreaks: 1
WidescreenStoryboard: 0

[Editor]
DistanceSpacing: 1
BeatDivisor: 4
GridSize: 32
TimelineZoom: 1.6

[Metadata]
Title:Fable
TitleUnicode:Fable
Artist:Mili
ArtistUnicode:Mili
Creator:Kochiya Sanya
Version:Insane
Source:Deemo
Tags:
BeatmapID:550735
BeatmapSetID:238085

[Difficulty]
HPDrainRate:6
CircleSize:4
OverallDifficulty:7
ApproachRate:9
SliderMultiplier:1.8
SliderTickRate:1

[Events]
//Background and Video events
0,0,"fable.jpg",0,0
//Break Periods
//Storyboard Layer 0 (Background)
//Storyboard Layer 1 (Fail)
//Storyboard Layer 2 (Pass)
//Storyboard Layer 3 (Foreground)
//Storyboard Sound Samples
//Background Colour Transformations
3,100,163,162,255

[TimingPoints]
1850,410.958904109589,4,2,1,100,1,0
28155,-133.333333333333,4,2,1,100,0,0
41302,-80,4,2,1,100,0,1
51576,-80,4,2,1,100,0,1
74178,-100,4,2,3,100,0,0
78288,-100,4,2,1,100,0,0
80754,-100,4,2,3,100,0,0
86713,-100,4,2,1,100,0,0
87329,-100,4,2,1,100,0,1
100480,-100,4,2,3,100,0,0
106028,-100,4,2,1,100,0,0
107055,-100,4,2,3,100,0,0
108699,-100,4,2,1,100,0,0
109110,-100,4,2,3,100,0,0
111986,-100,4,2,1,100,0,0
113630,-133.333333333333,4,2,2,100,0,0
123493,-133.333333333333,4,2,1,100,0,0
126781,-100,4,2,1,100,0,0
139932,-80,4,2,1,100,0,1
149795,-100,4,2,1,100,0,0
179384,-133.333333333333,4,2,1,100,0,0

[HitObjects]
65,274,1850,5,2,0:0:0:0:
125,340,2055,1,0,0:0:0:0:
170,259,2260,2,0,L|231:326,1,90,0|0,0:0|0:0,0:0:0:0:
264,239,2671,1,2,0:0:0:0:
140,107,3082,1,0,0:0:0:0:
140,107,3288,1,0,0:0:0:0:
267,51,3493,5,0,0:0:0:0:
357,51,3699,1,0,0:0:0:0:
250,131,3904,1,0,0:0:0:0:
359,168,4110,1,0,0:0:0:0:
196,195,4315,1,0,0:0:0:0:
304,285,4521,1,0,0:0:0:0:
117,218,4726,1,0,0:0:0:0:
179,371,4932,1,0,0:0:0:0:
387,249,5137,6,0,P|391:300|372:345,1,90,2|0,0:0|0:0,0:0:0:0:
304,285,5548,1,0,0:0:0:0:
304,285,5754,1,0,0:0:0:0:
261,206,5959,1,2,0:0:0:0:
158,71,6370,1,0,0:0:0:0:
158,71,6576,1,0,0:0:0:0:
114,149,6781,5,0,0:0:0:0:
196,317,6986,1,0,0:0:0:0:
172,229,7192,1,0,0:0:0:0:
272,72,7397,1,0,0:0:0:0:
238,155,7603,1,0,0:0:0:0:
305,313,7808,1,0,0:0:0:0:
263,233,8014,1,0,0:0:0:0:
324,167,8219,1,0,0:0:0:0:
377,94,8425,6,0,P|411:129|414:195,2,90,2|0|0,0:0|0:0|0:0,0:0:0:0:
324,167,9041,1,0,0:0:0:0:
238,155,9247,1,2,0:0:0:0:
68,260,9658,2,0,P|73:321|99:348,1,90
208,304,10069,5,0,0:0:0:0:
287,262,10274,1,0,0:0:0:0:
376,241,10480,1,0,0:0:0:0:
465,237,10685,1,0,0:0:0:0:
346,333,10891,1,0,0:0:0:0:
287,262,11096,1,0,0:0:0:0:
276,172,11302,1,0,0:0:0:0:
296,84,11507,1,0,0:0:0:0:
142,63,11713,6,0,P|103:87|71:118,1,90,2|0,0:0|0:0,0:0:0:0:
156,145,12123,2,0,P|201:146|257:162,1,90
190,229,12534,1,2,0:0:0:0:
46,360,12945,2,0,P|60:317|93:288,1,90
176,317,13356,1,0,0:0:0:0:
330,224,13562,1,0,0:0:0:0:
255,273,13767,1,0,0:0:0:0:
404,173,13973,1,0,0:0:0:0:
330,224,14178,1,0,0:0:0:0:
472,116,14384,1,0,0:0:0:0:
323,138,14589,1,0,0:0:0:0:
437,253,14795,1,0,0:0:0:0:
83,230,15000,6,0,P|94:276|120:310,1,90,2|0,0:0|0:0,0:0:0:0:
206,219,15411,2,0,P|197:268|202:308,1,90
277,338,15822,1,2,0:0:0:0:
463,164,16233,1,0,0:0:0:0:
463,164,16439,1,0,0:0:0:0:
286,68,16644,5,0,0:0:0:0:
339,162,16850,1,0,0:0:0:0:
215,101,17055,1,0,0:0:0:0:
271,249,17260,1,0,0:0:0:0:
137,106,17466,1,0,0:0:0:0:
172,215,17671,1,0,0:0:0:0:
72,67,17877,1,0,0:0:0:0:
103,297,18082,1,0,0:0:0:0:
417,293,18288,6,0,L|339:340,1,90,2|0,0:0|0:0,0:0:0:0:
334,249,18699,2,0,L|411:198,1,90
367,123,19110,1,2,0:0:0:0:
224,313,19521,2,0,P|176:279|152:245,1,90
93,98,19932,5,0,0:0:0:0:
182,102,20137,1,0,0:0:0:0:
142,182,20343,1,0,0:0:0:0:
231,175,20548,1,0,0:0:0:0:
200,254,20754,1,0,0:0:0:0:
284,239,20959,1,0,0:0:0:0:
258,317,21165,1,0,0:0:0:0:
346,300,21370,1,0,0:0:0:0:
368,69,21576,6,0,P|326:105|282:114,1,90,2|0,0:0|0:0,0:0:0:0:
206,88,21986,2,0,P|208:150|240:180,1,90
312,186,22397,1,2,0:0:0:0:
76,177,22808,1,0,0:0:0:0:
76,177,23014,1,0,0:0:0:0:
70,271,23219,6,0,P|130:249|150:226,1,90,0|0,0:0|0:0,0:0:0:0:
186,344,23630,2,0,P|213:315|232:258,1,90
333,356,24041,2,0,P|336:308|314:263,1,90
459,281,24452,2,0,P|433:241|384:212,1,90
159,100,24863,6,0,L|106:177,2,90,2|0|0,0:0|0:0|0:0,0:0:0:0:
235,51,25480,1,0,0:0:0:0:
302,109,25685,1,2,0:0:0:0:
332,314,26096,2,0,L|243:291,1,90
155,173,26507,6,0,L|259:196,1,90
353,209,26918,1,0,0:0:0:0:
130,264,27123,1,0,0:0:0:0:
74,192,27329,2,0,P|85:124|108:91,1,90
155,173,27740,2,0,P|180:135|222:109,1,90
450,101,28151,6,0,P|380:63|293:99,2,180,2|0|0,0:0|0:0|0:0,0:0:0:0:
450,101,29795,5,0,0:0:0:0:
450,101,30206,1,0,0:0:0:0:
394,233,30411,1,2,0:0:0:0:
394,233,30514,1,2,0:0:0:0:
394,233,30617,1,2,0:0:0:0:
306,297,31028,1,0,0:0:0:0:
199,304,31439,1,0,0:0:0:0:
71,137,31850,1,0,0:0:0:0:
107,238,32260,1,0,0:0:0:0:
228,84,32671,6,0,L|346:150,1,135.000005149842,2|0,0:0|0:0,0:0:0:0:
389,278,33493,2,0,L|269:207,1,135.000005149842
215,172,34110,1,0,0:0:0:0:
148,160,34315,1,2,0:0:0:0:
89,194,34521,1,0,0:0:0:0:
57,253,34726,5,2,0:0:0:0:
183,298,35137,1,0,0:0:0:0:
301,232,35548,1,0,0:0:0:0:
415,303,35959,1,0,0:0:0:0:
408,168,36370,5,2,0:0:0:0:
315,69,36781,2,0,P|280:72|240:87,1,67.5000025749208,0|2,0:0|0:0,0:0:0:0:
249,82,37089,1,2,0:0:0:0:
249,82,37191,1,2,0:0:0:0:
129,145,37603,1,0,0:0:0:0:
89,273,38014,5,0,0:0:0:0:
219,307,38425,1,0,0:0:0:0:
298,256,38630,1,0,0:0:0:0:
347,171,38836,2,0,P|336:132|312:104,1,67.5000025749208
187,77,39247,2,0,P|190:116|209:147,1,67.5000025749208
266,219,39658,5,4,0:0:0:0:
289,242,39760,1,0,0:0:0:0:
321,254,39863,1,0,0:0:0:0:
354,252,39966,1,0,0:0:0:0:
384,237,40068,1,0,0:0:0:0:
405,211,40171,1,0,0:0:0:0:
414,179,40274,1,0,0:0:0:0:
409,145,40377,1,0,0:0:0:0:
405,119,40480,2,0,L|394:104,7,16.8750006437302,0|0|0|0|0|0|0|0,0:0|0:0|0:0|0:0|0:0|0:0|0:0|0:0,0:0:0:0:
395,105,40891,1,8,0:0:0:0:
317,147,41096,1,0,0:0:0:0:
290,126,41199,1,0,0:0:0:0:
258,112,41302,5,4,0:0:0:0:
119,58,41507,1,0,0:0:0:0:
107,89,41610,1,0,0:0:0:0:
110,122,41713,1,0,0:0:0:0:
190,206,41918,2,0,P|192:240|182:263,2,56.25,0|0|0,0:0|0:0|0:0,0:0:0:0:
330,281,42329,1,0,0:0:0:0:
359,264,42432,1,0,0:0:0:0:
376,235,42534,1,0,0:0:0:0:
385,58,42740,1,4,0:0:0:0:
369,87,42843,1,0,0:0:0:0:
369,120,42945,5,4,0:0:0:0:
221,127,43151,1,0,0:0:0:0:
244,153,43254,1,0,0:0:0:0:
275,168,43356,1,0,0:0:0:0:
98,238,43562,2,0,P|97:278|115:309,1,75,0|8,0:0|0:0,0:0:0:0:
126,316,43767,1,12,0:0:0:0:
256,352,43973,1,0,0:0:0:0:
414,238,44178,2,0,P|415:278|397:309,1,75,0|8,0:0|0:0,0:0:0:0:
386,316,44383,1,12,0:0:0:0:
256,192,44589,5,4,0:0:0:0:
170,48,44795,1,0,0:0:0:0:
170,48,44863,1,0,0:0:0:0:
170,48,44932,1,8,0:0:0:0:
170,48,45000,2,0,P|152:99|178:156,1,112.5,8|4,0:0|0:0,0:0:0:0:
422,156,45411,1,4,0:0:0:0:
310,266,45617,1,8,0:0:0:0:
316,277,45685,1,8,0:0:0:0:
246,309,45822,2,0,P|220:331|140:346,1,112.5,0|4,0:0|0:0,0:0:0:0:
92,288,46165,1,8,0:0:0:0:
97,278,46233,1,12,0:0:0:0:
106,120,46439,1,0,0:0:0:0:
256,192,46644,5,12,0:0:0:0:
256,192,46713,1,8,0:0:0:0:
310,266,46850,1,4,0:0:0:0:
404,128,47055,1,8,0:0:0:0:
404,128,47123,1,0,0:0:0:0:
346,71,47260,2,0,P|281:75|241:101,1,112.5,8|8,0:0|0:0,0:0:0:0:
215,119,47569,1,0,0:0:0:0:
191,142,47671,1,0,0:0:0:0:
171,169,47774,1,0,0:0:0:0:
160,201,47877,5,4,0:0:0:0:
32,266,48082,1,0,0:0:0:0:
51,293,48185,1,0,0:0:0:0:
80,310,48288,1,0,0:0:0:0:
220,339,48493,2,0,P|237:358|266:370,2,56.25,0|0|4,0:0|0:0|0:0,0:0:0:0:
275,226,48904,1,0,0:0:0:0:
289,195,49006,1,0,0:0:0:0:
311,170,49109,1,0,0:0:0:0:
339,151,49212,1,0,0:0:0:0:
370,138,49315,1,4,0:0:0:0:
350,307,49521,2,0,P|307:271|275:226,1,112.5,4|0,0:0|0:0,0:0:0:0:
260,195,49829,1,0,0:0:0:0:
261,161,49932,1,8,0:0:0:0:
103,84,50137,1,0,0:0:0:0:
103,84,50240,1,0,0:0:0:0:
103,84,50343,1,4,0:0:0:0:
68,262,50548,1,0,0:0:0:0:
68,262,50651,1,0,0:0:0:0:
68,262,50754,1,8,0:0:0:0:
234,337,50959,1,0,0:0:0:0:
234,337,51062,1,0,0:0:0:0:
234,337,51165,5,4,0:0:0:0:
392,237,51370,1,0,0:0:0:0:
392,237,51473,1,0,0:0:0:0:
392,237,51576,1,8,0:0:0:0:
394,179,51713,1,8,0:0:0:0:
370,124,51850,1,8,0:0:0:0:
328,80,51986,1,12,0:0:0:0:
188,45,52192,1,0,0:0:0:0:
188,45,52295,1,0,0:0:0:0:
188,45,52397,1,8,0:0:0:0:
150,88,52534,1,8,0:0:0:0:
121,137,52671,1,8,0:0:0:0:
109,192,52808,5,12,0:0:0:0:
116,312,53014,1,0,0:0:0:0:
134,312,53082,1,0,0:0:0:0:
153,312,53150,1,0,0:0:0:0:
172,312,53219,1,2,0:0:0:0:
396,312,53425,1,0,0:0:0:0:
377,312,53493,1,0,0:0:0:0:
358,312,53561,1,0,0:0:0:0:
339,312,53630,1,2,0:0:0:0:
256,320,53836,1,0,0:0:0:0:
64,192,54041,1,0,0:0:0:0:
256,64,54247,1,0,0:0:0:0:
448,192,54452,5,4,0:0:0:0:
135,93,54863,1,8,0:0:0:0:
152,194,55069,1,0,0:0:0:0:
201,286,55274,2,0,P|242:327|306:327,1,112.5,0|0,0:0|0:0,0:0:0:0:
294,331,55582,1,0,0:0:0:0:
294,331,55685,1,8,0:0:0:0:
333,225,55891,1,4,0:0:0:0:
201,286,56096,5,0,0:0:0:0:
405,293,56302,1,0,0:0:0:0:
252,79,56507,1,8,0:0:0:0:
294,331,56713,1,0,0:0:0:0:
343,119,56918,2,0,P|353:173|333:225,1,112.5,0|0,0:0|0:0,0:0:0:0:
113,230,57329,2,0,P|147:274|201:286,1,112.5,8|0,0:0|0:0,0:0:0:0:
405,197,57740,5,12,0:0:0:0:
144,118,58151,1,8,0:0:0:0:
170,96,58254,1,0,0:0:0:0:
195,74,58356,1,0,0:0:0:0:
344,265,58562,1,2,0:0:0:0:
83,331,58973,1,8,0:0:0:0:
108,309,59075,1,0,0:0:0:0:
134,287,59178,1,0,0:0:0:0:
314,133,59384,5,4,0:0:0:0:
314,133,59795,2,0,P|326:199|324:251,1,112.5,12|0,0:0|0:0,0:0:0:0:
219,203,60206,2,0,P|214:145|193:95,1,112.5,4|0,0:0|0:0,0:0:0:0:
193,95,60514,1,0,0:0:0:0:
193,95,60617,1,4,0:0:0:0:
110,171,60822,1,0,0:0:0:0:
398,312,61028,5,4,0:0:0:0:
270,136,61233,1,0,0:0:0:0:
477,203,61439,1,0,0:0:0:0:
269,271,61644,1,0,0:0:0:0:
398,94,61849,1,0,0:0:0:0:
366,207,62055,1,0,0:0:0:0:
366,207,62158,1,8,0:0:0:0:
366,207,62260,1,8,0:0:0:0:
92,291,62466,1,0,0:0:0:0:
270,136,62671,5,0,0:0:0:0:
63,69,62877,1,4,0:0:0:0:
191,245,63082,1,0,0:0:0:0:
191,27,63288,1,0,0:0:0:0:
62,204,63493,1,0,0:0:0:0:
161,135,63699,1,0,0:0:0:0:
161,135,63802,1,8,0:0:0:0:
161,135,63904,1,8,0:0:0:0:
361,290,64110,1,0,0:0:0:0:
418,193,64315,6,0,P|426:137|418:81,1,112.5,4|0,0:0|0:0,0:0:0:0:
311,46,64726,1,8,0:0:0:0:
224,185,64932,1,0,0:0:0:0:
418,193,65137,2,0,P|370:250|335:268,1,112.5,0|8,0:0|0:0,0:0:0:0:
308,284,65445,1,0,0:0:0:0:
276,296,65548,1,8,0:0:0:0:
170,255,65754,1,0,0:0:0:0:
82,87,65959,5,4,0:0:0:0:
117,157,66096,2,0,P|154:182|186:186,1,75,0|0,0:0|0:0,0:0:0:0:
256,192,66370,1,4,0:0:0:0:
329,178,66507,2,0,P|376:161|417:119,1,75
435,81,66781,1,4,0:0:0:0:
477,142,66918,2,0,P|463:203|434:234,1,75
405,268,67192,1,4,0:0:0:0:
337,301,67329,2,0,P|314:262|284:227,1,75
242,184,67603,5,4,0:0:0:0:
114,92,67911,1,0,0:0:0:0:
114,92,68014,1,0,0:0:0:0:
94,223,68425,1,0,0:0:0:0:
177,330,68733,1,0,0:0:0:0:
177,330,68836,1,0,0:0:0:0:
208,341,68939,1,0,0:0:0:0:
241,345,69041,1,0,0:0:0:0:
274,343,69144,1,0,0:0:0:0:
306,333,69247,5,8,0:0:0:0:
393,118,69452,1,0,0:0:0:0:
397,151,69555,1,8,0:0:0:0:
396,184,69658,1,8,0:0:0:0:
213,131,69863,1,0,0:0:0:0:
219,98,69966,1,0,0:0:0:0:
231,67,70069,1,8,0:0:0:0:
241,345,70274,1,8,0:0:0:0:
73,245,70480,1,8,0:0:0:0:
145,84,70685,1,0,0:0:0:0:
138,117,70788,1,0,0:0:0:0:
141,150,70891,5,8,0:0:0:0:
331,280,71096,1,8,0:0:0:0:
344,98,71302,1,8,0:0:0:0:
178,261,71507,1,0,0:0:0:0:
154,285,71610,1,0,0:0:0:0:
137,314,71713,1,8,0:0:0:0:
277,341,71918,2,0,P|319:350|341:342,1,56.25,8|8,0:0|0:0,0:0:0:0:
397,324,72123,1,8,0:0:0:0:
445,195,72329,1,0,0:0:0:0:
368,71,72534,5,2,0:0:0:0:
144,66,72740,1,2,0:0:0:0:
110,96,72843,1,2,0:0:0:0:
78,127,72945,1,2,0:0:0:0:
224,224,73151,1,2,0:0:0:0:
256,192,73254,1,2,0:0:0:0:
289,162,73356,1,2,0:0:0:0:
434,257,73562,1,2,0:0:0:0:
402,288,73664,1,2,0:0:0:0:
368,318,73767,1,2,0:0:0:0:
256,192,73973,1,0,0:0:0:0:
144,66,74178,5,4,0:0:0:0:
101,160,74384,2,0,P|85:195|96:246,1,90,0|8,0:0|0:0,0:0:0:0:
151,313,74795,1,0,0:0:0:0:
239,330,75000,1,0,0:0:0:0:
199,248,75206,2,0,P|170:199|181:167,1,90,0|8,0:0|0:0,0:0:0:0:
240,104,75617,1,0,0:0:0:0:
327,85,75822,5,0,0:0:0:0:
397,141,76028,1,0,0:0:0:0:
397,141,76130,1,0,0:0:0:0:
397,141,76233,2,0,P|410:204|400:229,1,90,8|0,0:0|0:0,0:0:0:0:
283,272,76644,1,0,0:0:0:0:
173,165,76849,1,0,0:0:0:0:
125,311,77055,1,8,0:0:0:0:
313,357,77260,1,0,0:0:0:0:
410,216,77466,5,0,0:0:0:0:
298,93,77671,1,0,0:0:0:0:
287,82,77740,1,0,0:0:0:0:
276,71,77808,1,0,0:0:0:0:
265,60,77877,1,0,0:0:0:0:
102,103,78082,1,0,0:0:0:0:
124,251,78288,2,0,P|153:300|194:315,2,90,8|8|8,0:0|0:0|0:0,0:0:0:0:
359,312,79110,5,0,0:0:0:0:
392,180,79315,1,0,0:0:0:0:
381,169,79384,1,0,0:0:0:0:
370,158,79452,1,0,0:0:0:0:
359,147,79521,1,0,0:0:0:0:
258,234,79726,1,0,0:0:0:0:
219,87,79932,2,0,P|171:68|134:79,2,90,8|8|8,0:0|0:0|0:0,0:0:0:0:
277,182,80754,5,8,0:0:0:0:
250,296,80959,1,0,0:0:0:0:
236,302,81028,1,0,0:0:0:0:
220,304,81096,1,0,0:0:0:0:
205,306,81165,1,0,0:0:0:0:
106,227,81370,1,8,0:0:0:0:
123,106,81576,1,0,0:0:0:0:
214,195,81781,1,0,0:0:0:0:
232,92,81986,1,8,0:0:0:0:
317,157,82192,1,0,0:0:0:0:
399,90,82397,6,0,P|423:133|436:215,1,90
437,186,82671,1,0,0:0:0:0:
440,200,82740,1,0,0:0:0:0:
442,214,82808,1,8,0:0:0:0:
391,326,83014,1,0,0:0:0:0:
327,237,83219,1,0,0:0:0:0:
245,160,83425,1,0,0:0:0:0:
135,110,83630,1,8,0:0:0:0:
17,120,83836,1,0,0:0:0:0:
77,298,84041,6,0,P|125:320|165:308,1,90,2|0,0:0|0:0,0:0:0:0:
157,215,84452,2,0,P|211:206|244:219,1,90,2|0,0:0|0:0,0:0:0:0:
276,305,84863,2,0,P|314:321|361:309,1,90,2|0,0:0|0:0,0:0:0:0:
328,237,85274,2,0,P|332:184|310:155,1,90,2|0,0:0|0:0,0:0:0:0:
204,68,85685,6,0,P|181:106|199:158,1,90,2|0,0:0|0:0,0:0:0:0:
115,340,86096,2,0,P|154:317|174:278,1,90,2|0,0:0|0:0,0:0:0:0:
256,192,86507,2,0,P|291:157|333:145,1,90,2|8,0:0|0:0,0:0:0:0:
343,142,86781,1,8,0:0:0:0:
358,143,86850,1,8,0:0:0:0:
372,144,86918,1,8,0:0:0:0:
327,314,87123,1,0,0:0:0:0:
146,92,87329,5,4,0:0:0:0:
51,332,87740,2,0,L|129:282,1,90
165,260,88048,1,0,0:0:0:0:
204,238,88151,1,4,0:0:0:0:
461,52,88562,2,0,L|383:102,1,90
347,124,88870,1,0,0:0:0:0:
309,149,88973,5,4,0:0:0:0:
157,72,89178,1,0,0:0:0:0:
355,312,89384,1,0,0:0:0:0:
64,288,89589,1,0,0:0:0:0:
64,288,89692,1,0,0:0:0:0:
64,288,89795,1,4,0:0:0:0:
256,32,90000,1,4,0:0:0:0:
448,288,90206,1,4,0:0:0:0:
448,288,90617,6,0,P|383:225|290:209,1,180,4|0,0:0|0:0,0:0:0:0:
214,243,91233,1,0,0:0:0:0:
166,319,91439,2,0,P|118:246|160:165,1,180,2|8,0:0|0:0,0:0:0:0:
433,201,92055,1,0,0:0:0:0:
416,159,92158,1,0,0:0:0:0:
391,121,92260,5,10,0:0:0:0:
237,46,92466,1,4,0:0:0:0:
187,306,92671,1,6,0:0:0:0:
433,201,92877,1,2,0:0:0:0:
141,107,93082,1,8,0:0:0:0:
330,279,93288,1,8,0:0:0:0:
351,37,93493,1,6,0:0:0:0:
55,86,93904,6,0,L|55:178,1,90,6|0,0:0|0:0,0:0:0:0:
457,298,94315,2,0,L|457:206,1,90,6|8,0:0|0:0,0:0:0:0:
190,59,94726,2,0,L|288:59,1,90,2|0,0:0|0:0,0:0:0:0:
322,325,95137,2,0,L|224:325,1,90,2|0,0:0|0:0,0:0:0:0:
186,325,95445,1,0,0:0:0:0:
140,325,95548,5,8,0:0:0:0:
280,59,95754,1,8,0:0:0:0:
312,89,95856,1,8,0:0:0:0:
345,119,95959,1,0,0:0:0:0:
85,156,96165,2,0,P|72:201|78:248,1,90,12|0,0:0|0:0,0:0:0:0:
322,325,96576,1,0,0:0:0:0:
362,306,96678,1,8,0:0:0:0:
402,287,96781,1,8,0:0:0:0:
280,59,96986,1,8,0:0:0:0:
240,81,97089,1,0,0:0:0:0:
201,105,97192,6,0,P|175:140|173:185,1,90,4|0,0:0|0:0,0:0:0:0:
398,200,97603,2,0,P|410:243|402:287,1,90,0|8,0:0|0:0,0:0:0:0:
20,339,98014,2,0,P|18:287|48:251,1,90
256,192,98425,1,0,0:0:0:0:
484,101,98630,1,0,0:0:0:0:
484,101,98733,1,8,0:0:0:0:
484,101,98836,5,8,0:0:0:0:
373,201,99110,5,8,0:0:0:0:
218,293,99384,5,8,0:0:0:0:
198,114,99658,5,8,0:0:0:0:
457,229,99932,5,8,0:0:0:0:
178,364,100171,5,8,0:0:0:0:
150,53,100480,5,12,0:0:0:0:
256,192,100891,1,0,0:0:0:0:
256,192,101302,2,0,P|250:305|379:300,1,270
377,302,101986,1,0,0:0:0:0:
377,302,102055,1,0,0:0:0:0:
377,302,102123,5,2,0:0:0:0:
256,192,102534,2,0,L|183:127,1,90,0|0,0:0|0:0,0:0:0:0:
188,132,102843,1,0,0:0:0:0:
188,132,102945,1,0,0:0:0:0:
96,224,103356,1,8,0:0:0:0:
256,352,103562,1,8,0:0:0:0:
416,224,103767,1,8,0:0:0:0:
374,46,104178,2,0,P|370:135|304:211,2,180,0|0|0,0:0|0:0|0:0,0:0:0:0:
127,98,105411,5,8,0:0:0:0:
148,294,105617,1,0,0:0:0:0:
313,189,105822,1,0,0:0:0:0:
112,200,106028,1,8,0:0:0:0:
350,333,106233,1,0,0:0:0:0:
401,64,106439,1,8,0:0:0:0:
243,349,106644,1,4,0:0:0:0:
357,153,107055,6,0,P|388:208|384:235,1,90
256,192,107466,1,8,0:0:0:0:
155,153,107671,2,0,P|124:208|128:235,1,90
256,192,108082,2,0,L|256:102,1,90,0|8,0:0|0:0,0:0:0:0:
327,272,108493,1,0,0:0:0:0:
185,272,108699,5,0,0:0:0:0:
37,293,109110,2,0,P|61:337|99:351,1,90
140,358,109418,1,0,0:0:0:0:
185,358,109521,1,2,0:0:0:0:
174,190,109726,1,0,0:0:0:0:
37,293,109932,1,2,0:0:0:0:
370,225,110343,6,0,P|357:270|324:300,1,90
142,159,110754,2,0,P|155:114|188:84,1,90,8|0,0:0|0:0,0:0:0:0:
451,257,111165,1,0,0:0:0:0:
61,121,111370,1,0,0:0:0:0:
441,171,111576,1,0,0:0:0:0:
134,71,111781,1,0,0:0:0:0:
240,319,111986,6,0,L|143:320,1,90,8|2,0:0|0:0,0:0:0:0:
270,59,112397,2,0,L|359:59,1,90,4|8,0:0|0:0,0:0:0:0:
430,320,112808,1,0,0:0:0:0:
270,59,113014,1,4,0:0:0:0:
115,279,113219,1,4,0:0:0:0:
405,168,113630,6,0,P|344:140|288:173,2,135.000005149842,0|0|0,0:0|0:0|0:0,0:0:0:0:
350,246,115274,6,0,P|220:253|192:194,1,202.500007724762,0|2,0:0|0:0,0:0:0:0:
193,203,115993,1,2,0:0:0:0:
193,203,116096,1,2,0:0:0:0:
76,71,116507,1,0,0:0:0:0:
65,337,116918,1,2,0:0:0:0:
146,281,117329,1,0,0:0:0:0:
224,228,117740,1,0,0:0:0:0:
297,168,118151,1,0,0:0:0:0:
367,105,118562,6,0,L|427:147,1,67.5000025749208
380,180,118973,2,0,L|418:238,1,67.5000025749208
363,249,119384,2,0,L|350:320,1,67.5000025749208
304,290,119795,1,2,0:0:0:0:
236,306,120000,1,0,0:0:0:0:
164,298,120206,5,2,0:0:0:0:
135,73,120617,1,0,0:0:0:0:
203,138,121028,1,0,0:0:0:0:
271,203,121439,1,0,0:0:0:0:
344,262,121849,1,2,0:0:0:0:
419,318,122260,2,0,L|419:246,1,67.5000025749208,0|2,0:0|0:0,0:0:0:0:
420,226,122569,1,2,0:0:0:0:
420,202,122671,1,2,0:0:0:0:
310,47,123082,2,0,L|310:123,1,67.5000025749208
310,138,123391,1,0,0:0:0:0:
310,161,123493,5,4,0:0:0:0:
98,157,123904,2,0,P|96:119|119:88,1,67.5000025749208
200,148,124315,1,0,0:0:0:0:
270,212,124521,1,0,0:0:0:0:
255,300,124726,1,0,0:0:0:0:
169,338,124932,1,0,0:0:0:0:
340,266,125137,6,0,P|358:237|360:204,1,67.5000025749208
171,118,125548,1,8,0:0:0:0:
42,290,125754,2,0,P|62:333|93:349,1,67.5000025749208,0|2,0:0|0:0,0:0:0:0:
77,343,126062,1,0,0:0:0:0:
77,343,126165,1,0,0:0:0:0:
292,331,126370,1,10,0:0:0:0:
292,331,126781,1,2,0:0:0:0:
375,236,127192,1,0,0:0:0:0:
416,188,127397,1,0,0:0:0:0:
460,142,127603,1,0,0:0:0:0:
137,236,128014,1,0,0:0:0:0:
96,188,128219,1,0,0:0:0:0:
52,142,128425,1,0,0:0:0:0:
256,192,128630,2,0,L|255:256,2,45,0|0|0,0:0|0:0|0:0,0:0:0:0:
256,192,129041,1,0,0:0:0:0:
256,192,129247,1,0,0:0:0:0:
256,192,129452,1,0,0:0:0:0:
256,192,129555,1,0,0:0:0:0:
256,192,129658,1,0,0:0:0:0:
256,192,129863,1,0,0:0:0:0:
256,192,129966,1,0,0:0:0:0:
256,192,130069,1,0,0:0:0:0:
256,192,130480,1,0,0:0:0:0:
256,192,130891,1,0,0:0:0:0:
256,192,131302,1,0,0:0:0:0:
256,192,131713,1,0,0:0:0:0:
256,192,131918,1,0,0:0:0:0:
256,192,132021,1,0,0:0:0:0:
256,192,132123,1,0,0:0:0:0:
256,192,132329,1,0,0:0:0:0:
256,192,132534,1,0,0:0:0:0:
256,192,132740,1,0,0:0:0:0:
256,192,132843,1,0,0:0:0:0:
256,192,132945,1,0,0:0:0:0:
256,192,133151,1,0,0:0:0:0:
256,192,133254,1,0,0:0:0:0:
256,192,133356,1,0,0:0:0:0:
256,192,133767,1,0,0:0:0:0:
256,192,133973,1,0,0:0:0:0:
256,192,134076,1,0,0:0:0:0:
256,192,134178,1,0,0:0:0:0:
256,192,134384,1,0,0:0:0:0:
256,192,134589,1,0,0:0:0:0:
256,192,134795,1,0,0:0:0:0:
256,192,134897,1,0,0:0:0:0:
256,192,135000,1,0,0:0:0:0:
256,192,135206,1,0,0:0:0:0:
256,192,135411,1,0,0:0:0:0:
256,192,135514,1,0,0:0:0:0:
256,192,135617,1,0,0:0:0:0:
256,192,135822,1,0,0:0:0:0:
256,192,135925,1,0,0:0:0:0:
256,192,136028,1,0,0:0:0:0:
256,192,136233,1,0,0:0:0:0:
256,192,136439,1,0,0:0:0:0:
256,192,136644,1,0,0:0:0:0:
256,192,136850,1,0,0:0:0:0:
256,192,137055,1,0,0:0:0:0:
256,192,137158,1,0,0:0:0:0:
256,192,137260,1,0,0:0:0:0:
256,192,137466,1,0,0:0:0:0:
256,192,137671,1,0,0:0:0:0:
256,192,137877,1,0,0:0:0:0:
256,192,138082,1,0,0:0:0:0:
256,192,138288,1,0,0:0:0:0:
256,192,138493,1,0,0:0:0:0:
256,192,138699,1,0,0:0:0:0:
256,192,138802,1,0,0:0:0:0:
256,192,138904,1,0,0:0:0:0:
256,192,139110,1,0,0:0:0:0:
256,192,139315,1,0,0:0:0:0:
256,192,139521,1,0,0:0:0:0:
256,192,139726,1,0,0:0:0:0:
256,192,139932,1,0,0:0:0:0:
256,192,140137,1,0,0:0:0:0:
256,192,140343,1,0,0:0:0:0:
256,192,140548,1,0,0:0:0:0:
256,192,140754,1,0,0:0:0:0:
256,192,140959,1,0,0:0:0:0:
256,192,141165,1,0,0:0:0:0:
256,192,141370,1,0,0:0:0:0:
256,192,141576,1,0,0:0:0:0:
256,192,141781,1,0,0:0:0:0:
256,192,141986,1,0,0:0:0:0:
256,192,142192,1,0,0:0:0:0:
256,192,142397,1,0,0:0:0:0:
256,192,142603,1,0,0:0:0:0:
256,192,142706,1,0,0:0:0:0:
256,192,142808,1,0,0:0:0:0:
256,192,143014,1,0,0:0:0:0:
256,192,143219,1,0,0:0:0:0:
256,192,143425,1,0,0:0:0:0:
256,192,143630,1,0,0:0:0:0:
256,192,143733,1,0,0:0:0:0:
256,192,143836,1,0,0:0:0:0:
256,192,144041,1,0,0:0:0:0:
256,192,144247,1,0,0:0:0:0:
256,192,144452,1,0,0:0:0:0:
256,192,144658,1,0,0:0:0:0:
256,192,144863,1,0,0:0:0:0:
256,192,145069,1,0,0:0:0:0:
256,192,145274,1,0,0:0:0:0:
256,192,145377,1,0,0:0:0:0:
256,192,145480,1,0,0:0:0:0:
256,192,145685,1,0,0:0:0:0:
256,192,145891,1,0,0:0:0:0:
256,192,146096,1,0,0:0:0:0:
256,192,146302,1,0,0:0:0:0:
256,192,146507,1,0,0:0:0:0:
256,192,146713,1,0,0:0:0:0:
256,192,146918,1,0,0:0:0:0:
256,192,147123,1,0,0:0:0:0:
256,192,147329,1,0,0:0:0:0:
256,192,147534,1,0,0:0:0:0:
256,192,147740,1,0,0:0:0:0:
256,192,147945,1,0,0:0:0:0:
256,192,148151,1,0,0:0:0:0:
256,192,148356,1,0,0:0:0:0:
256,192,148562,1,0,0:0:0:0:
256,192,148767,1,0,0:0:0:0:
256,192,148973,1,0,0:0:0:0:
256,192,149178,1,0,0:0:0:0:
256,192,149384,1,0,0:0:0:0:
256,192,149589,1,0,0:0:0:0:
256,192,149795,1,0,0:0:0:0:
256,192,150000,1,0,0:0:0:0:
256,192,150206,1,0,0:0:0:0:
256,192,150617,1,0,0:0:0:0:
256,192,151028,1,0,0:0:0:0:
256,192,151233,1,0,0:0:0:0:
256,192,151439,1,0,0:0:0:0:
256,192,151644,1,0,0:0:0:0:
256,192,151850,1,0,0:0:0:0:
256,192,152260,1,0,0:0:0:0:
256,192,152671,1,0,0:0:0:0:
256,192,153082,1,0,0:0:0:0:
256,192,153493,1,0,0:0:0:0:
256,192,153904,1,0,0:0:0:0:
256,192,154110,1,0,0:0:0:0:
256,192,154315,1,0,0:0:0:0:
256,192,154726,1,0,0:0:0:0:
256,192,154932,1,0,0:0:0:0:
256,192,155034,1,0,0:0:0:0:
256,192,155137,1,0,0:0:0:0:
256,192,155343,1,0,0:0:0:0:
256,192,155548,1,0,0:0:0:0:
256,192,155959,1,0,0:0:0:0:
256,192,156165,1,0,0:0:0:0:
256,192,156267,1,0,0:0:0:0:
256,192,156370,1,0,0:0:0:0:
256,192,156781,1,0,0:0:0:0:
256,192,157192,1,0,0:0:0:0:
256,192,157603,1,0,0:0:0:0:
256,192,158014,1,0,0:0:0:0:
256,192,158219,1,0,0:0:0:0:
256,192,158322,1,0,0:0:0:0:
256,192,158425,1,0,0:0:0:0:
256,192,158630,1,0,0:0:0:0:
256,192,158699,1,0,0:0:0:0:
256,192,158767,1,0,0:0:0:0:
256,192,158836,1,0,0:0:0:0:
256,192,159110,1,0,0:0:0:0:
256,192,159384,1,0,0:0:0:0:
256,192,159521,1,0,0:0:0:0:
256,192,159658,1,0,0:0:0:0:
256,192,160480,1,0,0:0:0:0:
256,192,160685,1,0,0:0:0:0:
256,192,160891,1,0,0:0:0:0:
256,192,161302,1,0,0:0:0:0:
256,192,161713,1,0,0:0:0:0:
256,192,161918,1,0,0:0:0:0:
256,192,162021,1,0,0:0:0:0:
256,192,162123,1,0,0:0:0:0:
256,192,162534,1,0,0:0:0:0:
256,192,162603,1,0,0:0:0:0:
256,192,162671,1,0,0:0:0:0:
256,192,162740,1,0,0:0:0:0:
256,192,162808,1,0,0:0:0:0:
256,192,162877,1,0,0:0:0:0:
256,192,162945,1,0,0:0:0:0:
256,192,163151,1,0,0:0:0:0:
256,192,163356,1,0,0:0:0:0:
256,192,163493,1,0,0:0:0:0:
256,192,163630,1,0,0:0:0:0:
256,192,163767,1,0,0:0:0:0:
256,192,164178,1,0,0:0:0:0:
256,192,164315,1,0,0:0:0:0:
256,192,164452,1,0,0:0:0:0:
256,192,164589,1,0,0:0:0:0:
256,192,164795,1,0,0:0:0:0:
256,192,165000,1,0,0:0:0:0:
256,192,165206,1,0,0:0:0:0:
256,192,165411,1,0,0:0:0:0:
256,192,165480,1,0,0:0:0:0:
256,192,165548,1,0,0:0:0:0:
256,192,165617,1,0,0:0:0:0:
256,192,165685,1,0,0:0:0:0:
256,192,165754,1,0,0:0:0:0:
256,192,165822,1,0,0:0:0:0:
256,192,166233,1,0,0:0:0:0:
256,192,166439,1,0,0:0:0:0:
256,192,166644,1,0,0:0:0:0:
256,192,166781,1,0,0:0:0:0:
256,192,166918,1,0,0:0:0:0:
256,192,167055,1,0,0:0:0:0:
256,192,167466,1,0,0:0:0:0:
256,192,167603,1,0,0:0:0:0:
256,192,167740,1,0,0:0:0:0:
256,192,167877,1,0,0:0:0:0:
256,192,168288,1,0,0:0:0:0:
256,192,168699,1,0,0:0:0:0:
256,192,168767,1,0,0:0:0:0:
256,192,168836,1,0,0:0:0:0:
256,192,168904,1,0,0:0:0:0:
256,192,168973,1,0,0:0:0:0:
256,192,169041,1,0,0:0:0:0:
256,192,169110,1,0,0:0:0:0:
256,192,169521,1,0,0:0:0:0:
256,192,169932,1,0,0:0:0:0:
256,192,170069,1,0,0:0:0:0:
256,192,170206,1,0,0:0:0:0:
256,192,170343,1,0,0:0:0:0:
256,192,170754,1,0,0:0:0:0:
256,192,170891,1,0,0:0:0:0:
256,192,171028,1,0,0:0:0:0:
256,192,171165,1,0,0:0:0:0:
256,192,171576,1,0,0:0:0:0:
256,192,171986,1,0,0:0:0:0:
256,192,172055,1,0,0:0:0:0:
256,192,172123,1,0,0:0:0:0:
256,192,172192,1,0,0:0:0:0:
256,192,172260,1,0,0:0:0:0:
256,192,172329,1,0,0:0:0:0:
256,192,172397,1,0,0:0:0:0:
256,192,172808,1,0,0:0:0:0:
256,192,173219,1,0,0:0:0:0:
256,192,173356,1,0,0:0:0:0:
256,192,173493,1,0,0:0:0:0:
256,192,173630,1,0,0:0:0:0:
256,192,174041,1,0,0:0:0:0:
256,192,174178,1,0,0:0:0:0:
256,192,174315,1,0,0:0:0:0:
256,192,174452,1,0,0:0:0:0:
256,192,174863,1,0,0:0:0:0:
256,192,175274,1,0,0:0:0:0:
256,192,175343,1,0,0:0:0:0:
256,192,175411,1,0,0:0:0:0:
256,192,175480,1,0,0:0:0:0:
256,192,175548,1,0,0:0:0:0:
256,192,175617,1,0,0:0:0:0:
256,192,175685,1,0,0:0:0:0:
256,192,176096,1,0,0:0:0:0:
256,192,176507,1,0,0:0:0:0:
256,192,176918,1,0,0:0:0:0:
256,192,177329,1,0,0:0:0:0:
256,192,177534,1,0,0:0:0:0:
256,192,177603,1,0,0:0:0:0:
256,192,177671,1,0,0:0:0:0:
256,192,177740,1,0,0:0:0:0:
256,192,178151,1,0,0:0:0:0:
256,192,178356,1,0,0:0:0:0:
256,192,178562,1,0,0:0:0:0:
256,192,178767,1,0,0:0:0:0:
256,192,178836,1,0,0:0:0:0:
256,192,178904,1,0,0:0:0:0:
256,192,178973,1,0,0:0:0:0:
256,192,179178,1,0,0:0:0:0:
256,192,179384,1,0,0:0:0:0:
256,192,179795,1,0,0:0:0:0:
256,192,180206,1,0,0:0:0:0:
256,192,180617,1,0,0:0:0:0:
256,192,181028,1,0,0:0:0:0:
256,192,181439,1,0,0:0:0:0:
256,192,181850,1,0,0:0:0:0:
256,192,182260,1,0,0:0:0:0:
256,192,182671,1,0,0:0:0:0:
256,192,183082,1,0,0:0:0:0:
256,192,183493,1,0,0:0:0:0:
256,192,183904,1,0,0:0:0:0:
256,192,184315,1,0,0:0:0:0:
256,192,184726,1,0,0:0:0:0:
256,192,185137,1,0,0:0:0:0:
256,192,185548,1,0,0:0:0:0:
256,192,185959,1,0,0:0:0:0:
256,192,186370,1,0,0:0:0:0:
256,192,186781,1,0,0:0:0:0:
256,192,187192,1,0,0:0:0:0:
256,192,187603,1,0,0:0:0:0:
256,192,188014,1,0,0:0:0:0:
256,192,188425,1,0,0:0:0:0:
256,192,188836,1,0,0:0:0:0:
256,192,189247,1,0,0:0:0:0:
256,192,189658,1,0,0:0:0:0:
256,192,190069,1,0,0:0:0:0:
256,192,190480,1,0,0:0:0:0:
256,192,190891,1,0,0:0:0:0:
256,192,191302,1,0,0:0:0:0:
256,192,191713,1,0,0:0:0:0:
256,192,192123,1,0,0:0:0:0:
256,192,192534,1,0,0:0:0:0:
