osu file format v12

[General]
AudioFilename: Miley Cyrus - Wrecking Ball.mp3
AudioLeadIn: 0
PreviewTime: 41595
Countdown: 0
SampleSet: Soft
StackLeniency: 0.3
Mode: 0
LetterboxInBreaks: 0
WidescreenStoryboard: 1

[Editor]
DistanceSpacing: 1.3
BeatDivisor: 3
GridSize: 4
TimelineZoom: 0.8999997

[Metadata]
Title:Wrecking Ball
TitleUnicode:Wrecking Ball
Artist:Miley Cyrus
ArtistUnicode:Miley Cyrus
Creator:Irreversible
Version:Normal
Source:
Tags:Gero Collab Collaboration Bangerz
BeatmapID:401000
BeatmapSetID:116487

[Difficulty]
HPDrainRate:4
CircleSize:3
OverallDifficulty:3
ApproachRate:4
SliderMultiplier:1.4
SliderTickRate:2

[Events]
//Background and Video events
0,0,"wrecking.jpg",0,0
//Break Periods
2,63345,70015
2,163534,172015
//Storyboard Layer 0 (Background)
//Storyboard Layer 1 (Fail)
//Storyboard Layer 2 (Pass)
//Storyboard Layer 3 (Foreground)
Sprite,Foreground,Centre,"geroversible.png",320,240 M,0,9345,,320,410 S,0,9345,,0.7 F,0,9345,10345,0,1 F,0,10345,61345,1,0.993 F,0,61345,62345,0.993,0 F,0,71345,72345,0,1 F,0,72345,162345,1 F,0,162345,163345,1,0 F,0,173345,174345,0.0009999871,1 F,0,174345,216345,1 F,0,216345,217345,1,0
//Storyboard Sound Samples
//Background Colour Transformations
3,100,163,162,255

[TimingPoints]
1335,1000,4,2,1,50,1,0
25460,-100,4,2,1,50,0,0
39335,-100,4,2,1,40,0,0
40335,-100,4,2,1,30,0,0
41335,-100,4,2,1,25,0,0
42335,-100,4,2,1,25,0,0
43335,-100,4,2,1,60,0,1
56335,-100,4,2,1,60,0,0
58335,-100,4,2,1,60,0,0
78335,-100,4,2,1,60,0,0
94335,-100,4,2,1,35,0,0
95335,-100,4,2,1,60,0,1
111085,-100,4,2,1,60,0,0
111335,-100,4,2,1,60,0,1
130335,-100,4,2,1,30,0,0
131335,-100,4,2,1,40,0,0
132335,-100,4,2,1,40,0,0
159335,-100,4,2,1,25,0,0
161335,-100,4,2,1,10,0,0
172085,-100,4,2,1,40,0,0
173335,-100,4,2,1,60,0,1
186272,-100,4,2,2,60,0,1
186397,-100,4,2,1,60,0,1
197085,-100,4,2,1,60,0,0
197335,-100,4,2,1,60,0,1
207335,-100,4,2,1,50,0,1
209335,-100,4,2,1,50,0,0
217335,-100,4,2,1,5,0,0

[Colours]
Combo1 : 149,192,227
Combo2 : 207,160,160
Combo3 : 200,200,200
Combo4 : 142,126,163

[HitObjects]
56,304,8835,5,2,0:0:0:0:
56,304,9335,2,0,L|144:320,1,70,0|2,0:0|0:0,0:0:0:0:
204,288,10335,2,0,L|292:304,1,70,0|2,0:0|0:0,0:0:0:0:
356,280,11335,1,0,0:0:0:0:
428,236,11835,1,2,0:0:0:0:
428,152,12335,1,0,0:0:0:0:
360,104,12835,1,2,0:0:0:0:
360,104,13085,6,0,L|240:124,1,105,0|2,0:0|0:0,0:0:0:0:
172,136,14335,2,0,P|112:208|196:292,1,210,0|0,0:0|0:0,0:0:0:0:
256,304,16335,1,0,0:0:0:0:
340,292,16835,1,2,0:0:0:0:
384,220,17335,6,0,L|364:148,1,70,2|0,0:0|0:0,0:0:0:0:
280,156,18335,2,0,L|260:84,1,70,2|0,0:0|0:0,0:0:0:0:
176,88,19335,2,0,L|156:16,2,70,2|0|2,0:0|0:0|0:0,0:0:0:0:
105,142,20835,1,0,0:0:0:0:
105,142,21085,6,0,P|69:206|69:254,1,105,2|0,0:0|0:0,0:0:0:0:
120,308,22335,2,0,B|168:340|223:315|223:315|280:292|320:336,1,210,2|0,0:0|0:0,0:0:0:0:
400,348,24335,1,2,0:0:0:0:
444,276,24835,1,0,0:0:0:0:
480,192,25335,6,0,L|392:192,1,70,2|0,0:0|0:0,0:0:0:0:
436,104,26335,2,0,L|366:104,1,70,2|0,0:0|0:0,0:0:0:0:
300,40,27335,2,0,P|276:104|300:168,1,140,2|2,0:0|0:0,0:0:0:0:
256,248,28835,1,0,0:0:0:0:
192,312,29335,6,0,B|156:312|156:312|124:332,1,70,2|0,0:0|0:0,0:0:0:0:
62,265,30335,2,0,L|188:188,1,140,2|2,0:0|0:0,0:0:0:0:
240,124,31835,1,0,0:0:0:0:
296,52,32335,2,0,L|344:52,1,35,2|0,0:0|0:0,0:0:0:0:
363,84,32835,2,0,L|411:84,1,35,2|0,0:0|0:0,0:0:0:0:
430,116,33335,5,6,0:0:0:0:
480,192,33835,1,2,0:0:0:0:
436,272,34335,2,0,P|375:307|304:296,1,140,2|2,0:0|0:0,0:0:0:0:
256,224,35835,1,0,0:0:0:0:
203,298,36335,2,0,P|135:306|76:272,1,140,2|2,0:0|0:0,0:0:0:0:
36,192,37835,1,0,0:0:0:0:
82,116,38335,2,0,L|54:8,2,105,2|2|2,0:0|0:0|0:0,0:0:0:0:
36,192,40335,6,0,L|55:259,1,70,0|2,0:0|0:0,0:0:0:0:
128,316,41335,2,0,P|192:340|256:316,1,140,2|2,0:0|0:0,0:0:0:0:
284,284,42585,1,0,0:0:0:0:
324,256,42835,2,0,L|366:256,1,35,2|0,0:0|0:0,0:0:0:0:
404,256,43335,6,0,P|436:200|404:132,1,140,4|8,0:0|0:0,0:0:0:0:
336,76,44835,1,0,0:0:0:0:
264,132,45335,2,0,B|232:144|196:124|196:124|152:96|112:132,1,140,4|8,3:0|0:0,0:0:0:0:
76,192,46835,1,0,0:0:0:0:
108,276,47335,6,0,P|156:328|240:312,1,140,6|8,0:2|0:0,0:0:0:0:
312,344,48835,1,0,0:0:0:0:
388,296,49335,2,0,L|336:160,1,140,4|8,3:0|0:0,0:0:0:0:
316,124,50585,1,2,0:0:0:0:
292,84,50835,2,0,P|248:72|232:76,1,35,0|2,0:0|0:0,0:0:0:0:
224,100,51335,6,0,P|172:120|96:80,1,140,6|8,3:2|0:0,0:0:0:0:
168,28,52835,1,0,0:0:0:0:
260,16,53335,2,0,L|420:48,1,140,4|8,3:0|0:0,0:0:0:0:
464,104,54835,1,0,0:0:0:0:
376,128,55335,1,4,3:0:0:0:
256,264,56335,6,0,L|256:328,3,46.6666666666667,8|2|2|4,0:0|0:0|0:0|3:0,0:0:0:0:
84,252,58335,2,0,P|52:192|96:120,1,140,8|4,0:0|3:0,0:0:0:0:
156,84,59835,1,0,0:0:0:0:
232,132,60335,6,0,L|292:132,3,46.6666666666667,8|2|2|2,0:0|0:0|0:0|0:0,0:0:0:0:
192,160,71335,6,0,B|208:126|208:126|208:94,1,70,2|0,0:0|0:0,0:0:0:0:
304,94,72335,2,0,B|304:126|304:126|320:160,1,70,2|0,0:0|0:0,0:0:0:0:
332,252,73335,1,2,0:0:0:0:
256,300,73835,1,0,0:0:0:0:
180,252,74335,2,0,P|162:300|180:348,2,105,2|2|0,0:0|0:0|0:0,0:0:0:0:
256,200,76335,6,0,P|274:152|256:104,2,105,2|2|0,0:0|0:0|0:0,0:0:0:0:
180,252,78335,2,0,L|208:292,1,35,2|0,0:0|0:0,0:0:0:0:
244,292,78835,2,0,L|272:332,1,35,2|0,0:0|0:0,0:0:0:0:
292,356,79335,6,0,L|380:356,1,70,4|2,0:0|0:0,0:0:0:0:
362,265,80335,2,0,L|432:265,1,70,2|0,0:0|0:0,0:0:0:0:
496,200,81335,2,0,P|520:135|496:71,1,140,2|2,0:0|0:0,0:0:0:0:
431,136,82835,1,0,0:0:0:0:
356,184,83335,6,0,B|320:184|320:184|288:164,1,70,2|0,0:0|0:0,0:0:0:0:
328,80,84335,2,0,L|184:80,1,140,2|2,0:0|0:0,0:0:0:0:
132,160,85835,1,0,0:0:0:0:
92,240,86335,2,0,L|92:284,1,35,2|2,0:0|0:0,0:0:0:0:
137,275,86835,2,0,L|137:319,1,35,0|2,0:0|0:0,0:0:0:0:
169,342,87335,5,6,0:0:0:0:
256,308,87835,1,2,0:0:0:0:
340,268,88335,2,0,P|270:268|214:224,1,140,2|2,0:0|0:0,0:0:0:0:
256,144,89835,5,0,0:0:0:0:
316,76,90335,2,0,P|261:35|192:35,1,140,2|2,0:0|0:0,0:0:0:0:
116,88,91835,1,2,0:0:0:0:
40,136,92335,2,0,L|12:244,2,105,2|2|0,0:0|0:0|0:0,0:0:0:0:
116,88,94335,5,2,0:0:0:0:
200,56,94835,1,2,0:0:0:0:
288,32,95335,6,0,P|356:32|416:72,1,140,6|8,3:2|0:0,0:0:0:0:
456,152,96835,1,0,0:0:0:0:
500,232,97335,2,0,L|368:176,1,140,4|8,3:0|0:0,0:0:0:0:
306,241,98835,1,2,0:0:0:0:
241,305,99335,6,0,L|112:250,1,140,6|8,3:2|0:0,0:0:0:0:
72,168,100835,1,0,0:0:0:0:
60,76,101335,2,0,B|96:76|96:76|128:92,1,70,4|2,3:0|0:0,0:0:0:0:
216,68,102335,2,0,L|288:100,1,70,10|2,0:0|0:0,0:0:0:0:
332,172,103335,6,0,P|356:236|332:300,1,140,6|8,3:2|0:0,0:0:0:0:
256,352,104835,1,0,0:0:0:0:
180,300,105335,2,0,P|155:235|179:171,1,140,4|10,3:0|0:0,0:0:0:0:
252,116,106835,1,2,0:0:0:0:
326,63,107335,6,0,L|187:63,1,140,4|10,3:0|0:0,0:0:0:0:
326,178,109335,2,0,L|187:178,1,140,4|8,3:0|0:0,0:0:0:0:
121,113,110835,1,2,0:0:0:0:
56,177,111335,6,0,P|24:233|56:301,1,140,6|8,3:2|0:0,0:0:0:0:
140,276,112835,1,0,0:0:0:0:
228,256,113335,2,0,B|260:244|296:264|296:264|340:292|380:256,1,140,4|8,3:0|0:0,0:0:0:0:
408,192,114835,1,2,0:0:0:0:
404,100,115335,6,0,P|356:48|272:64,1,140,6|8,3:2|0:0,0:0:0:0:
200,40,116835,1,0,0:0:0:0:
124,88,117335,2,0,L|176:224,1,140,4|8,3:0|0:0,0:0:0:0:
196,260,118585,1,2,0:0:0:0:
220,300,118835,2,0,P|264:312|280:308,1,35,2|0,0:0|0:0,0:0:0:0:
288,284,119335,6,0,P|340:264|416:304,1,140,6|8,3:2|0:0,0:0:0:0:
344,356,120835,1,0,0:0:0:0:
252,368,121335,2,0,L|92:336,1,140,4|10,3:0|0:0,0:0:0:0:
48,280,122835,1,2,0:0:0:0:
136,256,123335,1,4,3:0:0:0:
256,120,124335,6,0,L|256:56,3,46.6666666666667,10|0|2|4,0:0|0:0|0:0|3:0,0:0:0:0:
428,132,126335,2,0,P|460:192|416:264,1,140,8|4,0:0|3:0,0:0:0:0:
356,300,127835,1,0,0:0:0:0:
280,252,128335,6,0,L|220:252,3,46.6666666666667,10|0|2|2,0:0|0:0|0:0|2:0,0:0:0:0:
186,76,130335,6,0,L|326:76,2,140,0|6|2,0:0|0:0|0:0,0:0:0:0:
44,192,133335,6,0,B|44:224|44:224|28:258,1,70,2|0,0:0|0:0,0:0:0:0:
100,316,134335,2,0,L|132:245,1,70,2|0,0:0|0:0,0:0:0:0:
164,224,135085,2,0,B|212:224|212:224|252:184,1,105,2|0,0:0|0:0,0:0:0:0:
340,152,136335,6,0,P|276:152|228:92,2,140,2|2|2,0:0|0:0|0:0,0:0:0:0:
428,108,138835,1,0,0:0:0:0:
428,108,139085,2,0,L|412:212,1,105,2|0,0:0|0:0,0:0:0:0:
316,236,140335,2,0,L|304:308,1,70,2|0,0:0|0:0,0:0:0:0:
228,352,141335,6,0,P|160:352|120:292,1,140,2|2,0:0|0:0,0:0:0:0:
68,216,142835,1,0,0:0:0:0:
68,216,143085,2,0,L|175:216,1,105,2|0,0:0|0:0,0:0:0:0:
252,180,144335,1,2,0:0:0:0:
316,116,144835,1,0,0:0:0:0:
316,116,145085,1,0,0:0:0:0:
316,116,145335,6,0,L|368:116,2,35,2|0|0,0:0|0:0|0:0,0:0:0:0:
252,180,146335,2,0,L|200:180,2,35,2|0|0,0:0|0:0|0:0,0:0:0:0:
320,240,147335,2,0,P|344:304|320:368,1,140,2|2,0:0|0:0,0:0:0:0:
256,304,148835,1,0,0:0:0:0:
192,368,149335,6,0,P|167:303|191:239,1,140,2|2,0:0|0:0,0:0:0:0:
256,172,150835,1,0,0:0:0:0:
256,172,151085,2,0,L|144:148,1,105,2|0,0:0|0:0,0:0:0:0:
80,208,152335,1,2,0:0:0:0:
16,272,152835,5,0,0:0:0:0:
48,304,153085,1,0,0:0:0:0:
80,336,153335,1,2,0:0:0:0:
144,272,153835,1,0,0:0:0:0:
112,240,154085,1,0,0:0:0:0:
80,208,154335,6,0,P|55:143|79:79,2,140,2|2|2,0:0|0:0|0:0,0:0:0:0:
156,144,156835,1,0,0:0:0:0:
236,100,157335,6,0,L|280:100,1,35,2|0,0:0|0:0,0:0:0:0:
300,136,157835,2,0,L|344:136,1,35,0|0,0:0|0:0,0:0:0:0:
367,168,158335,2,0,L|429:168,2,35,2|0|0,0:0|0:0|0:0,0:0:0:0:
300,232,159335,6,0,B|264:296|256:364|256:364|248:296|212:232,2,280,2|2|6,0:0|0:0|0:0,0:0:0:0:
52,152,173335,6,0,L|120:276,1,140,4|8,3:2|0:0,0:0:0:0:
202,317,174835,1,0,0:0:0:0:
292,300,175335,2,0,P|332:272|316:168,1,140,4|8,3:0|0:0,0:0:0:0:
260,132,176835,1,2,0:0:0:0:
256,220,177335,6,0,L|392:272,1,140,6|8,3:2|0:0,0:0:0:0:
432,92,179335,2,0,L|296:40,1,140,4|10,3:0|0:0,0:0:0:0:
256,32,180585,1,0,0:0:0:0:
212,40,180835,2,0,L|148:56,1,35,2|0,0:0|0:0,0:0:0:0:
136,60,181335,6,0,P|108:108|144:184,1,140,6|8,3:2|0:0,0:0:0:0:
228,184,182835,1,0,0:0:0:0:
312,220,183335,2,0,P|340:268|304:344,1,140,4|10,3:0|0:0,0:0:0:0:
220,352,184835,1,2,0:0:0:0:
176,356,185085,1,0,0:0:0:0:
136,360,185335,1,4,3:0:0:0:
56,196,186335,6,0,L|-12:212,2,46.6666666666667,2|0|2,0:0|0:0|0:0,0:0:0:0:
64,136,187335,2,0,P|103:84|184:93,1,140,4|8,3:0|0:0,0:0:0:0:
236,152,188835,1,2,0:0:0:0:
264,188,189085,1,2,0:0:0:0:
292,216,189335,6,0,P|353:243|410:207,1,140,6|8,3:2|0:0,0:0:0:0:
392,112,190835,1,0,0:0:0:0:
304,80,191335,2,0,L|156:104,1,140,4|8,3:0|0:0,0:0:0:0:
80,68,192835,1,0,0:0:0:0:
40,152,193335,6,0,B|32:220|32:220|80:304,1,140,6|8,3:2|0:0,0:0:0:0:
140,336,194835,1,0,0:0:0:0:
196,264,195335,1,4,3:0:0:0:
268,320,195835,2,0,L|336:328,1,35,2|0,0:0|0:0,0:0:0:0:
344,308,196335,2,0,L|412:316,1,35,8|2,0:0|0:0,0:0:0:0:
424,304,196835,2,0,L|492:312,1,35,0|2,0:0|0:0,0:0:0:0:
504,296,197335,6,0,P|512:240|448:176,1,140,6|8,3:2|0:0,0:0:0:0:
376,148,198835,1,0,0:0:0:0:
312,212,199335,2,0,L|156:228,1,140,4|8,3:0|0:0,0:0:0:0:
84,204,200835,1,2,0:0:0:0:
56,168,201085,1,0,0:0:0:0:
28,132,201335,1,4,3:0:0:0:
204,64,202335,6,0,L|204:12,3,46.6666666666667,8|2|2|6,0:0|0:0|0:0|3:2,0:0:0:0:
340,136,204335,2,0,P|388:204|360:272,1,140,8|4,0:0|3:0,0:0:0:0:
204,320,206335,6,0,L|204:372,3,46.6666666666667,8|2|2|6,0:0|0:0|0:0|3:2,0:0:0:0:
68,248,208335,2,0,P|20:180|48:112,1,140,8|2,0:0|2:0,0:0:0:0:
200,64,210335,6,0,L|256:64,2,46.6666666666667,2|2|2,0:0|0:0|0:0,0:0:0:0:
256,192,211335,12,0,217335,0:0:0:0:
