osu file format v9

[General]
AudioFilename: paty in the usa.mp3
AudioLeadIn: 0
PreviewTime: 44803
Countdown: 0
SampleSet: Normal
StackLeniency: 1
Mode: 0
LetterboxInBreaks: 0

[Editor]
Bookmarks: 75468,140468,176093
DistanceSpacing: 0.8
BeatDivisor: 4
GridSize: 4

[Metadata]
Title:Party in the U.S.A.
Artist:Miley Cyrus
Creator:Katsuri
Version:Hard
Source:
Tags:USA The Time of Our Lives Lukasz Gottwald Claude Kelly

[Difficulty]
HPDrainRate:5
CircleSize:3
OverallDifficulty:5
ApproachRate:6
SliderMultiplier:1.92
SliderTickRate:4

[Events]
//Background and Video events
0,0,"Party in the USA.jpg"
//Break Periods
2,70468,74418
2,130468,139418
//Storyboard Layer 0 (Background)
//Storyboard Layer 1 (Fail)
//Storyboard Layer 2 (Pass)
//Storyboard Layer 3 (Foreground)
//Storyboard Sound Samples
//Background Colour Transformations
3,100,255,191,191

[TimingPoints]
468,625,4,1,0,61,1,0
9843,-50,4,1,0,61,0,0
40468,-50,4,2,0,61,0,0
45468,-50,4,1,0,50,0,1
70468,-50,4,1,0,50,0,0
100468,-50,4,2,0,61,0,0
105468,-50,4,1,0,50,0,1
130468,-66.6666666666667,4,2,0,50,0,0
150468,-50,4,1,0,50,0,1
174843,-50,4,1,0,50,0,0
175468,-50,4,1,0,50,0,1
200468,-50,4,1,0,50,0,0

[Colours]
Combo1 : 21,21,234
Combo2 : 222,43,33
Combo3 : 222,222,222

[HitObjects]
64,144,9843,2,0,B|256:108|448:144,1,384,0|2
332,244,10780,1,2
256,244,10936,1,0
180,244,11093,1,2
92,372,11405,2,0,B|16:280|92:188,1,192,0|2
216,116,12030,1,2
292,116,12186,1,2
426,196,12499,5,0
426,196,12655,2,0,B|496:280|420:372,1,192,0|2
332,244,13280,1,0
256,244,13436,1,0
180,244,13593,1,2
44,176,13905,1,0
44,176,14061,2,0,B|152:124|152:124|256:4|360:124|360:124|468:176,1,480
164,240,15468,6,0,B|164:288|164:288|164:408|348:408|348:288|348:288|348:240,1,384,0|2
220,156,16405,1,2
144,156,16561,1,0
68,156,16718,2,0,B|84:28|220:28,1,192,2|0
256,64,17186,1,0
322,29,17343,2,0,B|432:40|444:156,1,192,2|0
368,156,17811,1,0
292,156,17968,1,0
392,272,18280,6,0,B|292:272,1,96,2|0
220,272,18593,2,0,B|104:272,1,96,2|0
160,352,18905,2,0,B|256:364|364:352,1,192,0|2
296,196,19530,1,2
220,196,19686,1,0
216,44,19999,1,0
292,44,20155,1,2
136,48,20468,6,2,B|168:120|104:184|48:240|72:344,2,288
256,144,21718,2,0,B|352:144,1,96,2|0
352,224,22030,2,0,B|248:224,1,96,2|0
256,304,22343,2,0,B|64:304,1,192,0|2
376,336,22968,6,2,B|344:264|408:200|464:144|440:40,2,288
256,240,24218,2,0,B|160:240,1,96,2|0
160,160,24530,2,0,B|264:160,1,96,2|0
240,80,24843,2,0,B|432:80,1,192,0|2
344,296,25624,6,2,B|256:368|168:296,1,192
180,220,26093,1,2
332,220,26405,1,0
404,84,26718,2,0,B|256:92|108:84,1,288,2|0
104,292,27968,5,2
180,292,28124,1,0
256,292,28280,1,2
332,292,28436,1,0
408,292,28593,1,2
368,144,28905,1,0
256,36,29218,1,0
56,148,29686,1,2
376,336,30468,6,2,B|344:264|408:200|464:144|440:40,2,288
256,240,31718,2,0,B|160:240,1,96,2|0
160,160,32030,2,0,B|264:160,1,96,2|0
256,80,32343,2,0,B|448:80,1,192,0|2
136,48,32968,6,2,B|168:120|104:184|48:240|72:344,2,288
256,144,34218,2,0,B|352:144,1,96,2|0
352,224,34530,2,0,B|248:224,1,96,2|0
272,304,34843,2,0,B|80:304,1,192,0|2
168,88,35468,6,2,B|256:16|344:88,1,192
332,164,35936,1,0
180,164,36249,1,0
24,332,36718,2,0,B|44:192|24:40,1,288,2|0
256,48,37655,5,2
256,124,37811,1,0
256,200,37968,1,2
120,272,38280,1,0
256,344,38593,2,0,B|352:376|468:344,1,192,2|0
448,272,39061,1,0
336,72,39530,1,0
184,72,39843,1,0
28,336,40468,6,0,B|224:336,1,192,2|0
256,268,40936,1,0
292,336,41093,2,0,B|488:336,1,192,2|0
476,260,41561,1,0
476,184,41718,1,2
476,108,41874,1,0
476,32,42030,1,0
324,44,42343,1,8
188,104,42655,6,0,B|316:104,1,96,8|0
288,180,42968,2,2,B|372:180|392:52|304:36,1,192
400,296,43593,2,0,B|184:296,1,192,8|0
132,296,44061,1,0
216,168,44374,1,0
140,168,44530,1,0
256,80,44843,1,8
128,40,45468,6,0,B|-8:112|-8:280|128:344,1,384
256,260,46405,1,0
256,184,46561,1,2
444,60,47030,1,2
292,60,47343,1,0
72,124,47811,5,0
148,124,47968,1,2
224,124,48124,1,0
300,124,48280,1,2
352,268,48593,2,0,B|156:268,1,192,2|0
84,268,49061,1,0
140,44,49530,1,2
372,44,49999,1,2
348,272,50468,6,0,B|328:352|220:332,1,144
256,224,50936,1,0
256,148,51093,1,2
392,88,51405,1,2
256,20,51718,1,0
40,252,52343,1,2
164,112,52968,5,2
256,44,53202,1,0
256,160,53436,1,0
256,236,53593,1,2
120,296,53905,1,2
256,364,54218,1,0
472,132,54843,1,2
384,344,55468,6,0,B|520:272|520:104|384:40,1,384
256,116,56405,1,0
256,192,56561,1,2
68,324,57030,1,2
220,324,57343,1,0
440,260,57811,5,0
364,260,57968,1,2
288,260,58124,1,0
212,260,58280,1,2
160,116,58593,2,0,B|356:116,1,192,2|0
428,116,59061,1,0
428,116,59218,1,0
372,340,59530,1,2
140,340,59999,1,2
348,240,60468,6,2,B|172:332|64:152,1,288
148,136,61093,2,0,B|208:236|320:168,1,192,2|0
332,24,61718,1,2
256,24,61874,1,2
180,24,62030,1,2
372,264,62655,6,0,B|372:152,1,96,2|0
296,180,62968,2,0,B|296:84,1,96,2|0
220,84,63280,2,0,B|220:192,1,96,2|0
216,256,63593,1,0
64,256,63905,1,2
68,24,64374,1,2
68,24,64530,1,0
220,24,64843,1,0
164,144,65468,6,2,B|340:52|448:232,1,288
364,248,66093,2,0,B|308:152|192:216,1,192,2|0
180,360,66718,1,2
256,360,66874,1,2
332,360,67030,1,2
256,60,67655,1,4
256,192,67968,12,4,69843
120,72,75468,6,0,B|244:72,1,96,2|0
292,72,75780,2,0,B|400:72,1,96,2|0
352,152,76093,2,0,B|136:152,1,192,2|0
140,292,76718,1,2
216,292,76874,1,0
292,292,77030,1,2
368,292,77186,1,2
256,92,77655,5,0
256,168,77811,2,0,B|352:168,2,96,2|0|2
196,216,78280,1,0
196,216,78436,1,0
164,288,78593,2,0,B|256:320|364:288,1,192,2|0
320,220,79061,1,0
140,76,79530,5,2
372,80,79999,1,2
160,168,80468,6,0,B|256:176|380:168,1,192,2|0
256,288,81093,2,0,B|264:324|249:352|256:384,2,96,2|0|0
256,212,81561,1,0
256,136,81718,1,2
112,88,82030,1,2
256,36,82343,1,2
400,88,82655,1,2
216,332,83280,5,2
216,256,83436,1,0
216,180,83593,1,2
292,180,83749,1,2
292,256,83905,1,0
292,332,84061,1,2
360,300,84218,5,2
360,84,84530,1,2
152,84,84843,1,2
152,300,85155,1,2
440,192,85780,6,0,B|340:192,1,96,2|0
292,136,86093,1,0
216,136,86249,1,0
168,192,86405,2,0,B|72:192,1,96,2|0
24,252,86718,1,0
488,252,87186,1,0
40,140,88124,5,0
112,116,88280,1,2
184,140,88436,1,0
256,116,88593,1,2
324,84,88749,1,0
400,92,88905,1,2
428,164,89061,1,0
404,236,89218,2,2,B|400:360|236:348,1,192
180,88,90468,5,2
256,88,90624,1,0
332,88,90780,1,2
332,296,91093,5,2
256,296,91249,1,0
180,296,91405,1,2
104,160,91718,5,2
180,160,91874,1,0
256,160,92030,1,0
332,160,92186,1,0
408,160,92343,1,2
296,56,92655,1,2
220,56,92811,1,0
68,52,93124,6,0,B|8:128|8:256|68:332,1,288,2|0
180,224,93905,1,2
256,224,94061,1,0
332,224,94218,1,0
440,332,94530,2,0,B|500:256|500:128|440:52,1,288,2|0
216,76,95468,6,0,B|16:76,1,192,2|0
44,152,95936,1,0
76,224,96093,1,2
436,160,96405,5,2
468,232,96561,1,0
488,308,96718,2,0,B|296:308,1,192,2|0
256,244,97186,1,0
56,128,97655,6,0,B|180:128,1,96,2|0
160,52,97968,2,0,B|256:48|364:52,1,192,2|0
420,16,98436,1,0
436,96,98593,2,0,B|428:192|436:288,1,192,2|0
476,352,99061,1,0
332,300,99374,1,0
292,236,99530,2,2,B|152:328|12:236,1,288
484,48,100468,6,0,B|288:48,1,192,2|0
256,116,100936,1,0
220,48,101093,2,0,B|24:48,1,192,2|0
36,124,101561,1,0
36,200,101718,1,2
36,276,101874,1,0
36,352,102030,1,0
188,356,102343,1,8
380,232,102655,6,0,B|252:232,1,96
284,308,102968,2,2,B|184:308|184:168|264:168,1,192
112,88,103593,2,0,B|328:88,1,192,8|0
380,88,104061,1,0
464,216,104374,1,0
464,216,104530,1,0
256,288,104843,1,8
32,76,105468,6,0,B|40:156|132:156|180:104|180:104|228:52|320:52|328:132,1,384,2|2
296,280,106405,1,0
220,280,106561,1,2
352,204,106874,1,0
352,204,107030,2,0,B|136:204,1,192,0|2
140,52,107655,2,0,B|148:108|200:112|200:112|252:88|244:44|244:44|268:44|268:44|260:88|312:112|312:112|364:108|372:52,2,384,0|2|2
72,88,109061,2,0,B|84:156|160:200|240:188,1,192
295,189,109530,2,0,B|352:196|428:156|440:88,1,192,0|2
220,304,110468,5,2
204,192,110702,1,0
296,120,110936,1,2
296,120,111093,1,2
300,272,111405,1,2
296,120,111718,2,0,B|380:120|380:120|388:132|388:132|396:120|396:120|480:120,2,192,0|0|2
52,308,112968,5,2
108,208,113202,1,0
176,300,113436,1,2
252,300,113593,1,2
392,240,113905,1,2
348,92,114218,2,0,B|264:92|264:92|256:80|256:80|248:92|248:92|164:92,2,192,0|0|2
480,308,115468,6,0,B|472:228|380:228|332:280|332:280|284:332|192:332|184:252,1,384,2|2
216,104,116405,1,0
292,104,116561,1,2
160,180,116874,1,0
160,180,117030,2,0,B|376:180,1,192,0|2
372,332,117655,2,0,B|364:276|312:272|312:272|260:296|268:340|268:340|244:340|244:340|252:296|200:272|200:272|148:276|136:332,2,384,0|2|2
440,296,119061,2,0,B|428:228|352:184|272:196,1,192
216,194,119530,2,0,B|156:192|84:228|72:296,1,192,0|2
60,140,120155,5,0
132,112,120311,1,0
204,84,120468,2,0,B|348:20|500:104,1,288,2|0
488,172,121093,1,2
408,304,121405,5,0
332,304,121561,1,0
256,304,121718,1,2
180,304,121874,1,0
104,304,122030,1,2
352,124,122655,6,0,B|160:124,1,192,0|2
296,200,123280,1,0
220,200,123436,1,0
144,200,123593,1,0
120,48,123905,2,2,B|192:16|256:80|312:136|416:112,1,288
456,76,124530,1,2
456,308,124999,1,2
308,300,125468,6,0,B|164:364|12:280,1,288,2|0
24,212,126093,1,2
104,80,126405,5,0
180,80,126561,1,0
256,80,126718,1,2
332,80,126874,1,0
408,80,127030,1,2
160,260,127655,6,0,B|352:260,1,192,0|2
216,184,128280,1,0
292,184,128436,1,0
368,184,128593,1,0
392,336,128905,2,2,B|320:368|256:304|200:248|96:272,1,288
56,308,129530,1,2
56,76,129999,1,2
56,84,140468,6,0,B|56:56|156:56|156:132|156:132|156:208|256:208|256:176,1,287.999991416931
256,296,141405,1,0
256,179,141718,2,0,B|256:208|356:208|356:132|356:132|356:56|456:56|456:84,1,287.999991416931
444,196,142655,5,0
372,284,142968,1,2
140,284,143593,1,2
140,168,143905,1,0
140,52,144218,1,0
372,100,144843,5,2
372,216,145155,1,0
372,332,145468,1,0
256,132,146093,6,0,B|256:304,1,143.999995708466
176,196,146718,2,0,B|176:104,2,71.9999978542328
336,188,147343,2,0,B|336:280,2,71.9999978542328
256,192,147968,12,0,149843
128,36,150468,6,0,B|-72:192|128:352,1,384
256,268,151405,1,0
256,192,151561,1,2
444,60,152030,1,2
292,60,152343,1,0
72,124,152811,5,0
148,124,152968,1,2
224,124,153124,1,0
300,124,153280,1,2
352,268,153593,2,0,B|156:268,1,192,2|0
84,268,154061,1,0
84,268,154218,1,0
140,44,154530,1,2
372,44,154999,1,2
348,272,155468,5,2
256,340,155702,1,0
256,224,155936,1,0
256,148,156093,1,2
392,88,156405,1,2
252,28,156718,5,0
40,252,157343,1,2
164,112,157968,5,2
256,44,158202,1,0
256,160,158436,1,0
256,236,158593,1,2
120,296,158905,1,2
260,356,159218,5,0
472,132,159843,1,2
384,348,160468,6,0,B|584:192|384:32,1,384
256,116,161405,1,0
256,192,161561,1,2
68,324,162030,1,2
220,324,162343,1,0
440,260,162811,5,0
364,260,162968,1,2
288,260,163124,1,0
212,260,163280,1,2
160,116,163593,2,0,B|356:116,1,192,2|0
428,116,164061,1,0
428,116,164218,1,0
372,340,164530,1,2
140,340,164999,1,2
348,240,165468,6,2,B|172:332|64:152,1,288
148,136,166093,2,0,B|208:236|320:168,1,192,2|0
332,24,166718,1,2
256,24,166874,1,2
180,24,167030,1,2
372,264,167655,6,0,B|372:152,1,96,2|0
296,180,167968,2,0,B|296:84,1,96,2|0
220,84,168280,2,0,B|220:192,1,96,2|0
216,256,168593,1,0
64,256,168905,1,2
68,24,169374,1,2
68,24,169530,1,0
300,24,169999,1,0
164,144,170468,6,2,B|340:52|448:232,1,288
364,248,171093,2,0,B|308:152|192:216,1,192,2|0
180,360,171718,1,2
256,360,171874,1,2
332,360,172030,1,2
256,192,172186,12,0,174843
480,308,175468,6,0,B|472:228|380:228|332:280|332:280|284:332|192:332|184:252,1,384,2|2
216,104,176405,1,0
292,104,176561,1,2
160,180,176874,1,0
160,180,177030,2,0,B|376:180,1,192,0|2
372,332,177655,2,0,B|364:276|312:272|312:272|260:296|268:340|268:340|244:340|244:340|252:296|200:272|200:272|148:276|136:332,2,384,0|2|2
440,296,179061,2,0,B|428:228|352:184|272:196,1,192
217,195,179530,2,0,B|160:184|84:228|72:296,1,192,0|2
292,80,180468,5,2
256,188,180702,1,0
220,296,180936,1,2
296,296,181093,1,2
408,192,181405,1,2
256,188,181718,2,0,B|172:188|172:188|164:176|164:176|156:188|156:188|72:188,2,192,0|0|2
220,304,182968,5,2
256,196,183202,1,0
292,88,183436,1,2
216,88,183593,1,2
104,192,183905,1,2
256,196,184218,2,0,B|340:196|340:196|348:208|348:208|356:196|356:196|440:196,2,192,0|0|2
32,76,185468,6,0,B|40:156|132:156|180:104|180:104|228:52|320:52|328:132,1,384,2|2
296,280,186405,1,0
220,280,186561,1,2
352,204,186874,1,0
352,204,187030,2,0,B|136:204,1,192,0|2
140,52,187655,2,0,B|148:108|200:112|200:112|252:88|244:44|244:44|268:44|268:44|260:88|312:112|312:112|364:108|376:52,2,384,0|2|2
72,88,189061,2,0,B|84:156|160:200|240:188,1,192
296,190,189530,2,0,B|352:200|428:156|440:88,1,192,0|2
452,244,190155,5,0
380,272,190311,1,0
308,300,190468,2,0,B|164:364|12:280,1,288,2|0
24,212,191093,1,2
104,80,191405,5,0
180,80,191561,1,0
256,80,191718,1,2
332,80,191874,1,0
408,80,192030,1,2
160,260,192655,6,0,B|352:260,1,192,0|2
216,184,193280,1,0
292,184,193436,1,0
368,184,193593,1,0
392,336,193905,2,2,B|320:368|256:304|200:248|96:272,1,288
56,308,194530,1,2
56,76,194999,1,2
204,84,195468,6,0,B|348:20|500:104,1,288,2|0
488,172,196093,1,2
408,304,196405,5,0
332,304,196561,1,0
256,304,196718,1,2
180,304,196874,1,0
104,304,197030,1,2
256,192,197655,12,0,199843
