osu file format v12

[General]
AudioFilename: electionangel.mp3
AudioLeadIn: 1500
PreviewTime: 7394
Countdown: 0
SampleSet: Normal
StackLeniency: 0.7
Mode: 1
LetterboxInBreaks: 0

[Editor]
DistanceSpacing: 0.6
BeatDivisor: 4
GridSize: 8

[Metadata]
Title:Election Angel, Uh!
TitleUnicode:Election Angel, Uh!
Artist:Mikuriya Wata
ArtistUnicode:御厨 わた
Creator:Stefan
Version:Taiko Muzukashii
Source:
Tags:electronic angel aniki niconicodouga nico douga nnd gachimuchi vocaloid mad nijihara peperon-p hatsune miku
BeatmapID:248675
BeatmapSetID:91285

[Difficulty]
HPDrainRate:5
CircleSize:5
OverallDifficulty:5
ApproachRate:5
SliderMultiplier:1.4
SliderTickRate:1

[Events]
//Background and Video events
0,0,"electionbkg2.jpg",0,-21
//Break Periods
//Storyboard Layer 0 (Background)
//Storyboard Layer 1 (Fail)
//Storyboard Layer 2 (Pass)
//Storyboard Layer 3 (Foreground)
//Storyboard Sound Samples
//Background Colour Transformations
3,100,163,162,255

[TimingPoints]
537,428.571428571429,4,1,0,85,1,0
41679,-100,4,1,0,85,0,1
55394,-100,4,1,0,85,0,0

[Colours]
Combo1 : 196,163,74
Combo2 : 122,122,122
Combo3 : 150,102,86
Combo4 : 219,219,219

[HitObjects]
256,192,537,12,0,1822,0:0:0:0:
256,192,2251,5,8,0:0:0:0:
256,192,2465,1,0,0:0:0:0:
256,192,2679,1,8,0:0:0:0:
256,192,2894,1,0,0:0:0:0:
256,192,3108,1,8,0:0:0:0:
256,192,3965,1,8,0:0:0:0:
256,192,4179,1,0,0:0:0:0:
256,192,4394,1,0,0:0:0:0:
256,192,4608,1,0,0:0:0:0:
256,192,4715,1,8,0:0:0:0:
256,192,4929,1,0,0:0:0:0:
256,192,5037,1,0,0:0:0:0:
256,192,5465,1,0,0:0:0:0:
256,192,5572,1,0,0:0:0:0:
256,192,5679,1,8,0:0:0:0:
256,192,5894,1,0,0:0:0:0:
256,192,6108,1,0,0:0:0:0:
256,192,6322,1,0,0:0:0:0:
256,192,6429,1,8,0:0:0:0:
296,216,6644,1,0,0:0:0:0:
296,216,6751,1,0,0:0:0:0:
256,192,6965,1,12,0:0:0:0:
256,192,7179,1,0,0:0:0:0:
256,192,7394,1,4,0:0:0:0:
256,192,7608,1,0,0:0:0:0:
256,192,7822,1,8,0:0:0:0:
256,192,8037,1,0,0:0:0:0:
256,192,8251,1,0,0:0:0:0:
256,192,8465,1,0,0:0:0:0:
256,192,8679,1,8,0:0:0:0:
256,192,9108,1,0,0:0:0:0:
256,192,9322,1,0,0:0:0:0:
256,192,9537,1,8,0:0:0:0:
256,192,9751,1,0,0:0:0:0:
256,192,9965,1,0,0:0:0:0:
256,192,10179,1,0,0:0:0:0:
256,192,10287,1,0,0:0:0:0:
256,192,10394,1,8,0:0:0:0:
256,192,10822,1,0,0:0:0:0:
256,192,11037,1,0,0:0:0:0:
256,192,11251,1,8,0:0:0:0:
256,192,11465,1,0,0:0:0:0:
256,192,11679,1,0,0:0:0:0:
256,192,11894,1,0,0:0:0:0:
256,192,12108,1,8,0:0:0:0:
256,192,12537,1,0,0:0:0:0:
256,192,12751,1,0,0:0:0:0:
256,192,12965,1,8,0:0:0:0:
256,192,13179,1,0,0:0:0:0:
256,192,13394,1,0,0:0:0:0:
256,192,13608,1,0,0:0:0:0:
256,192,13715,1,0,0:0:0:0:
256,192,13822,1,8,0:0:0:0:
280,232,14037,1,0,0:0:0:0:
256,192,14251,1,4,0:0:0:0:
256,192,14679,1,0,0:0:0:0:
256,192,14894,1,0,0:0:0:0:
280,232,15108,1,8,0:0:0:0:
256,192,15537,1,8,0:0:0:0:
256,192,15751,1,8,0:0:0:0:
256,192,15965,1,0,0:0:0:0:
256,192,16179,1,0,0:0:0:0:
256,192,16394,1,8,0:0:0:0:
256,192,16608,1,0,0:0:0:0:
256,192,16822,1,8,0:0:0:0:
256,192,17251,1,8,0:0:0:0:
256,192,17465,1,8,0:0:0:0:
256,192,17679,1,4,0:0:0:0:
288,280,17894,1,0,0:0:0:0:
288,280,18108,1,8,0:0:0:0:
288,280,18322,1,0,0:0:0:0:
288,280,18537,1,8,0:0:0:0:
256,192,18965,1,8,0:0:0:0:
256,192,19394,1,0,0:0:0:0:
256,192,19608,1,0,0:0:0:0:
256,192,19822,1,8,0:0:0:0:
256,192,20037,1,0,0:0:0:0:
256,192,20251,1,8,0:0:0:0:
256,192,20679,1,8,0:0:0:0:
272,232,20894,1,0,0:0:0:0:
256,192,21108,1,12,0:0:0:0:
256,192,21537,1,8,0:0:0:0:
256,192,21751,1,0,0:0:0:0:
256,192,21858,1,0,0:0:0:0:
256,192,21965,1,8,0:0:0:0:
256,192,22394,1,8,0:0:0:0:
256,192,22608,1,0,0:0:0:0:
256,192,22822,1,8,0:0:0:0:
256,192,23037,1,0,0:0:0:0:
256,192,23251,1,8,0:0:0:0:
256,192,23465,1,8,0:0:0:0:
256,192,23679,1,8,0:0:0:0:
256,192,24108,1,8,0:0:0:0:
256,192,24322,1,8,0:0:0:0:
256,192,24537,1,0,0:0:0:0:
256,192,24751,1,0,0:0:0:0:
256,192,24965,1,8,0:0:0:0:
256,192,25179,1,0,0:0:0:0:
256,192,25394,1,8,0:0:0:0:
256,192,25822,1,0,0:0:0:0:
256,192,26037,1,8,0:0:0:0:
256,192,26251,1,4,0:0:0:0:
256,192,26679,1,12,0:0:0:0:
256,192,27108,1,4,0:0:0:0:
256,192,27429,1,0,0:0:0:0:
256,192,27537,1,8,0:0:0:0:
256,192,27751,1,0,0:0:0:0:
256,192,27965,1,4,0:0:0:0:
256,192,28394,1,0,0:0:0:0:
256,192,28608,1,0,0:0:0:0:
256,192,28822,1,8,0:0:0:0:
256,192,29251,1,0,0:0:0:0:
256,192,29465,1,0,0:0:0:0:
256,192,29679,1,8,0:0:0:0:
256,192,29894,1,0,0:0:0:0:
256,192,30108,1,8,0:0:0:0:
256,192,30322,1,0,0:0:0:0:
256,192,30537,1,8,0:0:0:0:
256,192,30965,1,0,0:0:0:0:
256,192,31179,1,8,0:0:0:0:
256,192,31394,1,4,0:0:0:0:
256,192,31822,1,8,0:0:0:0:
256,192,32037,1,0,0:0:0:0:
256,192,32251,1,8,0:0:0:0:
256,192,32679,1,0,0:0:0:0:
256,192,33108,1,8,0:0:0:0:
256,192,33322,1,0,0:0:0:0:
256,192,33537,1,8,0:0:0:0:
256,192,33751,1,0,0:0:0:0:
256,192,33965,1,8,0:0:0:0:
256,192,34287,1,0,0:0:0:0:
256,192,34394,1,8,0:0:0:0:
256,192,34608,1,0,0:0:0:0:
256,192,34822,1,4,0:0:0:0:
256,192,35251,1,0,0:0:0:0:
256,192,35465,1,0,0:0:0:0:
256,192,35679,1,8,0:0:0:0:
256,192,36108,1,0,0:0:0:0:
256,192,36322,1,0,0:0:0:0:
256,192,36537,1,8,0:0:0:0:
256,192,36751,1,0,0:0:0:0:
256,192,36965,1,8,0:0:0:0:
256,192,37179,1,0,0:0:0:0:
256,192,37394,1,8,0:0:0:0:
256,192,37822,1,0,0:0:0:0:
256,192,38037,1,8,0:0:0:0:
256,192,38251,1,8,0:0:0:0:
256,192,38465,1,0,0:0:0:0:
256,192,38679,1,0,0:0:0:0:
256,192,38894,1,8,0:0:0:0:
256,192,39108,1,8,0:0:0:0:
256,192,39537,1,0,0:0:0:0:
256,192,39751,1,8,0:0:0:0:
256,192,39965,1,0,0:0:0:0:
256,192,40394,1,8,0:0:0:0:
256,192,40822,1,0,0:0:0:0:
256,192,41251,1,8,0:0:0:0:
256,192,41679,1,12,0:0:0:0:
256,192,42108,1,8,0:0:0:0:
256,192,42322,1,8,0:0:0:0:
256,192,42537,1,0,0:0:0:0:
256,192,42751,1,0,0:0:0:0:
256,192,42965,1,8,0:0:0:0:
296,264,43394,1,0,0:0:0:0:
256,192,43608,1,0,0:0:0:0:
256,192,43822,1,8,0:0:0:0:
256,192,44037,1,0,0:0:0:0:
256,192,44251,1,8,0:0:0:0:
256,192,44465,1,0,0:0:0:0:
256,192,44679,1,8,0:0:0:0:
256,192,44894,1,8,0:0:0:0:
256,192,45108,1,0,0:0:0:0:
256,192,45537,1,8,0:0:0:0:
256,192,45965,1,0,0:0:0:0:
256,192,46179,1,0,0:0:0:0:
256,192,46394,1,8,0:0:0:0:
256,192,46822,1,0,0:0:0:0:
256,192,47037,1,0,0:0:0:0:
256,192,47251,1,8,0:0:0:0:
256,192,47465,1,0,0:0:0:0:
256,192,47679,1,8,0:0:0:0:
256,192,47894,1,0,0:0:0:0:
256,192,48108,1,8,0:0:0:0:
256,192,48322,1,8,0:0:0:0:
256,192,48537,1,12,0:0:0:0:
256,192,48965,1,8,0:0:0:0:
256,192,49394,1,0,0:0:0:0:
256,192,49608,1,0,0:0:0:0:
256,192,49822,1,8,0:0:0:0:
256,192,50251,1,0,0:0:0:0:
256,192,50465,1,0,0:0:0:0:
256,192,50679,1,8,0:0:0:0:
256,192,50894,1,0,0:0:0:0:
256,192,51108,1,8,0:0:0:0:
256,192,51322,1,0,0:0:0:0:
256,192,51537,1,8,0:0:0:0:
256,192,51751,1,8,0:0:0:0:
256,192,51965,1,8,0:0:0:0:
256,192,52394,1,8,0:0:0:0:
256,192,52822,1,0,0:0:0:0:
256,192,53037,1,0,0:0:0:0:
256,192,53251,1,8,0:0:0:0:
256,192,53679,1,0,0:0:0:0:
256,192,53894,1,0,0:0:0:0:
256,192,54108,1,8,0:0:0:0:
256,192,54322,1,0,0:0:0:0:
256,192,54537,1,8,0:0:0:0:
256,192,54751,1,0,0:0:0:0:
256,192,54965,1,8,0:0:0:0:
256,192,55179,1,0,0:0:0:0:
256,192,55287,1,0,0:0:0:0:
256,192,55394,1,8,0:0:0:0:
