osu file format v12

[General]
AudioFilename: electionangel.mp3
AudioLeadIn: 1500
PreviewTime: 7394
Countdown: 0
SampleSet: Normal
StackLeniency: 0.7
Mode: 1
LetterboxInBreaks: 0

[Editor]
DistanceSpacing: 0.6
BeatDivisor: 4
GridSize: 4

[Metadata]
Title:Election Angel, Uh!
TitleUnicode:Election Angel, Uh!
Artist:Mikuriya Wata
ArtistUnicode:御厨 わた
Creator:Stefan
Version:Taiko Futsuu
Source:
Tags:electronic angel aniki niconicodouga nico douga nnd gachimuchi vocaloid mad nijihara peperon-p hatsune miku
BeatmapID:250354
BeatmapSetID:91285

[Difficulty]
HPDrainRate:4
CircleSize:5
OverallDifficulty:4
ApproachRate:5
SliderMultiplier:1.3
SliderTickRate:1

[Events]
//Background and Video events
0,0,"electionbkg2.jpg",0,-21
//Break Periods
//Storyboard Layer 0 (Background)
//Storyboard Layer 1 (Fail)
//Storyboard Layer 2 (Pass)
//Storyboard Layer 3 (Foreground)
//Storyboard Sound Samples
//Background Colour Transformations
3,100,163,162,255

[TimingPoints]
537,428.571428571429,4,1,0,85,1,0
41679,-100,4,1,0,85,0,1
55394,-100,4,1,0,85,0,0

[Colours]
Combo1 : 196,163,74
Combo2 : 122,122,122
Combo3 : 150,102,86
Combo4 : 219,219,219

[HitObjects]
256,192,537,12,0,1822,0:0:0:0:
256,192,2251,5,8,0:0:0:0:
256,192,2465,1,8,0:0:0:0:
256,192,2679,1,8,0:0:0:0:
256,192,2894,1,8,0:0:0:0:
256,192,3108,1,8,0:0:0:0:
256,192,3965,1,8,0:0:0:0:
256,192,4394,1,0,0:0:0:0:
256,192,4822,1,8,0:0:0:0:
256,192,5037,1,0,0:0:0:0:
256,192,5465,1,0,0:0:0:0:
256,192,5679,1,8,0:0:0:0:
256,192,6108,1,0,0:0:0:0:
256,192,6537,1,0,0:0:0:0:
296,216,6751,1,0,0:0:0:0:
296,216,6965,1,8,0:0:0:0:
256,192,7394,1,4,0:0:0:0:
256,192,7822,1,8,0:0:0:0:
256,192,8251,1,0,0:0:0:0:
256,192,8465,1,0,0:0:0:0:
256,192,8679,1,8,0:0:0:0:
256,192,9108,1,0,0:0:0:0:
256,192,9537,1,8,0:0:0:0:
256,192,9751,1,0,0:0:0:0:
256,192,10179,1,0,0:0:0:0:
256,192,10394,1,8,0:0:0:0:
256,192,10822,1,0,0:0:0:0:
256,192,11251,1,8,0:0:0:0:
256,192,11679,1,0,0:0:0:0:
256,192,11894,1,0,0:0:0:0:
256,192,12108,1,8,0:0:0:0:
244,232,12537,6,0,B|228:264|228:264|220:244|222:229|222:229|224:220|260:232|260:232|252:228|252:228|248:220|248:220|255:202|255:202|262:221|262:221|268:228|308:276|236:240|236:240|260:216,1,260
256,192,13822,1,8,0:0:0:0:
256,192,14037,1,8,0:0:0:0:
256,192,14251,1,4,0:0:0:0:
256,192,14679,1,0,0:0:0:0:
280,232,15108,1,8,0:0:0:0:
256,192,15537,1,8,0:0:0:0:
256,192,15965,1,0,0:0:0:0:
256,192,16179,1,0,0:0:0:0:
256,192,16394,1,8,0:0:0:0:
256,192,16822,1,8,0:0:0:0:
256,192,17251,1,0,0:0:0:0:
256,192,17679,1,4,0:0:0:0:
288,280,18108,1,0,0:0:0:0:
288,280,18322,1,0,0:0:0:0:
288,280,18537,1,8,0:0:0:0:
256,192,18965,1,8,0:0:0:0:
256,192,19394,1,0,0:0:0:0:
256,192,19822,1,8,0:0:0:0:
256,192,20037,1,8,0:0:0:0:
256,192,20251,1,8,0:0:0:0:
256,192,20679,1,0,0:0:0:0:
272,232,20894,1,0,0:0:0:0:
256,192,21108,1,4,0:0:0:0:
256,192,21537,1,8,0:0:0:0:
256,192,21751,1,8,0:0:0:0:
256,192,21965,1,8,0:0:0:0:
256,192,22394,1,8,0:0:0:0:
256,192,22822,1,8,0:0:0:0:
256,192,23037,1,0,0:0:0:0:
256,192,23251,1,8,0:0:0:0:
256,192,23465,1,0,0:0:0:0:
256,192,23679,1,8,0:0:0:0:
256,192,24108,1,8,0:0:0:0:
256,192,24537,1,4,0:0:0:0:
256,192,25394,1,8,0:0:0:0:
256,192,25822,1,8,0:0:0:0:
256,192,26037,1,8,0:0:0:0:
256,192,26251,1,0,0:0:0:0:
256,192,26679,1,0,0:0:0:0:
256,192,27108,1,0,0:0:0:0:
256,192,27537,1,0,0:0:0:0:
256,192,27751,1,0,0:0:0:0:
256,192,27965,1,4,0:0:0:0:
256,192,28822,1,0,0:0:0:0:
256,192,29679,1,0,0:0:0:0:
256,192,30108,1,8,0:0:0:0:
256,192,30537,1,8,0:0:0:0:
256,192,30965,1,0,0:0:0:0:
256,192,31394,1,4,0:0:0:0:
256,192,32251,1,8,0:0:0:0:
256,192,33108,1,0,0:0:0:0:
256,192,33537,1,8,0:0:0:0:
256,192,33965,1,8,0:0:0:0:
256,192,34394,1,0,0:0:0:0:
256,192,34822,1,4,0:0:0:0:
256,192,35251,1,0,0:0:0:0:
256,192,35465,1,0,0:0:0:0:
256,192,35679,1,8,0:0:0:0:
256,192,36108,1,0,0:0:0:0:
256,192,36537,1,8,0:0:0:0:
256,192,36965,1,0,0:0:0:0:
256,192,37394,1,8,0:0:0:0:
256,192,37822,1,0,0:0:0:0:
256,192,38037,1,0,0:0:0:0:
256,192,38251,1,8,0:0:0:0:
256,192,38679,1,0,0:0:0:0:
256,192,38894,1,0,0:0:0:0:
256,192,39108,1,8,0:0:0:0:
256,192,39537,1,8,0:0:0:0:
256,192,39751,1,8,0:0:0:0:
256,192,39965,1,0,0:0:0:0:
256,192,40394,1,8,0:0:0:0:
256,192,40822,1,8,0:0:0:0:
256,192,41679,1,4,0:0:0:0:
256,192,42108,1,8,0:0:0:0:
256,192,42537,1,0,0:0:0:0:
256,192,42751,1,0,0:0:0:0:
256,192,42965,1,8,0:0:0:0:
296,264,43394,1,0,0:0:0:0:
256,192,43822,1,8,0:0:0:0:
256,192,44251,1,0,0:0:0:0:
256,192,44679,1,8,0:0:0:0:
256,192,44894,1,8,0:0:0:0:
256,192,45108,1,8,0:0:0:0:
256,192,45537,1,8,0:0:0:0:
256,192,45965,1,0,0:0:0:0:
256,192,46179,1,0,0:0:0:0:
256,192,46394,1,8,0:0:0:0:
256,192,46822,1,0,0:0:0:0:
256,192,47251,1,8,0:0:0:0:
256,192,47679,1,0,0:0:0:0:
256,192,48108,1,8,0:0:0:0:
256,192,48537,1,4,0:0:0:0:
256,192,49394,1,0,0:0:0:0:
256,192,49608,1,0,0:0:0:0:
256,192,49822,1,8,0:0:0:0:
296,264,50251,1,0,0:0:0:0:
256,192,50679,1,8,0:0:0:0:
256,192,51108,1,0,0:0:0:0:
256,192,51537,1,8,0:0:0:0:
256,192,51751,1,8,0:0:0:0:
256,192,51965,1,8,0:0:0:0:
256,192,52394,1,8,0:0:0:0:
256,192,52822,1,0,0:0:0:0:
256,192,53037,1,0,0:0:0:0:
256,192,53251,1,8,0:0:0:0:
256,192,53679,1,0,0:0:0:0:
256,192,54108,1,8,0:0:0:0:
256,192,54537,1,0,0:0:0:0:
256,192,54965,1,8,0:0:0:0:
256,192,55394,1,12,0:0:0:0:
