osu file format v12

[General]
AudioFilename: electionangel.mp3
AudioLeadIn: 1500
PreviewTime: 7394
Countdown: 0
SampleSet: Normal
StackLeniency: 0.7
Mode: 3
LetterboxInBreaks: 0
SpecialStyle: 0

[Editor]
DistanceSpacing: 0.6
BeatDivisor: 4
GridSize: 8

[Metadata]
Title:Election Angel, Uh!
TitleUnicode:Election Angel, Uh!
Artist:Mikuriya Wata
ArtistUnicode:御厨 わた
Creator:Stefan
Version:NM 4K
Source:
Tags:electronic angel aniki niconicodouga nico douga nnd gachimuchi vocaloid mad nijihara peperon-p hatsune miku
BeatmapID:247475
BeatmapSetID:91285

[Difficulty]
HPDrainRate:6
CircleSize:4
OverallDifficulty:6
ApproachRate:5
SliderMultiplier:1
SliderTickRate:1

[Events]
//Background and Video events
0,0,"electionbkg2.jpg",0,0
//Break Periods
//Storyboard Layer 0 (Background)
//Storyboard Layer 1 (Fail)
//Storyboard Layer 2 (Pass)
//Storyboard Layer 3 (Foreground)
//Storyboard Sound Samples
//Background Colour Transformations
3,100,163,162,255

[TimingPoints]
537,428.571428571429,4,1,1,75,1,0
2251,-100,4,2,0,5,0,0
6965,-100,4,3,0,75,0,0
7394,-100,4,1,1,75,0,0
41679,-100,4,1,1,75,0,1
55394,-100,4,1,1,75,0,0

[Colours]
Combo1 : 196,163,74
Combo2 : 122,122,122
Combo3 : 150,102,86
Combo4 : 219,219,219

[HitObjects]
51,192,537,128,4,2251:0:0:0:0:
358,192,2251,1,2,0:0:0:0:
448,192,2465,1,2,0:0:0:0:
51,192,2679,1,0,0:0:0:0:
153,192,2894,1,0,0:0:0:0:
256,192,3108,128,0,3965:0:0:0:0:
51,192,3965,1,0,0:0:0:0:
460,192,4394,1,0,0:0:0:0:
153,192,4608,1,0,0:0:0:0:
358,192,5037,1,0,0:0:0:0:
153,192,5251,128,0,5465:0:0:0:0:
460,192,5679,1,0,0:0:0:0:
358,192,5894,1,0,0:0:0:0:
153,192,6108,1,0,0:0:0:0:
153,192,6537,1,2,0:0:0:0:
51,192,6751,1,2,0:0:0:0:
460,192,6965,1,2,0:0:0:0:
358,192,7179,1,0,0:0:0:0:
256,192,7394,1,4,0:0:0:0:
448,192,7394,1,4,3:0:0:0:
51,192,7822,1,2,0:0:0:0:
358,192,8251,1,0,0:0:0:0:
460,192,8465,1,0,0:0:0:0:
51,192,8679,1,2,0:0:0:0:
153,192,9108,1,0,0:0:0:0:
256,192,9537,1,2,0:0:0:0:
153,192,9965,1,0,0:0:0:0:
153,192,10179,1,0,0:0:0:0:
256,192,10394,1,2,0:0:0:0:
64,192,10608,1,0,0:0:0:0:
256,192,10822,1,4,0:0:0:0:
448,192,10822,1,0,0:0:0:0:
51,192,11250,1,2,0:0:0:0:
358,192,11679,1,0,0:0:0:0:
460,192,11893,1,0,0:0:0:0:
51,192,12107,1,2,0:0:0:0:
460,192,12537,128,0,14251:0:0:0:0:
153,192,12537,1,0,0:0:0:0:
51,192,12965,1,2,0:0:0:0:
192,192,13394,1,4,3:0:0:0:
51,192,13822,1,2,0:0:0:0:
256,192,13822,1,0,0:0:0:0:
153,192,14037,1,0,0:0:0:0:
51,192,14251,128,4,14679:0:0:0:0:
153,192,14679,1,0,0:0:0:0:
358,192,14894,1,0,0:0:0:0:
460,192,15108,128,2,15537:0:0:0:0:
358,192,15537,1,2,0:0:0:0:
153,192,15752,1,0,0:0:0:0:
358,192,15966,1,0,0:0:0:0:
153,192,16179,1,0,0:0:0:0:
51,192,16394,1,2,0:0:0:0:
460,192,16608,1,0,0:0:0:0:
358,192,16822,128,2,17251:0:0:0:0:
51,192,17251,1,2,0:0:0:0:
358,192,17465,1,0,0:0:0:0:
153,192,17679,128,0,18108:0:0:0:0:
460,192,18108,1,2,0:0:0:0:
153,192,18322,1,0,0:0:0:0:
358,192,18537,128,0,18966:0:0:0:0:
51,192,18965,128,2,19394:0:0:0:0:
358,192,19394,1,2,0:0:0:0:
153,192,19608,1,0,0:0:0:0:
358,192,19822,1,2,0:0:0:0:
460,192,20037,1,0,0:0:0:0:
51,192,20251,128,2,20679:0:0:0:0:
358,192,20679,5,8,0:0:0:0:
153,192,20894,1,0,0:0:0:0:
460,192,21108,128,4,21537:0:0:0:0:
153,192,21537,5,8,0:0:0:0:
358,192,21752,1,0,0:0:0:0:
51,192,21965,128,8,22394:0:0:0:0:
153,192,22394,5,8,0:0:0:0:
358,192,22609,1,0,0:0:0:0:
460,192,22822,1,8,0:0:0:0:
358,192,23037,1,0,0:0:0:0:
51,192,23251,1,8,0:0:0:0:
153,192,23465,1,0,0:0:0:0:
460,192,23679,128,8,24108:0:0:0:0:
358,192,24108,1,8,0:0:0:0:
153,192,24322,1,0,0:0:0:0:
51,192,24537,1,0,0:0:0:0:
358,192,24751,1,0,0:0:0:0:
460,192,24965,1,8,0:0:0:0:
153,192,25179,1,0,0:0:0:0:
51,192,25394,128,2,25822:0:0:0:0:
153,192,25822,1,8,0:0:0:0:
358,192,26036,1,0,0:0:0:0:
51,192,26251,1,0,0:0:0:0:
51,192,26679,1,8,0:0:0:0:
256,192,27108,1,0,0:0:0:0:
153,192,27537,1,10,0:0:0:0:
358,192,27537,1,0,0:0:0:0:
51,192,27965,1,4,0:0:0:0:
460,192,28822,1,4,0:0:0:0:
51,192,29679,1,4,0:0:0:0:
153,192,29894,1,0,0:0:0:0:
358,192,30108,1,8,0:0:0:0:
460,192,30322,1,0,0:0:0:0:
256,192,30537,1,4,0:0:0:0:
460,192,31394,1,4,0:0:0:0:
51,192,32251,1,4,0:0:0:0:
460,192,33108,1,4,0:0:0:0:
358,192,33322,1,0,0:0:0:0:
153,192,33537,1,8,0:0:0:0:
51,192,33751,1,0,0:0:0:0:
256,192,33965,1,4,0:0:0:0:
358,192,34394,1,8,0:0:0:0:
320,192,34822,1,4,0:0:0:0:
460,192,34822,1,4,3:0:0:0:
153,192,35251,1,8,0:0:0:0:
51,192,35679,1,0,0:0:0:0:
460,192,36108,1,8,0:0:0:0:
460,192,36537,1,0,0:0:0:0:
358,192,36751,1,0,0:0:0:0:
153,192,36965,1,8,0:0:0:0:
51,192,37179,1,0,0:0:0:0:
256,192,37394,1,2,0:0:0:0:
51,192,37822,1,8,0:0:0:0:
153,192,38037,1,0,0:0:0:0:
460,192,38251,1,0,0:0:0:0:
358,192,38466,1,0,0:0:0:0:
153,192,38679,1,8,0:0:0:0:
51,192,38894,1,0,0:0:0:0:
256,192,39108,1,2,0:0:0:0:
358,192,39537,1,8,0:0:0:0:
51,192,39965,1,0,0:0:0:0:
153,192,39965,1,0,0:0:0:0:
51,192,40394,1,8,0:0:0:0:
153,192,40394,1,0,0:0:0:0:
460,192,40822,1,0,0:0:0:0:
358,192,40822,1,0,0:0:0:0:
256,192,41251,1,2,0:0:0:0:
64,192,41679,1,4,0:0:0:0:
192,192,41679,1,4,3:0:0:0:
358,192,42108,1,0,0:0:0:0:
460,192,42108,1,2,0:0:0:0:
153,192,42537,1,0,0:0:0:0:
460,192,42751,1,0,0:0:0:0:
358,192,42965,1,2,0:0:0:0:
448,192,42965,1,0,0:0:0:0:
51,192,43394,1,0,0:0:0:0:
153,192,43608,1,0,0:0:0:0:
320,192,43822,1,0,0:0:0:0:
448,192,43822,1,2,0:0:0:0:
358,192,44251,1,0,0:0:0:0:
460,192,44465,1,0,0:0:0:0:
153,192,44679,1,2,0:0:0:0:
51,192,44894,1,0,0:0:0:0:
256,192,45108,1,0,0:0:0:0:
358,192,45537,1,2,0:0:0:0:
448,192,45537,1,0,0:0:0:0:
153,192,45965,1,0,0:0:0:0:
51,192,46179,1,0,0:0:0:0:
448,192,46394,1,2,0:0:0:0:
358,192,46822,1,0,0:0:0:0:
51,192,46822,128,0,48537:0:0:0:0:
460,192,47036,1,0,0:0:0:0:
358,192,47251,1,2,0:0:0:0:
448,192,47251,1,0,0:0:0:0:
460,192,47679,1,0,0:0:0:0:
358,192,48108,1,2,0:0:0:0:
460,192,48108,1,0,0:0:0:0:
256,192,48537,1,4,0:0:0:0:
448,192,48537,1,4,3:0:0:0:
153,192,48965,1,0,0:0:0:0:
51,192,48965,1,2,0:0:0:0:
153,192,49394,1,0,0:0:0:0:
460,192,49608,1,0,0:0:0:0:
358,192,49822,1,2,0:0:0:0:
51,192,50251,1,0,0:0:0:0:
153,192,50465,1,0,0:0:0:0:
460,192,50679,1,2,0:0:0:0:
320,192,50679,1,0,0:0:0:0:
153,192,51108,1,0,0:0:0:0:
51,192,51322,1,0,0:0:0:0:
358,192,51537,1,2,0:0:0:0:
460,192,51751,1,0,0:0:0:0:
256,192,51965,1,0,0:0:0:0:
460,192,52394,1,2,0:0:0:0:
320,192,52394,1,0,0:0:0:0:
153,192,52822,1,0,0:0:0:0:
460,192,53036,1,0,0:0:0:0:
358,192,53250,1,2,0:0:0:0:
51,192,53679,1,0,0:0:0:0:
153,192,53893,1,0,0:0:0:0:
460,192,54107,1,2,0:0:0:0:
460,192,54537,1,0,0:0:0:0:
358,192,54751,1,0,0:0:0:0:
51,192,54965,1,2,0:0:0:0:
153,192,55179,1,0,0:0:0:0:
256,192,55395,1,0,0:0:0:0:
