osu file format v12

[General]
AudioFilename: gtTnzb4OW4TC.128.mp3
AudioLeadIn: 0
PreviewTime: -1
Countdown: 1
SampleSet: Soft
StackLeniency: 0.7
Mode: 0
LetterboxInBreaks: 0
EpilepsyWarning: 1

[Editor]
DistanceSpacing: 0.3
BeatDivisor: 4
GridSize: 8

[Metadata]
Title:Aqua and Spaceship
TitleUnicode:Aqua and Spaceship
Artist:Miku Hatsune
ArtistUnicode:Miku Hatsune
Creator:Xgor
Version:Xg0108style
Source:
Tags:
BeatmapID:235863
BeatmapSetID:85979

[Difficulty]
HPDrainRate:8
CircleSize:3
OverallDifficulty:10
ApproachRate:10
SliderMultiplier:1.8
SliderTickRate:1

[Events]
//Background and Video events
0,0,"hatsune-miku-chrie-E2-99-A5-32011805-1024-768.jpg",1,1
//Break Periods
2,84132,92345
//Storyboard Layer 0 (Background)
//Storyboard Layer 1 (Fail)
//Storyboard Layer 2 (Pass)
//Storyboard Layer 3 (Foreground)
//Storyboard Sound Samples
//Background Colour Transformations
3,100,163,162,255

[TimingPoints]
5523,272.727272727273,4,2,0,100,1,0
12068,-50,4,2,0,100,0,0
14523,-66.6666666666667,4,2,0,100,0,0
33886,-200,4,2,0,100,0,0
36068,-66.6666666666667,4,2,0,100,0,0
38250,-200,4,2,0,100,0,0
39341,-100,4,2,0,100,0,0
40432,-66.6666666666667,4,2,0,100,0,0
68795,-200,4,2,0,100,0,0
70977,-66.6666666666667,4,2,0,100,0,0
73295,-100,4,2,0,100,0,0
75341,-66.6666666666667,4,2,0,100,0,0
92795,-200,4,2,0,100,0,0
99341,-50,4,2,0,100,0,0

[HitObjects]
448,72,5522,1,2,0:1:0:0:
368,312,5659,1,2,0:1:0:0:
144,312,5795,1,2,0:1:0:0:
184,251,5932,1,2,0:1:0:0:
64,312,6613,5,2,0:1:0:0:
144,72,6750,1,2,0:1:0:0:
368,72,6886,1,2,0:1:0:0:
448,312,7023,1,2,0:1:0:0:
64,72,7704,5,2,0:1:0:0:
144,312,7841,1,2,0:1:0:0:
368,312,7977,1,2,0:1:0:0:
448,72,8114,1,2,0:1:0:0:
448,312,8795,5,2,0:1:0:0:
368,72,8932,1,2,0:1:0:0:
144,72,9068,1,2,0:1:0:0:
64,312,9205,1,2,0:1:0:0:
256,192,9613,1,2,0:1:0:0:
256,0,12068,6,2,L|256:360,3,360
48,112,13159,1,2,0:1:0:0:
24,248,13295,1,2,0:1:0:0:
56,280,13363,1,2,0:1:0:0:
88,312,13432,1,10,0:1:0:0:
136,328,13500,1,2,0:1:0:0:
176,336,13568,1,2,0:1:0:0:
224,328,13636,1,2,0:1:0:0:
224,280,13704,1,2,0:1:0:0:
224,232,13773,1,2,0:1:0:0:
192,200,13841,1,2,0:1:0:0:
184,160,13909,1,2,0:1:0:0:
208,120,13977,1,10,0:1:0:0:
248,136,14045,1,2,0:1:0:0:
288,160,14113,1,2,0:1:0:0:
304,200,14182,1,2,0:1:0:0:
320,240,14250,1,2,0:1:0:0:
464,296,14523,6,2,P|480:176|376:72,1,270.000010299683,8|0,0:0|0:0,0:1:0:0:
64,320,15068,1,10,0:1:0:0:
120,248,15204,1,2,0:1:0:0:
104,200,15273,1,2,0:1:0:0:
96,152,15341,1,2,0:1:0:0:
48,40,15477,1,2,0:1:0:0:
464,344,15613,1,10,0:1:0:0:
48,344,15750,1,2,0:1:0:0:
464,40,15886,1,2,0:1:0:0:
432,160,16023,2,2,P|232:232|136:184,1,270.000010299683,8|0,0:0|0:0,0:1:0:0:
152,112,16432,1,2,0:1:0:0:
296,40,16568,1,2,0:1:0:0:
208,328,16841,1,2,0:1:0:0:
384,224,16977,1,10,0:1:0:0:
24,160,17386,1,2,0:1:0:0:
120,312,17523,1,2,0:1:0:0:
432,288,17932,1,2,0:1:0:0:
240,192,18068,1,2,0:1:0:0:
240,192,18136,1,2,0:1:0:0:
240,192,18204,1,2,0:1:0:0:
240,192,18273,1,2,0:1:0:0:
240,192,18341,1,10,0:1:0:0:
240,192,18409,1,2,0:1:0:0:
240,192,18477,1,2,0:1:0:0:
240,192,18545,1,2,0:1:0:0:
240,192,18613,1,2,0:1:0:0:
48,296,18887,6,2,P|32:176|136:72,1,270.000010299683,8|0,0:0|0:0,0:1:0:0:
448,320,19432,1,10,0:1:0:0:
392,248,19568,1,2,0:1:0:0:
408,200,19637,1,2,0:1:0:0:
416,152,19705,1,2,0:1:0:0:
464,40,19841,1,2,0:1:0:0:
48,344,19977,1,10,0:1:0:0:
464,344,20114,1,2,0:1:0:0:
48,40,20250,1,2,0:1:0:0:
80,160,20387,2,2,P|280:232|376:184,1,270.000010299683,8|0,0:0|0:0,0:1:0:0:
360,112,20796,1,2,0:1:0:0:
216,40,20932,1,2,0:1:0:0:
304,328,21205,1,2,0:1:0:0:
128,224,21341,1,10,0:1:0:0:
488,160,21750,1,2,0:1:0:0:
392,312,21887,1,2,0:1:0:0:
80,288,22296,1,2,0:1:0:0:
272,192,22432,1,2,0:1:0:0:
272,192,22500,1,2,0:1:0:0:
272,192,22568,1,2,0:1:0:0:
272,192,22637,1,2,0:1:0:0:
272,192,22705,1,10,0:1:0:0:
272,192,22773,1,2,0:1:0:0:
272,192,22841,1,2,0:1:0:0:
272,192,22909,1,2,0:1:0:0:
272,192,22977,1,2,0:1:0:0:
464,88,23250,6,2,P|480:208|376:312,1,270.000010299683,8|0,0:0|0:0,0:1:0:0:
64,64,23795,1,10,0:1:0:0:
120,136,23931,1,2,0:1:0:0:
104,184,24000,1,2,0:1:0:0:
96,232,24068,1,2,0:1:0:0:
48,344,24204,1,2,0:1:0:0:
464,40,24340,1,10,0:1:0:0:
48,40,24477,1,2,0:1:0:0:
464,344,24613,1,2,0:1:0:0:
432,224,24750,2,2,P|232:152|136:200,1,270.000010299683,8|0,0:0|0:0,0:1:0:0:
152,272,25159,1,2,0:1:0:0:
296,344,25295,1,2,0:1:0:0:
208,56,25568,1,2,0:1:0:0:
384,160,25704,1,10,0:1:0:0:
24,224,26113,1,2,0:1:0:0:
120,72,26250,1,2,0:1:0:0:
432,96,26659,1,2,0:1:0:0:
240,192,26795,1,2,0:1:0:0:
240,192,26863,1,2,0:1:0:0:
240,192,26931,1,2,0:1:0:0:
240,192,27000,1,2,0:1:0:0:
240,192,27068,1,10,0:1:0:0:
240,192,27136,1,2,0:1:0:0:
240,192,27204,1,2,0:1:0:0:
240,192,27272,1,2,0:1:0:0:
240,192,27340,1,2,0:1:0:0:
48,88,27614,6,2,P|32:208|136:312,1,270.000010299683,8|0,0:0|0:0,0:1:0:0:
448,64,28159,1,10,0:1:0:0:
392,136,28295,1,2,0:1:0:0:
408,184,28364,1,2,0:1:0:0:
416,232,28432,1,2,0:1:0:0:
464,344,28568,1,2,0:1:0:0:
48,40,28704,1,10,0:1:0:0:
464,40,28841,1,2,0:1:0:0:
48,344,28977,1,2,0:1:0:0:
80,224,29114,2,2,P|280:152|376:200,1,270.000010299683,8|0,0:0|0:0,0:1:0:0:
360,272,29523,1,2,0:1:0:0:
216,344,29659,1,2,0:1:0:0:
304,56,29932,1,2,0:1:0:0:
128,160,30068,1,10,0:1:0:0:
488,224,30477,1,2,0:1:0:0:
392,72,30614,1,10,0:1:0:0:
80,96,31023,1,2,0:1:0:0:
272,192,31159,1,2,0:1:0:0:
272,192,31227,1,2,0:1:0:0:
272,192,31295,1,2,0:1:0:0:
272,192,31364,1,2,0:1:0:0:
272,192,31432,1,10,0:1:0:0:
272,192,31500,1,2,0:1:0:0:
272,192,31568,1,2,0:1:0:0:
240,336,31704,6,2,L|512:336,1,270.000010299683
40,32,32113,1,2,0:1:0:0:
256,56,32523,1,2,0:1:0:0:
256,88,32591,1,2,0:1:0:0:
256,120,32659,1,2,0:1:0:0:
256,152,32727,1,2,0:1:0:0:
272,336,32795,6,2,L|0:336,1,270.000010299683
472,32,33204,1,2,0:1:0:0:
256,56,33614,1,2,0:1:0:0:
256,88,33682,1,2,0:1:0:0:
256,120,33750,1,2,0:1:0:0:
256,152,33818,1,2,0:1:0:0:
264,296,33886,6,2,L|416:296,1,135
360,120,34432,1,2,0:1:0:0:
352,224,34568,2,2,L|256:224,1,90
200,256,34977,1,2,0:1:0:0:
200,256,35795,1,2,0:1:0:0:
272,336,36068,6,2,L|0:336,1,270.000010299683
472,32,36477,1,2,0:1:0:0:
256,56,36887,1,2,0:1:0:0:
256,88,36955,1,2,0:1:0:0:
256,120,37023,1,2,0:1:0:0:
256,152,37091,1,2,0:1:0:0:
240,336,37159,6,2,L|512:336,1,270.000010299683
40,32,37568,1,2,0:1:0:0:
256,56,37978,1,2,0:1:0:0:
256,88,38046,1,2,0:1:0:0:
256,120,38114,1,2,0:1:0:0:
256,152,38182,1,2,0:1:0:0:
248,296,38250,6,2,L|96:296,1,135
48,232,38795,1,2,0:1:0:0:
496,360,38932,1,2,0:1:0:0:
464,96,39341,2,2,L|336:96,1,90
56,104,39613,2,2,L|112:184,1,90
384,344,39886,2,2,L|344:192,1,90
88,336,40159,2,2,L|160:264,1,90
24,56,40432,5,2,0:1:0:0:
440,56,40568,1,2,0:1:0:0:
144,168,40704,1,2,0:1:0:0:
504,144,40841,1,2,0:1:0:0:
0,304,41113,1,2,0:1:0:0:
256,64,41250,1,2,0:1:0:0:
256,64,41386,1,2,0:1:0:0:
24,96,41523,5,2,0:1:0:0:
440,96,41659,1,2,0:1:0:0:
144,208,41795,1,2,0:1:0:0:
504,184,41932,1,2,0:1:0:0:
104,376,42341,1,2,0:1:0:0:
144,376,42409,1,2,0:1:0:0:
192,376,42477,1,2,0:1:0:0:
232,376,42545,1,2,0:1:0:0:
272,376,42613,2,2,L|208:232,1,135.000005149842
496,304,42886,2,2,L|360:368,1,135.000005149842
184,72,43159,2,2,L|64:152,1,135.000005149842
424,168,43432,2,2,L|488:40,1,135.000005149842
352,64,43704,5,2,0:1:0:0:
128,96,43841,1,2,0:1:0:0:
160,320,43977,1,2,0:1:0:0:
384,288,44113,1,2,0:1:0:0:
278,33,44250,5,2,0:1:0:0:
414,214,44387,1,2,0:1:0:0:
233,350,44523,1,2,0:1:0:0:
97,169,44659,1,2,0:1:0:0:
488,56,44795,5,2,0:1:0:0:
72,56,44931,1,2,0:1:0:0:
368,168,45067,1,2,0:1:0:0:
8,144,45204,1,2,0:1:0:0:
512,304,45476,1,2,0:1:0:0:
256,64,45613,1,2,0:1:0:0:
256,64,45749,1,2,0:1:0:0:
488,96,45886,5,2,0:1:0:0:
72,96,46022,1,2,0:1:0:0:
368,208,46158,1,2,0:1:0:0:
8,184,46295,1,2,0:1:0:0:
408,376,46704,1,2,0:1:0:0:
368,376,46772,1,2,0:1:0:0:
320,376,46840,1,2,0:1:0:0:
280,376,46908,1,2,0:1:0:0:
240,376,46976,2,2,L|304:232,1,135.000005149842
16,304,47249,2,2,L|152:368,1,135.000005149842
328,72,47522,2,2,L|448:152,1,135.000005149842
88,168,47795,2,2,L|24:40,1,135.000005149842
256,192,48068,12,2,49023,0:1:0:0:
464,296,49432,6,2,P|480:176|376:72,1,270.000010299683,8|0,0:0|0:0,0:1:0:0:
64,320,49977,1,10,0:1:0:0:
120,248,50113,1,2,0:1:0:0:
104,200,50182,1,2,0:1:0:0:
96,152,50250,1,2,0:1:0:0:
48,40,50386,1,2,0:1:0:0:
464,344,50522,1,10,0:1:0:0:
48,344,50659,1,2,0:1:0:0:
464,40,50795,1,2,0:1:0:0:
432,160,50932,2,2,P|232:232|136:184,1,270.000010299683,8|0,0:0|0:0,0:1:0:0:
152,112,51341,1,2,0:1:0:0:
296,40,51477,1,2,0:1:0:0:
208,328,51750,1,2,0:1:0:0:
384,224,51886,1,10,0:1:0:0:
24,160,52295,1,2,0:1:0:0:
120,312,52432,1,2,0:1:0:0:
432,288,52841,1,2,0:1:0:0:
240,192,52977,1,2,0:1:0:0:
240,192,53045,1,2,0:1:0:0:
240,192,53113,1,2,0:1:0:0:
240,192,53182,1,2,0:1:0:0:
240,192,53250,1,10,0:1:0:0:
240,192,53318,1,2,0:1:0:0:
240,192,53386,1,2,0:1:0:0:
240,192,53454,1,2,0:1:0:0:
240,192,53522,1,2,0:1:0:0:
240,192,53591,1,2,0:1:0:0:
240,192,53659,1,2,0:1:0:0:
48,296,53795,6,2,P|32:176|136:72,1,270.000010299683,8|0,0:0|0:0,0:1:0:0:
448,320,54340,1,10,0:1:0:0:
392,248,54476,1,2,0:1:0:0:
408,200,54545,1,2,0:1:0:0:
416,152,54613,1,2,0:1:0:0:
464,40,54749,1,2,0:1:0:0:
48,344,54885,1,10,0:1:0:0:
464,344,55022,1,2,0:1:0:0:
48,40,55158,1,2,0:1:0:0:
80,160,55295,2,2,P|280:232|376:184,1,270.000010299683,8|0,0:0|0:0,0:1:0:0:
360,112,55704,1,2,0:1:0:0:
216,40,55840,1,2,0:1:0:0:
304,328,56113,1,2,0:1:0:0:
128,224,56249,1,10,0:1:0:0:
488,160,56658,1,2,0:1:0:0:
392,312,56795,1,2,0:1:0:0:
80,288,57340,1,2,0:1:0:0:
272,192,57476,1,2,0:1:0:0:
272,192,57544,1,2,0:1:0:0:
272,192,57612,1,2,0:1:0:0:
272,192,57681,1,2,0:1:0:0:
272,192,57749,1,10,0:1:0:0:
272,192,57817,1,2,0:1:0:0:
272,192,57885,1,2,0:1:0:0:
344,64,58022,1,2,0:1:0:0:
464,88,58159,6,2,P|480:208|376:312,1,270.000010299683,8|0,0:0|0:0,0:1:0:0:
64,64,58704,1,10,0:1:0:0:
120,136,58840,1,2,0:1:0:0:
104,184,58909,1,2,0:1:0:0:
96,232,58977,1,2,0:1:0:0:
48,344,59113,1,2,0:1:0:0:
464,40,59249,1,10,0:1:0:0:
48,40,59386,1,2,0:1:0:0:
464,344,59522,1,2,0:1:0:0:
432,224,59659,2,2,P|232:152|136:200,1,270.000010299683,8|0,0:0|0:0,0:1:0:0:
152,272,60068,1,2,0:1:0:0:
296,344,60204,1,2,0:1:0:0:
208,56,60477,1,2,0:1:0:0:
384,160,60613,1,10,0:1:0:0:
24,224,61022,1,2,0:1:0:0:
120,72,61159,1,2,0:1:0:0:
432,96,61568,1,2,0:1:0:0:
240,192,61704,1,2,0:1:0:0:
240,192,61772,1,2,0:1:0:0:
240,192,61840,1,2,0:1:0:0:
240,192,61909,1,2,0:1:0:0:
240,192,61977,1,10,0:1:0:0:
240,192,62045,1,2,0:1:0:0:
240,192,62113,1,2,0:1:0:0:
240,192,62181,1,2,0:1:0:0:
240,192,62249,1,2,0:1:0:0:
48,88,62523,6,2,P|32:208|136:312,1,270.000010299683,8|0,0:0|0:0,0:1:0:0:
448,64,63068,1,10,0:1:0:0:
392,136,63204,1,2,0:1:0:0:
408,184,63273,1,2,0:1:0:0:
416,232,63341,1,2,0:1:0:0:
464,344,63477,1,2,0:1:0:0:
48,40,63613,1,10,0:1:0:0:
464,40,63750,1,2,0:1:0:0:
48,344,63886,1,2,0:1:0:0:
80,224,64023,2,2,P|280:152|376:200,1,270.000010299683,8|0,0:0|0:0,0:1:0:0:
360,272,64432,1,2,0:1:0:0:
216,344,64568,1,2,0:1:0:0:
304,56,64841,1,2,0:1:0:0:
128,160,64977,1,10,0:1:0:0:
488,224,65386,1,2,0:1:0:0:
392,72,65523,1,2,0:1:0:0:
80,96,65932,1,2,0:1:0:0:
272,192,66068,1,2,0:1:0:0:
272,192,66136,1,2,0:1:0:0:
272,192,66204,1,2,0:1:0:0:
272,192,66273,1,2,0:1:0:0:
272,192,66341,1,10,0:1:0:0:
272,192,66409,1,2,0:1:0:0:
272,192,66477,1,2,0:1:0:0:
272,336,66613,6,2,L|0:336,1,270.000010299683
472,32,67022,1,2,0:1:0:0:
256,56,67432,1,2,0:1:0:0:
256,88,67500,1,2,0:1:0:0:
256,120,67568,1,2,0:1:0:0:
256,152,67636,1,2,0:1:0:0:
240,336,67704,6,2,L|512:336,1,270.000010299683
40,32,68113,1,2,0:1:0:0:
256,56,68523,1,2,0:1:0:0:
256,88,68591,1,2,0:1:0:0:
256,120,68659,1,2,0:1:0:0:
256,152,68727,1,2,0:1:0:0:
248,352,68795,5,2,0:1:0:0:
152,120,69341,1,2,0:1:0:0:
160,224,69477,2,2,L|256:224,1,90
312,256,69886,1,2,0:1:0:0:
312,256,70704,1,2,0:1:0:0:
240,336,70977,6,2,L|512:336,1,270.000010299683
40,32,71386,1,2,0:1:0:0:
256,56,71796,1,2,0:1:0:0:
256,88,71864,1,2,0:1:0:0:
256,120,71932,1,2,0:1:0:0:
256,152,72000,1,2,0:1:0:0:
272,336,72068,6,2,L|0:336,1,270.000010299683
472,32,72477,1,2,0:1:0:0:
40,32,72750,1,2,0:1:0:0:
256,56,72887,1,2,0:1:0:0:
256,88,72955,1,2,0:1:0:0:
256,120,73023,1,2,0:1:0:0:
256,152,73091,1,2,0:1:0:0:
264,296,73159,6,2,L|416:296,1,135
464,232,73704,1,2,0:1:0:0:
16,360,73841,1,2,0:1:0:0:
48,96,74250,2,2,L|176:96,1,90
456,104,74522,2,2,L|400:184,1,90
128,344,74795,2,2,L|168:192,1,90
424,336,75068,2,2,L|352:264,1,90
488,56,75341,5,2,0:1:0:0:
72,56,75477,1,2,0:1:0:0:
368,168,75613,1,2,0:1:0:0:
8,144,75750,1,2,0:1:0:0:
512,304,76022,1,2,0:1:0:0:
256,64,76159,1,2,0:1:0:0:
256,64,76295,1,2,0:1:0:0:
488,96,76432,5,2,0:1:0:0:
72,96,76568,1,2,0:1:0:0:
368,208,76704,1,2,0:1:0:0:
8,184,76841,1,2,0:1:0:0:
408,376,77250,1,2,0:1:0:0:
368,376,77318,1,2,0:1:0:0:
320,376,77386,1,2,0:1:0:0:
280,376,77454,1,2,0:1:0:0:
240,376,77522,2,2,L|304:232,1,135.000005149842
16,304,77795,2,2,L|152:368,1,135.000005149842
328,72,78068,2,2,L|448:152,1,135.000005149842
88,168,78341,2,2,L|24:40,1,135.000005149842
160,64,78613,5,2,0:1:0:0:
384,96,78750,1,2,0:1:0:0:
352,320,78886,1,2,0:1:0:0:
128,288,79022,1,2,0:1:0:0:
233,33,79159,5,2,0:1:0:0:
97,214,79296,1,2,0:1:0:0:
278,350,79432,1,2,0:1:0:0:
414,169,79568,1,2,0:1:0:0:
24,56,79704,5,2,0:1:0:0:
440,56,79840,1,2,0:1:0:0:
144,168,79976,1,2,0:1:0:0:
504,144,80113,1,2,0:1:0:0:
0,304,80385,1,2,0:1:0:0:
256,64,80522,1,2,0:1:0:0:
256,64,80658,1,2,0:1:0:0:
24,96,80795,5,2,0:1:0:0:
440,96,80931,1,2,0:1:0:0:
144,208,81067,1,2,0:1:0:0:
504,184,81204,1,2,0:1:0:0:
104,376,81613,1,2,0:1:0:0:
144,376,81681,1,2,0:1:0:0:
192,376,81749,1,2,0:1:0:0:
232,376,81817,1,2,0:1:0:0:
272,376,81885,2,2,L|208:232,1,135.000005149842
496,304,82158,2,2,L|360:368,1,135.000005149842
184,72,82431,2,2,L|64:152,1,135.000005149842
424,168,82704,2,2,L|488:40,1,135.000005149842
256,192,82977,12,2,83932,0:1:0:0:
48,24,92795,6,2,L|48:176,1,135
456,352,93341,2,2,L|456:288,1,45
448,32,93613,2,2,L|448:144,1,90
256,192,94022,1,2,0:1:0:0:
56,336,94158,2,2,L|56:232,1,90
328,88,94705,1,2,0:1:0:0:
360,72,94773,1,2,0:1:0:0:
392,56,94841,1,2,0:1:0:0:
424,40,94909,1,2,0:1:0:0:
464,24,94977,6,2,L|464:176,1,135
56,352,95523,2,2,L|56:288,1,45
64,32,95795,2,2,L|64:88,1,45
8,352,96068,1,2,0:1:0:0:
504,360,96204,1,2,0:1:0:0:
8,264,96341,1,2,0:1:0:0:
504,272,96477,1,2,0:1:0:0:
8,176,96613,1,2,0:1:0:0:
504,176,96750,1,2,0:1:0:0:
8,88,96886,1,2,0:1:0:0:
504,88,97023,1,2,0:1:0:0:
96,64,97159,5,2,0:1:0:0:
120,80,97227,1,2,0:1:0:0:
152,96,97295,1,2,0:1:0:0:
184,104,97363,1,2,0:1:0:0:
216,104,97432,1,2,0:1:0:0:
248,96,97500,1,2,0:1:0:0:
280,88,97568,1,2,0:1:0:0:
304,72,97636,1,2,0:1:0:0:
336,64,97704,1,2,0:1:0:0:
368,72,97773,1,2,0:1:0:0:
400,88,97841,1,2,0:1:0:0:
424,112,97909,1,2,0:1:0:0:
432,144,97977,2,2,L|432:336,1,180
176,328,99068,1,2,0:1:0:0:
144,328,99136,1,2,0:1:0:0:
112,328,99204,1,2,0:1:0:0:
80,328,99273,1,2,0:1:0:0:
40,328,99341,6,2,L|40:136,1,180
456,288,99613,2,2,L|256:256,1,180
312,40,99886,2,2,L|488:144,1,180
112,200,100159,2,2,L|208:48,1,180
504,120,100432,1,2,0:1:0:0:
472,304,100568,1,2,0:1:0:0:
24,280,100704,1,2,0:1:0:0:
80,64,100841,1,2,0:1:0:0:
376,336,100977,1,2,0:1:0:0:
168,336,101114,1,2,0:1:0:0:
416,40,101250,1,2,0:1:0:0:
200,32,101386,1,2,0:1:0:0:
464,296,101795,6,2,P|480:176|376:72,1,270.000010299683,8|0,0:0|0:0,0:1:0:0:
64,320,102340,1,10,0:1:0:0:
120,248,102476,1,2,0:1:0:0:
104,200,102545,1,2,0:1:0:0:
96,152,102613,1,2,0:1:0:0:
48,40,102749,1,2,0:1:0:0:
464,344,102885,1,10,0:1:0:0:
48,344,103022,1,2,0:1:0:0:
464,40,103158,1,2,0:1:0:0:
432,160,103295,2,2,P|232:232|136:184,1,270.000010299683,8|0,0:0|0:0,0:1:0:0:
152,112,103704,1,2,0:1:0:0:
296,40,103840,1,2,0:1:0:0:
208,328,104113,1,2,0:1:0:0:
384,224,104249,1,10,0:1:0:0:
24,160,104658,1,2,0:1:0:0:
120,312,104795,1,2,0:1:0:0:
432,288,105204,1,2,0:1:0:0:
240,192,105340,1,2,0:1:0:0:
240,192,105408,1,2,0:1:0:0:
240,192,105476,1,2,0:1:0:0:
240,192,105545,1,2,0:1:0:0:
240,192,105613,1,10,0:1:0:0:
240,192,105681,1,2,0:1:0:0:
240,192,105749,1,2,0:1:0:0:
240,192,105817,1,2,0:1:0:0:
240,192,105885,1,2,0:1:0:0:
48,296,106159,6,2,P|32:176|136:72,1,270.000010299683,8|0,0:0|0:0,0:1:0:0:
448,320,106704,1,10,0:1:0:0:
392,248,106840,1,2,0:1:0:0:
408,200,106909,1,2,0:1:0:0:
416,152,106977,1,2,0:1:0:0:
464,40,107113,1,2,0:1:0:0:
48,344,107249,1,10,0:1:0:0:
464,344,107386,1,2,0:1:0:0:
48,40,107522,1,2,0:1:0:0:
80,160,107659,2,2,P|280:232|376:184,1,270.000010299683,8|0,0:0|0:0,0:1:0:0:
360,112,108068,1,2,0:1:0:0:
216,40,108204,1,2,0:1:0:0:
304,328,108477,1,2,0:1:0:0:
128,224,108613,1,10,0:1:0:0:
488,160,109022,1,2,0:1:0:0:
392,312,109159,1,2,0:1:0:0:
80,288,109568,1,2,0:1:0:0:
272,192,109704,1,2,0:1:0:0:
272,192,109772,1,2,0:1:0:0:
272,192,109840,1,2,0:1:0:0:
272,192,109909,1,2,0:1:0:0:
272,192,109977,1,10,0:1:0:0:
272,192,110045,1,2,0:1:0:0:
272,192,110113,1,2,0:1:0:0:
272,192,110181,1,2,0:1:0:0:
272,192,110249,1,2,0:1:0:0:
464,88,110522,6,2,P|480:208|376:312,1,270.000010299683,8|0,0:0|0:0,0:1:0:0:
64,64,111067,1,10,0:1:0:0:
120,136,111203,1,2,0:1:0:0:
104,184,111272,1,2,0:1:0:0:
96,232,111340,1,2,0:1:0:0:
48,344,111476,1,2,0:1:0:0:
464,40,111612,1,10,0:1:0:0:
48,40,111749,1,2,0:1:0:0:
464,344,111885,1,2,0:1:0:0:
432,224,112022,2,2,P|232:152|136:200,1,270.000010299683,8|0,0:0|0:0,0:1:0:0:
152,272,112431,1,2,0:1:0:0:
296,344,112567,1,2,0:1:0:0:
208,56,112840,1,2,0:1:0:0:
384,160,112976,1,10,0:1:0:0:
24,224,113385,1,2,0:1:0:0:
120,72,113522,1,2,0:1:0:0:
432,96,113931,1,2,0:1:0:0:
240,192,114067,1,2,0:1:0:0:
240,192,114135,1,2,0:1:0:0:
240,192,114203,1,2,0:1:0:0:
240,192,114272,1,2,0:1:0:0:
240,192,114340,1,10,0:1:0:0:
240,192,114408,1,2,0:1:0:0:
240,192,114476,1,2,0:1:0:0:
240,192,114544,1,2,0:1:0:0:
240,192,114612,1,2,0:1:0:0:
48,88,114886,6,2,P|32:208|136:312,1,270.000010299683,8|0,0:0|0:0,0:1:0:0:
448,64,115431,1,10,0:1:0:0:
392,136,115567,1,2,0:1:0:0:
408,184,115636,1,2,0:1:0:0:
416,232,115704,1,2,0:1:0:0:
464,344,115840,1,2,0:1:0:0:
48,40,115976,1,10,0:1:0:0:
464,40,116113,1,2,0:1:0:0:
48,344,116249,1,2,0:1:0:0:
80,224,116386,2,2,P|280:152|376:200,1,270.000010299683,8|0,0:0|0:0,0:1:0:0:
360,272,116795,1,2,0:1:0:0:
216,344,116931,1,2,0:1:0:0:
304,56,117204,1,2,0:1:0:0:
128,160,117340,1,10,0:1:0:0:
488,224,117749,1,2,0:1:0:0:
392,72,117886,1,10,0:1:0:0:
80,96,118295,1,2,0:1:0:0:
272,192,118431,1,2,0:1:0:0:
272,192,118499,1,2,0:1:0:0:
272,192,118567,1,2,0:1:0:0:
272,192,118636,1,2,0:1:0:0:
272,192,118704,1,10,0:1:0:0:
272,192,118772,1,2,0:1:0:0:
272,192,118840,1,2,0:1:0:0:
491,280,119250,6,2,P|495:149|371:49,1,240,8|0,0:0|0:0,0:1:0:0:
63,351,119795,1,10,0:1:0:0:
115,267,119931,1,2,0:1:0:0:
93,217,120000,1,2,0:1:0:0:
79,167,120068,1,2,0:1:0:0:
14,51,120204,1,2,0:1:0:0:
497,332,120340,1,10,0:1:0:0:
49,379,120477,1,2,0:1:0:0:
462,4,120613,1,2,0:1:0:0:
441,137,120750,2,2,P|234:237|125:196,1,360,8|0,0:0|0:0,0:1:0:0:
135,117,121159,1,2,0:1:0:0:
281,23,121295,1,2,0:1:0:0:
219,343,121568,1,2,0:1:0:0:
397,211,121704,1,10,0:1:0:0:
2,183,122113,1,2,0:1:0:0:
248,192,122250,1,2,0:1:0:0:
248,168,122318,1,2,0:1:0:0:
264,152,122386,1,2,0:1:0:0:
288,168,122454,1,2,0:1:0:0:
304,192,122523,1,2,0:1:0:0:
304,216,122591,1,2,0:1:0:0:
288,240,122659,1,2,0:1:0:0:
264,248,122727,1,2,0:1:0:0:
240,248,122795,1,2,0:1:0:0:
216,240,122863,1,2,0:1:0:0:
192,224,122932,1,2,0:1:0:0:
256,192,123068,12,2,123341,0:1:0:0:
