osu file format v12

[General]
AudioFilename: gtTnzb4OW4TC.128.mp3
AudioLeadIn: 0
PreviewTime: -1
Countdown: 1
SampleSet: Soft
StackLeniency: 0.7
Mode: 1
LetterboxInBreaks: 1
EpilepsyWarning: 1

[Editor]
DistanceSpacing: 0.3
BeatDivisor: 8
GridSize: 8

[Metadata]
Title:Aqua and Spaceship
TitleUnicode:Aqua and Spaceship
Artist:Miku Hatsune
ArtistUnicode:Miku Hatsune
Creator:Xgor
Version:Leetz Beetz
Source:
Tags:
BeatmapID:235867
BeatmapSetID:85979

[Difficulty]
HPDrainRate:8
CircleSize:3
OverallDifficulty:10
ApproachRate:10
SliderMultiplier:1.8
SliderTickRate:1

[Events]
//Background and Video events
0,0,"hatsune-miku-chrie-E2-99-A5-32011805-1024-768.jpg",1,1
//Break Periods
2,83928,92277
//Storyboard Layer 0 (Background)
//Storyboard Layer 1 (Fail)
//Storyboard Layer 2 (Pass)
//Storyboard Layer 3 (Foreground)
//Storyboard Sound Samples
//Background Colour Transformations
3,100,163,162,255

[TimingPoints]
5523,272.727272727273,4,2,0,100,1,0
12068,-50,4,2,0,100,0,0
14523,-66.6666666666667,4,2,0,100,0,0
33886,-200,4,2,0,100,0,0
36068,-66.6666666666667,4,2,0,100,0,0
38250,-200,4,2,0,100,0,0
39341,-100,4,2,0,100,0,0
40432,-66.6666666666667,4,2,0,100,0,0
68795,-200,4,2,0,100,0,0
70977,-66.6666666666667,4,2,0,100,0,0
73295,-100,4,2,0,100,0,0
75341,-66.6666666666667,4,2,0,100,0,0
92795,-200,4,2,0,100,0,0
99341,-50,4,2,0,100,0,0

[HitObjects]
104,160,1159,1,2,0:0:0:0:
120,160,1227,1,2,0:0:0:0:
136,160,1295,1,2,0:0:0:0:
152,160,1363,1,2,0:0:0:0:
176,160,1500,1,0,0:0:0:0:
200,168,1636,1,0,0:0:0:0:
224,176,1772,1,2,0:0:0:0:
248,184,1909,1,0,0:0:0:0:
296,168,2182,1,0,0:0:0:0:
352,152,2454,2,0,L|480:192,1,135,0|2,0:0|0:0,0:0:0:0:
472,200,2727,2,0,L|400:288,1,90,0|2,0:0|0:0,0:0:0:0:
400,272,2932,2,0,L|312:288,1,90,0|2,0:0|0:0,0:0:0:0:
296,288,3136,2,0,L|184:280,1,90,0|2,0:0|0:0,0:0:0:0:
176,280,3409,1,0,0:0:0:0:
152,272,3545,1,2,0:0:0:0:
128,152,5454,2,0,L|240:160,27,90,4|0|4|0|4|0|4|0|4|0|4|0|4|0|4|0|4|0|4|0|4|0|4|0|4|0|4|0,0:0|0:0|0:0|0:0|0:0|0:0|0:0|0:0|0:0|0:0|0:0|0:0|0:0|0:0|0:0|0:0|0:0|0:0|0:0|0:0|0:0|0:0|0:0|0:0|0:0|0:0|0:0|0:0,0:0:0:0:
224,104,9545,1,0,0:0:0:0:
208,144,9818,2,0,L|152:232,17,90
208,192,12273,1,2,0:0:0:0:
216,184,12307,1,2,0:0:0:0:
232,176,12341,1,6,0:0:0:0:
256,168,12409,1,0,0:0:0:0:
304,200,12545,1,0,0:0:0:0:
352,168,12682,1,0,0:0:0:0:
360,112,12818,1,4,0:0:0:0:
408,88,12954,1,0,0:0:0:0:
456,112,13091,1,0,0:0:0:0:
480,160,13227,1,4,0:0:0:0:
480,176,13261,1,4,0:0:0:0:
480,192,13295,1,4,0:0:0:0:
464,208,13363,1,8,0:0:0:0:
448,256,13500,1,2,0:0:0:0:
440,264,13534,1,2,0:0:0:0:
424,272,13568,1,2,0:0:0:0:
400,280,13636,1,4,0:0:0:0:
344,280,13773,1,8,0:0:0:0:
328,280,13807,1,8,0:0:0:0:
312,280,13841,1,4,0:0:0:0:
296,280,13875,1,4,0:0:0:0:
280,280,13909,1,8,0:0:0:0:
264,272,13943,1,8,0:0:0:0:
248,264,13977,1,8,0:0:0:0:
224,256,14045,1,2,0:0:0:0:
176,232,14182,1,0,0:0:0:0:
136,192,14318,1,0,0:0:0:0:
128,184,14352,1,0,0:0:0:0:
120,176,14386,1,8,0:0:0:0:
112,168,14420,1,4,0:0:0:0:
104,160,14454,1,10,0:0:0:0:
96,152,14488,1,0,0:0:0:0:
88,144,14523,1,0,0:0:0:0:
80,136,14557,1,10,0:0:0:0:
72,128,14591,1,4,0:0:0:0:
112,112,14727,1,4,0:0:0:0:
112,96,14761,1,4,0:0:0:0:
120,88,14795,1,4,0:0:0:0:
128,80,14829,1,8,0:0:0:0:
136,80,14863,1,8,0:0:0:0:
176,80,15000,1,2,0:0:0:0:
216,80,15136,1,0,0:0:0:0:
256,80,15273,1,0,0:0:0:0:
264,80,15307,1,0,0:0:0:0:
272,80,15341,1,0,0:0:0:0:
280,80,15375,1,2,0:0:0:0:
288,88,15409,1,2,0:0:0:0:
320,112,15545,1,8,0:0:0:0:
328,120,15579,1,8,0:0:0:0:
336,120,15613,1,8,0:0:0:0:
344,112,15648,1,4,0:0:0:0:
352,104,15682,1,4,0:0:0:0:
392,104,15818,1,4,0:0:0:0:
432,96,15954,1,4,0:0:0:0:
456,128,16091,1,4,0:0:0:0:
456,168,16227,1,2,0:0:0:0:
448,208,16363,1,8,0:0:0:0:
416,232,16500,1,0,0:0:0:0:
408,240,16534,1,0,0:0:0:0:
208,0,16568,1,8,0:0:0:0:
392,248,16602,1,0,0:0:0:0:
384,248,16636,1,8,0:0:0:0:
376,248,16670,1,8,0:0:0:0:
368,248,16704,1,8,0:0:0:0:
360,248,16738,1,8,0:0:0:0:
352,248,16773,1,8,0:0:0:0:
312,248,16909,1,4,0:0:0:0:
304,248,16943,1,4,0:0:0:0:
296,248,16977,1,0,0:0:0:0:
288,248,17011,1,0,0:0:0:0:
280,240,17045,1,10,0:0:0:0:
272,200,17182,2,0,L|32:32,1,270.000010299683
48,56,17488,1,4,0:0:0:0:
48,64,17523,1,4,0:0:0:0:
48,72,17557,1,0,0:0:0:0:
48,80,17591,1,4,0:0:0:0:
48,88,17625,1,4,0:0:0:0:
48,96,17659,1,0,0:0:0:0:
48,104,17693,1,4,0:0:0:0:
48,112,17727,1,4,0:0:0:0:
48,120,17761,1,0,0:0:0:0:
48,128,17795,1,8,0:0:0:0:
48,128,17829,1,8,0:0:0:0:
56,136,17863,1,8,0:0:0:0:
64,152,17932,1,4,0:0:0:0:
64,160,17966,1,0,0:0:0:0:
64,168,18000,1,8,0:0:0:0:
88,136,18136,1,10,0:0:0:0:
40,216,18170,1,10,0:0:0:0:
40,224,18204,1,10,0:0:0:0:
48,232,18238,1,10,0:0:0:0:
48,240,18273,1,10,0:0:0:0:
48,248,18307,1,10,0:0:0:0:
56,256,18341,1,10,0:0:0:0:
64,264,18375,1,10,0:0:0:0:
72,272,18409,1,10,0:0:0:0:
176,232,18545,1,4,0:0:0:0:
136,192,18681,1,2,0:0:0:0:
128,184,18715,1,2,0:0:0:0:
120,176,18749,1,0,0:0:0:0:
112,168,18783,1,2,0:0:0:0:
104,160,18817,1,2,0:0:0:0:
96,152,18851,1,0,0:0:0:0:
88,144,18886,1,4,0:0:0:0:
80,136,18920,1,4,0:0:0:0:
72,128,18954,1,4,0:0:0:0:
112,112,19090,1,0,0:0:0:0:
112,96,19124,1,0,0:0:0:0:
120,88,19158,1,4,0:0:0:0:
128,80,19192,1,4,0:0:0:0:
136,80,19226,1,0,0:0:0:0:
176,80,19363,1,8,0:0:0:0:
216,80,19499,1,2,0:0:0:0:
256,80,19636,1,0,0:0:0:0:
264,80,19670,1,0,0:0:0:0:
272,80,19704,1,8,0:0:0:0:
280,80,19738,1,8,0:0:0:0:
288,88,19772,1,8,0:0:0:0:
320,112,19908,1,2,0:0:0:0:
328,120,19942,1,2,0:0:0:0:
336,120,19976,1,2,0:0:0:0:
344,112,20011,1,0,0:0:0:0:
352,104,20045,1,4,0:0:0:0:
392,104,20181,1,0,0:0:0:0:
432,96,20317,1,8,0:0:0:0:
456,128,20454,1,8,0:0:0:0:
456,168,20590,1,0,0:0:0:0:
448,208,20726,1,8,0:0:0:0:
416,232,20863,1,2,0:0:0:0:
408,240,20897,1,0,0:0:0:0:
400,248,20931,1,4,0:0:0:0:
392,248,20965,1,10,0:0:0:0:
384,248,20999,1,4,0:0:0:0:
376,248,21033,1,0,0:0:0:0:
368,248,21067,1,2,0:0:0:0:
360,248,21101,1,0,0:0:0:0:
352,248,21136,1,4,0:0:0:0:
312,248,21272,1,4,0:0:0:0:
304,248,21306,1,10,0:0:0:0:
296,248,21340,1,10,0:0:0:0:
288,248,21374,1,4,0:0:0:0:
280,240,21408,1,2,0:0:0:0:
272,200,21545,2,0,L|32:32,1,270.000010299683
48,56,21851,1,0,0:0:0:0:
48,64,21886,1,2,0:0:0:0:
48,72,21920,1,10,0:0:0:0:
48,80,21954,1,0,0:0:0:0:
48,88,21988,1,2,0:0:0:0:
48,96,22022,1,10,0:0:0:0:
48,104,22056,1,0,0:0:0:0:
48,112,22090,1,2,0:0:0:0:
48,120,22124,1,10,0:0:0:0:
48,128,22158,1,0,0:0:0:0:
48,128,22192,1,2,0:0:0:0:
56,136,22226,1,10,0:0:0:0:
56,144,22261,1,0,0:0:0:0:
56,160,22295,1,2,0:0:0:0:
56,168,22329,1,10,0:0:0:0:
56,176,22363,1,0,0:0:0:0:
64,184,22398,1,2,0:0:0:0:
64,192,22432,1,10,0:0:0:0:
64,200,22466,1,0,0:0:0:0:
64,208,22500,1,2,0:0:0:0:
64,216,22534,1,10,0:0:0:0:
72,224,22568,1,0,0:0:0:0:
80,232,22602,1,2,0:0:0:0:
80,240,22636,1,10,0:0:0:0:
88,248,22670,1,0,0:0:0:0:
96,256,22704,1,2,0:0:0:0:
104,264,22738,1,10,0:0:0:0:
112,272,22773,1,0,0:0:0:0:
176,232,22909,1,0,0:0:0:0:
136,192,23045,1,0,0:0:0:0:
128,184,23079,1,0,0:0:0:0:
120,176,23113,1,8,0:0:0:0:
112,168,23147,1,4,0:0:0:0:
104,160,23181,1,10,0:0:0:0:
96,152,23215,1,0,0:0:0:0:
88,144,23250,1,0,0:0:0:0:
80,136,23284,1,10,0:0:0:0:
72,128,23318,1,4,0:0:0:0:
112,112,23454,1,4,0:0:0:0:
112,96,23488,1,4,0:0:0:0:
120,88,23522,1,4,0:0:0:0:
128,80,23556,1,8,0:0:0:0:
136,80,23590,1,8,0:0:0:0:
176,80,23727,1,2,0:0:0:0:
216,80,23863,1,0,0:0:0:0:
256,80,24000,1,0,0:0:0:0:
264,80,24034,1,0,0:0:0:0:
272,80,24068,1,0,0:0:0:0:
280,80,24102,1,2,0:0:0:0:
288,88,24136,1,2,0:0:0:0:
320,112,24272,1,8,0:0:0:0:
328,120,24306,1,8,0:0:0:0:
336,120,24340,1,8,0:0:0:0:
344,112,24375,1,4,0:0:0:0:
352,104,24409,1,4,0:0:0:0:
392,104,24545,1,4,0:0:0:0:
432,96,24681,1,4,0:0:0:0:
456,128,24818,1,4,0:0:0:0:
456,168,24954,1,2,0:0:0:0:
448,208,25090,1,8,0:0:0:0:
416,232,25227,1,0,0:0:0:0:
408,240,25261,1,0,0:0:0:0:
208,0,25295,1,8,0:0:0:0:
392,248,25329,1,0,0:0:0:0:
384,248,25363,1,8,0:0:0:0:
376,248,25397,1,8,0:0:0:0:
368,248,25431,1,8,0:0:0:0:
360,248,25465,1,8,0:0:0:0:
352,248,25500,1,8,0:0:0:0:
312,248,25636,1,4,0:0:0:0:
304,248,25670,1,4,0:0:0:0:
296,248,25704,1,0,0:0:0:0:
288,248,25738,1,0,0:0:0:0:
280,240,25772,1,10,0:0:0:0:
272,200,25909,2,0,L|32:32,1,270.000010299683
48,56,26215,1,4,0:0:0:0:
48,64,26250,1,4,0:0:0:0:
48,72,26284,1,0,0:0:0:0:
48,80,26318,1,4,0:0:0:0:
48,88,26352,1,4,0:0:0:0:
48,96,26386,1,0,0:0:0:0:
48,104,26420,1,4,0:0:0:0:
48,112,26454,1,4,0:0:0:0:
48,120,26488,1,0,0:0:0:0:
48,128,26522,1,8,0:0:0:0:
48,128,26556,1,8,0:0:0:0:
56,136,26590,1,8,0:0:0:0:
64,152,26659,1,4,0:0:0:0:
64,160,26693,1,0,0:0:0:0:
64,168,26727,1,8,0:0:0:0:
88,136,26863,1,10,0:0:0:0:
40,216,26897,1,10,0:0:0:0:
40,224,26931,1,10,0:0:0:0:
48,232,26965,1,10,0:0:0:0:
48,240,27000,1,10,0:0:0:0:
48,248,27034,1,10,0:0:0:0:
56,256,27068,1,10,0:0:0:0:
64,264,27102,1,10,0:0:0:0:
72,272,27136,1,10,0:0:0:0:
176,232,27272,1,4,0:0:0:0:
136,192,27408,1,2,0:0:0:0:
128,184,27442,1,2,0:0:0:0:
120,176,27476,1,0,0:0:0:0:
112,168,27510,1,2,0:0:0:0:
104,160,27544,1,2,0:0:0:0:
96,152,27578,1,0,0:0:0:0:
88,144,27613,1,4,0:0:0:0:
80,136,27647,1,4,0:0:0:0:
72,128,27681,1,4,0:0:0:0:
112,112,27817,1,0,0:0:0:0:
112,96,27851,1,0,0:0:0:0:
120,88,27885,1,4,0:0:0:0:
128,80,27919,1,4,0:0:0:0:
136,80,27953,1,0,0:0:0:0:
176,80,28090,1,8,0:0:0:0:
216,80,28226,1,2,0:0:0:0:
256,80,28363,1,0,0:0:0:0:
264,80,28397,1,0,0:0:0:0:
272,80,28431,1,8,0:0:0:0:
280,80,28465,1,8,0:0:0:0:
288,88,28499,1,8,0:0:0:0:
320,112,28635,1,2,0:0:0:0:
328,120,28669,1,2,0:0:0:0:
336,120,28703,1,2,0:0:0:0:
344,112,28738,1,0,0:0:0:0:
352,104,28772,1,4,0:0:0:0:
392,104,28908,1,0,0:0:0:0:
432,96,29044,1,8,0:0:0:0:
456,128,29181,1,8,0:0:0:0:
456,168,29317,1,0,0:0:0:0:
448,208,29453,1,8,0:0:0:0:
416,232,29590,1,2,0:0:0:0:
408,240,29624,1,0,0:0:0:0:
400,248,29658,1,4,0:0:0:0:
392,248,29692,1,10,0:0:0:0:
384,248,29726,1,4,0:0:0:0:
376,248,29760,1,0,0:0:0:0:
368,248,29794,1,2,0:0:0:0:
360,248,29828,1,0,0:0:0:0:
352,248,29863,1,4,0:0:0:0:
312,248,29999,1,4,0:0:0:0:
304,248,30033,1,10,0:0:0:0:
296,248,30067,1,10,0:0:0:0:
288,248,30101,1,4,0:0:0:0:
280,240,30135,1,2,0:0:0:0:
272,200,30272,2,0,L|32:32,1,270.000010299683
48,56,30578,1,0,0:0:0:0:
48,64,30613,1,2,0:0:0:0:
48,72,30647,1,14,0:0:0:0:
48,80,30681,1,0,0:0:0:0:
48,88,30715,1,2,0:0:0:0:
48,96,30749,1,14,0:0:0:0:
48,104,30783,1,0,0:0:0:0:
48,112,30817,1,2,0:0:0:0:
48,120,30851,1,14,0:0:0:0:
48,128,30885,1,0,0:0:0:0:
48,128,30919,1,2,0:0:0:0:
56,136,30953,1,14,0:0:0:0:
56,144,30988,1,0,0:0:0:0:
56,160,31022,1,2,0:0:0:0:
56,168,31056,1,14,0:0:0:0:
56,176,31090,1,0,0:0:0:0:
64,184,31125,1,2,0:0:0:0:
64,192,31159,1,14,0:0:0:0:
64,200,31193,1,0,0:0:0:0:
64,208,31227,1,2,0:0:0:0:
64,216,31261,1,14,0:0:0:0:
72,224,31295,1,0,0:0:0:0:
256,192,31363,12,0,31704,0:0:0:0:
208,128,31909,5,0,0:0:0:0:
208,128,32045,1,4,0:0:0:0:
448,128,32727,1,0,0:0:0:0:
448,128,33136,1,8,0:0:0:0:
248,112,33818,1,4,0:0:0:0:
272,128,34227,1,8,0:0:0:0:
216,120,34773,1,0,0:0:0:0:
224,112,34909,2,0,L|376:224,1,180
328,184,36000,2,0,L|240:144,1,90
208,144,36409,1,8,0:0:0:0:
160,232,36818,2,0,L|416:96,1,270.000010299683
424,136,37363,1,4,0:0:0:0:
424,152,37398,1,0,0:0:0:0:
424,144,37432,1,4,0:0:0:0:
424,160,37466,1,4,0:0:0:0:
416,152,37500,1,0,0:0:0:0:
408,192,37636,1,8,0:0:0:0:
408,200,37670,1,12,0:0:0:0:
408,208,37704,1,8,0:0:0:0:
408,216,37738,1,12,0:0:0:0:
408,224,37773,1,8,0:0:0:0:
376,208,37909,1,6,0:0:0:0:
368,200,37943,1,2,0:0:0:0:
360,192,37977,1,6,0:0:0:0:
352,184,38011,1,2,0:0:0:0:
344,176,38045,1,6,0:0:0:0:
304,160,38182,2,0,L|168:104,6,135.000005149842
288,160,39273,2,0,L|168:104,2,123.75
304,160,40091,1,4,0:0:0:0:
424,88,40363,1,0,0:0:0:0:
416,128,40500,1,0,0:0:0:0:
416,160,40636,1,0,0:0:0:0:
424,64,40773,1,8,0:0:0:0:
424,88,40909,1,0,0:0:0:0:
416,128,41046,1,4,0:0:0:0:
416,160,41182,1,0,0:0:0:0:
424,64,41319,1,6,0:0:0:0:
424,88,41454,1,0,0:0:0:0:
416,128,41591,1,0,0:0:0:0:
416,160,41727,1,0,0:0:0:0:
424,64,41864,1,8,0:0:0:0:
424,88,42000,1,0,0:0:0:0:
416,128,42137,1,4,0:0:0:0:
416,160,42273,1,0,0:0:0:0:
424,64,42410,1,6,0:0:0:0:
384,56,42545,2,0,L|232:56,7,135.000005149842
208,64,43636,1,0,0:0:0:0:
192,64,43773,1,0,0:0:0:0:
200,64,43807,1,8,0:0:0:0:
192,64,43841,1,6,0:0:0:0:
176,72,43909,1,0,0:0:0:0:
136,80,44045,1,0,0:0:0:0:
96,96,44182,1,4,0:0:0:0:
72,128,44318,1,8,0:0:0:0:
72,136,44352,1,8,0:0:0:0:
72,144,44386,1,8,0:0:0:0:
72,168,44454,1,2,0:0:0:0:
72,176,44488,1,4,0:0:0:0:
72,184,44523,1,6,0:0:0:0:
72,192,44557,1,4,0:0:0:0:
424,88,44591,1,0,0:0:0:0:
416,128,44728,1,0,0:0:0:0:
416,160,44864,1,0,0:0:0:0:
424,64,45000,1,8,0:0:0:0:
424,88,45137,1,0,0:0:0:0:
416,128,45274,1,4,0:0:0:0:
416,160,45410,1,0,0:0:0:0:
424,64,45547,1,2,0:0:0:0:
424,88,45682,1,0,0:0:0:0:
416,128,45819,1,8,0:0:0:0:
416,160,45955,1,0,0:0:0:0:
424,64,46092,1,6,0:0:0:0:
424,88,46228,1,0,0:0:0:0:
416,128,46365,1,8,0:0:0:0:
416,160,46501,1,0,0:0:0:0:
424,64,46638,1,6,0:0:0:0:
384,56,46773,2,0,L|232:56,8,135.000005149842
256,192,48000,12,0,48818,0:0:0:0:
176,232,49091,1,0,0:0:0:0:
136,192,49227,1,2,0:0:0:0:
128,184,49261,1,2,0:0:0:0:
120,176,49295,1,8,0:0:0:0:
112,168,49329,1,4,0:0:0:0:
104,160,49363,1,10,0:0:0:0:
96,152,49397,1,0,0:0:0:0:
88,144,49432,1,0,0:0:0:0:
80,136,49466,1,10,0:0:0:0:
72,128,49500,1,4,0:0:0:0:
112,112,49636,1,4,0:0:0:0:
112,96,49670,1,4,0:0:0:0:
120,88,49704,1,4,0:0:0:0:
128,80,49738,1,12,0:0:0:0:
136,80,49772,1,12,0:0:0:0:
176,80,49909,1,2,0:0:0:0:
216,80,50045,1,0,0:0:0:0:
256,80,50182,1,0,0:0:0:0:
264,80,50216,1,0,0:0:0:0:
272,80,50250,1,0,0:0:0:0:
280,80,50284,1,2,0:0:0:0:
288,88,50318,1,2,0:0:0:0:
320,112,50454,1,8,0:0:0:0:
328,120,50488,1,8,0:0:0:0:
336,120,50522,1,12,0:0:0:0:
344,112,50557,1,4,0:0:0:0:
352,104,50591,1,4,0:0:0:0:
392,104,50727,1,4,0:0:0:0:
432,96,50863,1,4,0:0:0:0:
456,128,51000,1,4,0:0:0:0:
456,168,51136,1,2,0:0:0:0:
448,208,51272,1,8,0:0:0:0:
416,232,51409,1,0,0:0:0:0:
408,240,51443,1,0,0:0:0:0:
208,0,51477,1,8,0:0:0:0:
392,248,51511,1,0,0:0:0:0:
384,248,51545,1,8,0:0:0:0:
376,248,51579,1,12,0:0:0:0:
368,248,51613,1,12,0:0:0:0:
360,248,51647,1,12,0:0:0:0:
352,248,51682,1,12,0:0:0:0:
312,248,51818,1,4,0:0:0:0:
304,248,51852,1,4,0:0:0:0:
296,248,51886,1,0,0:0:0:0:
288,248,51920,1,0,0:0:0:0:
280,240,51954,1,10,0:0:0:0:
272,200,52091,2,0,L|32:32,1,270.000010299683
48,56,52397,1,4,0:0:0:0:
48,64,52432,1,4,0:0:0:0:
48,72,52466,1,0,0:0:0:0:
48,80,52500,1,4,0:0:0:0:
48,88,52534,1,4,0:0:0:0:
48,96,52568,1,0,0:0:0:0:
48,104,52602,1,4,0:0:0:0:
48,112,52636,1,4,0:0:0:0:
48,120,52670,1,0,0:0:0:0:
48,128,52704,1,8,0:0:0:0:
48,128,52738,1,8,0:0:0:0:
56,136,52772,1,8,0:0:0:0:
64,152,52841,1,4,0:0:0:0:
64,160,52875,1,0,0:0:0:0:
64,168,52909,1,8,0:0:0:0:
88,136,53045,1,14,0:0:0:0:
40,216,53079,1,10,0:0:0:0:
40,224,53113,1,10,0:0:0:0:
48,232,53147,1,10,0:0:0:0:
48,240,53182,1,14,0:0:0:0:
48,248,53216,1,10,0:0:0:0:
56,256,53250,1,10,0:0:0:0:
64,264,53284,1,10,0:0:0:0:
72,272,53318,1,14,0:0:0:0:
176,232,53454,1,4,0:0:0:0:
136,192,53590,1,2,0:0:0:0:
128,184,53624,1,2,0:0:0:0:
120,176,53658,1,0,0:0:0:0:
112,168,53692,1,2,0:0:0:0:
104,160,53726,1,2,0:0:0:0:
96,152,53760,1,0,0:0:0:0:
88,144,53795,1,4,0:0:0:0:
80,136,53829,1,4,0:0:0:0:
72,128,53863,1,4,0:0:0:0:
112,112,53999,1,0,0:0:0:0:
112,96,54033,1,0,0:0:0:0:
120,88,54067,1,4,0:0:0:0:
128,80,54101,1,4,0:0:0:0:
136,80,54135,1,0,0:0:0:0:
176,80,54272,1,8,0:0:0:0:
216,80,54408,1,2,0:0:0:0:
256,80,54545,1,0,0:0:0:0:
264,80,54579,1,0,0:0:0:0:
272,80,54613,1,8,0:0:0:0:
280,80,54647,1,8,0:0:0:0:
288,88,54681,1,8,0:0:0:0:
320,112,54817,1,10,0:0:0:0:
328,120,54851,1,10,0:0:0:0:
336,120,54885,1,10,0:0:0:0:
344,112,54920,1,10,0:0:0:0:
352,104,54954,1,4,0:0:0:0:
392,104,55090,1,0,0:0:0:0:
432,96,55226,1,8,0:0:0:0:
456,128,55363,1,8,0:0:0:0:
456,168,55499,1,0,0:0:0:0:
448,208,55635,1,8,0:0:0:0:
416,232,55772,1,2,0:0:0:0:
408,240,55806,1,0,0:0:0:0:
400,248,55840,1,4,0:0:0:0:
392,248,55874,1,10,0:0:0:0:
384,248,55908,1,4,0:0:0:0:
376,248,55942,1,0,0:0:0:0:
368,248,55976,1,2,0:0:0:0:
360,248,56010,1,0,0:0:0:0:
352,248,56045,1,4,0:0:0:0:
312,248,56181,1,4,0:0:0:0:
304,248,56215,1,10,0:0:0:0:
296,248,56249,1,10,0:0:0:0:
288,248,56283,1,4,0:0:0:0:
280,240,56317,1,2,0:0:0:0:
272,200,56454,2,0,L|32:32,1,270.000010299683
48,56,56760,1,0,0:0:0:0:
48,64,56795,1,2,0:0:0:0:
48,72,56829,1,10,0:0:0:0:
48,80,56863,1,0,0:0:0:0:
48,88,56897,1,2,0:0:0:0:
48,96,56931,1,10,0:0:0:0:
48,104,56965,1,0,0:0:0:0:
48,112,56999,1,2,0:0:0:0:
48,120,57033,1,10,0:0:0:0:
48,128,57067,1,0,0:0:0:0:
48,128,57101,1,2,0:0:0:0:
56,136,57135,1,10,0:0:0:0:
56,144,57170,1,0,0:0:0:0:
56,160,57204,1,2,0:0:0:0:
56,168,57238,1,10,0:0:0:0:
56,176,57272,1,0,0:0:0:0:
64,184,57307,1,2,0:0:0:0:
64,192,57341,1,10,0:0:0:0:
64,200,57375,1,0,0:0:0:0:
64,208,57409,1,2,0:0:0:0:
64,216,57443,1,10,0:0:0:0:
72,224,57477,1,0,0:0:0:0:
80,232,57511,1,2,0:0:0:0:
80,240,57545,1,10,0:0:0:0:
88,248,57579,1,0,0:0:0:0:
96,256,57613,1,2,0:0:0:0:
104,264,57647,1,10,0:0:0:0:
112,272,57682,1,0,0:0:0:0:
176,232,57818,1,0,0:0:0:0:
136,192,57954,1,0,0:0:0:0:
128,184,57988,1,0,0:0:0:0:
120,176,58022,1,8,0:0:0:0:
112,168,58056,1,4,0:0:0:0:
104,160,58090,1,10,0:0:0:0:
96,152,58124,1,0,0:0:0:0:
88,144,58159,1,0,0:0:0:0:
80,136,58193,1,10,0:0:0:0:
72,128,58227,1,4,0:0:0:0:
112,112,58363,1,4,0:0:0:0:
112,96,58397,1,4,0:0:0:0:
120,88,58431,1,4,0:0:0:0:
128,80,58465,1,8,0:0:0:0:
136,80,58499,1,8,0:0:0:0:
176,80,58636,1,2,0:0:0:0:
216,80,58772,1,0,0:0:0:0:
256,80,58909,1,0,0:0:0:0:
264,80,58943,1,0,0:0:0:0:
272,80,58977,1,0,0:0:0:0:
280,80,59011,1,2,0:0:0:0:
288,88,59045,1,2,0:0:0:0:
320,112,59181,1,8,0:0:0:0:
328,120,59215,1,8,0:0:0:0:
336,120,59249,1,8,0:0:0:0:
344,112,59284,1,4,0:0:0:0:
352,104,59318,1,4,0:0:0:0:
392,104,59454,1,4,0:0:0:0:
432,96,59590,1,4,0:0:0:0:
456,128,59727,1,4,0:0:0:0:
456,168,59863,1,2,0:0:0:0:
448,208,59999,1,8,0:0:0:0:
416,232,60136,1,0,0:0:0:0:
408,240,60170,1,0,0:0:0:0:
208,0,60204,1,8,0:0:0:0:
392,248,60238,1,0,0:0:0:0:
384,248,60272,1,8,0:0:0:0:
376,248,60306,1,8,0:0:0:0:
368,248,60340,1,8,0:0:0:0:
360,248,60374,1,8,0:0:0:0:
352,248,60409,1,8,0:0:0:0:
312,248,60545,1,4,0:0:0:0:
304,248,60579,1,4,0:0:0:0:
296,248,60613,1,0,0:0:0:0:
288,248,60647,1,0,0:0:0:0:
280,240,60681,1,10,0:0:0:0:
272,200,60818,2,0,L|32:32,1,270.000010299683
48,56,61124,1,4,0:0:0:0:
48,64,61159,1,4,0:0:0:0:
48,72,61193,1,0,0:0:0:0:
48,80,61227,1,4,0:0:0:0:
48,88,61261,1,4,0:0:0:0:
48,96,61295,1,0,0:0:0:0:
48,104,61329,1,4,0:0:0:0:
48,112,61363,1,4,0:0:0:0:
48,120,61397,1,0,0:0:0:0:
48,128,61431,1,8,0:0:0:0:
48,128,61465,1,8,0:0:0:0:
56,136,61499,1,8,0:0:0:0:
64,152,61568,1,4,0:0:0:0:
64,160,61602,1,0,0:0:0:0:
64,168,61636,1,8,0:0:0:0:
88,136,61772,1,10,0:0:0:0:
40,216,61806,1,14,0:0:0:0:
40,224,61840,1,14,0:0:0:0:
48,232,61874,1,14,0:0:0:0:
48,240,61909,1,14,0:0:0:0:
48,248,61943,1,14,0:0:0:0:
56,256,61977,1,14,0:0:0:0:
64,264,62011,1,14,0:0:0:0:
72,272,62045,1,14,0:0:0:0:
176,232,62181,1,4,0:0:0:0:
136,192,62317,1,6,0:0:0:0:
128,184,62351,1,6,0:0:0:0:
120,176,62385,1,4,0:0:0:0:
112,168,62419,1,6,0:0:0:0:
104,160,62453,1,6,0:0:0:0:
96,152,62487,1,4,0:0:0:0:
88,144,62522,1,4,0:0:0:0:
80,136,62556,1,4,0:0:0:0:
72,128,62590,1,4,0:0:0:0:
112,112,62726,1,4,0:0:0:0:
112,96,62760,1,4,0:0:0:0:
120,88,62794,1,4,0:0:0:0:
128,80,62828,1,4,0:0:0:0:
136,80,62862,1,4,0:0:0:0:
176,80,62999,1,12,0:0:0:0:
216,80,63135,1,6,0:0:0:0:
256,80,63272,1,4,0:0:0:0:
264,80,63306,1,4,0:0:0:0:
272,80,63340,1,12,0:0:0:0:
280,80,63374,1,12,0:0:0:0:
288,88,63408,1,12,0:0:0:0:
320,112,63544,1,6,0:0:0:0:
328,120,63578,1,6,0:0:0:0:
336,120,63612,1,6,0:0:0:0:
344,112,63647,1,4,0:0:0:0:
352,104,63681,1,4,0:0:0:0:
392,104,63817,1,4,0:0:0:0:
432,96,63953,1,12,0:0:0:0:
456,128,64090,1,12,0:0:0:0:
456,168,64226,1,4,0:0:0:0:
448,208,64362,1,12,0:0:0:0:
416,232,64499,1,6,0:0:0:0:
408,240,64533,1,4,0:0:0:0:
400,248,64567,1,4,0:0:0:0:
392,248,64601,1,14,0:0:0:0:
384,248,64635,1,4,0:0:0:0:
376,248,64669,1,4,0:0:0:0:
368,248,64703,1,6,0:0:0:0:
360,248,64737,1,4,0:0:0:0:
352,248,64772,1,4,0:0:0:0:
312,248,64908,1,4,0:0:0:0:
304,248,64942,1,14,0:0:0:0:
296,248,64976,1,14,0:0:0:0:
288,248,65010,1,4,0:0:0:0:
280,240,65044,1,6,0:0:0:0:
272,200,65181,2,4,L|32:32,1,270.000010299683
48,56,65487,1,4,0:0:0:0:
48,64,65522,1,6,0:0:0:0:
48,72,65556,1,14,0:0:0:0:
48,80,65590,1,4,0:0:0:0:
48,88,65624,1,6,0:0:0:0:
48,96,65658,1,14,0:0:0:0:
48,104,65692,1,4,0:0:0:0:
48,112,65726,1,6,0:0:0:0:
48,120,65760,1,14,0:0:0:0:
48,128,65794,1,4,0:0:0:0:
48,128,65828,1,6,0:0:0:0:
56,136,65862,1,14,0:0:0:0:
56,144,65897,1,4,0:0:0:0:
56,160,65931,1,6,0:0:0:0:
56,168,65965,1,14,0:0:0:0:
56,176,65999,1,4,0:0:0:0:
64,184,66034,1,6,0:0:0:0:
64,192,66068,1,14,0:0:0:0:
64,200,66102,1,4,0:0:0:0:
64,208,66136,1,6,0:0:0:0:
64,216,66170,1,14,0:0:0:0:
72,224,66204,1,4,0:0:0:0:
256,192,66273,12,0,66614,0:0:0:0:
208,128,66819,5,0,0:0:0:0:
208,128,66955,1,4,0:0:0:0:
448,128,67637,1,0,0:0:0:0:
448,128,68046,1,8,0:0:0:0:
248,112,68728,1,4,0:0:0:0:
272,128,69137,1,8,0:0:0:0:
216,120,69683,1,0,0:0:0:0:
224,112,69819,2,0,L|376:224,1,180
328,184,70910,2,0,L|240:144,1,90
208,144,71319,1,8,0:0:0:0:
160,232,71728,2,0,L|416:96,1,270.000010299683
424,136,72273,1,0,0:0:0:0:
424,152,72308,1,0,0:0:0:0:
424,144,72342,1,0,0:0:0:0:
424,160,72376,1,0,0:0:0:0:
416,152,72410,1,0,0:0:0:0:
408,192,72546,1,8,0:0:0:0:
408,200,72580,1,12,0:0:0:0:
408,208,72614,1,8,0:0:0:0:
408,216,72648,1,12,0:0:0:0:
408,224,72683,1,8,0:0:0:0:
376,208,72819,1,6,0:0:0:0:
368,200,72853,1,6,0:0:0:0:
360,192,72887,1,6,0:0:0:0:
352,184,72921,1,6,0:0:0:0:
344,176,72955,1,6,0:0:0:0:
304,160,73092,2,0,L|168:104,6,135.000005149842
288,160,74183,2,0,L|168:104,2,123.75
304,160,75001,1,4,0:0:0:0:
424,88,75273,1,0,0:0:0:0:
416,128,75410,1,0,0:0:0:0:
416,160,75546,1,4,0:0:0:0:
424,64,75683,1,8,0:0:0:0:
424,88,75818,1,4,0:0:0:0:
416,128,75956,1,4,0:0:0:0:
416,160,76092,1,4,0:0:0:0:
424,64,76229,1,6,0:0:0:0:
424,88,76364,1,4,0:0:0:0:
416,128,76501,1,0,0:0:0:0:
416,160,76637,1,4,0:0:0:0:
424,64,76774,1,8,0:0:0:0:
424,88,76910,1,4,0:0:0:0:
416,128,77047,1,4,0:0:0:0:
416,160,77183,1,4,0:0:0:0:
424,64,77320,1,6,0:0:0:0:
384,56,77455,2,0,L|232:56,7,135.000005149842
208,64,78546,1,0,0:0:0:0:
192,64,78683,1,0,0:0:0:0:
200,64,78717,1,8,0:0:0:0:
192,64,78751,1,6,0:0:0:0:
176,72,78819,1,0,0:0:0:0:
136,80,78955,1,0,0:0:0:0:
96,96,79092,1,4,0:0:0:0:
168,0,79227,1,12,0:0:0:0:
72,136,79262,1,12,0:0:0:0:
72,144,79296,1,12,0:0:0:0:
72,168,79364,1,6,0:0:0:0:
72,176,79398,1,4,0:0:0:0:
72,184,79433,1,6,0:0:0:0:
72,192,79467,1,4,0:0:0:0:
424,88,79501,1,4,0:0:0:0:
416,128,79638,1,0,0:0:0:0:
416,160,79774,1,0,0:0:0:0:
424,64,79910,1,8,0:0:0:0:
424,88,80047,1,8,0:0:0:0:
416,128,80184,1,12,0:0:0:0:
416,160,80320,1,8,0:0:0:0:
424,64,80457,1,2,0:0:0:0:
424,88,80592,1,0,0:0:0:0:
416,128,80729,1,8,0:0:0:0:
416,160,80865,1,0,0:0:0:0:
424,64,81002,1,6,0:0:0:0:
424,88,81138,1,0,0:0:0:0:
416,128,81275,1,8,0:0:0:0:
416,160,81411,1,0,0:0:0:0:
424,64,81548,1,6,0:0:0:0:
384,56,81683,2,0,L|232:56,8,135.000005149842
256,192,82910,12,0,83728,0:0:0:0:
40,72,92727,5,0,0:0:0:0:
56,80,92863,1,0,0:0:0:0:
72,80,93000,1,0,0:0:0:0:
88,80,93136,1,0,0:0:0:0:
104,80,93273,1,0,0:0:0:0:
120,80,93409,1,0,0:0:0:0:
136,80,93545,2,0,L|272:96,2,135
136,96,94909,1,0,0:0:0:0:
136,112,95045,1,4,0:0:0:0:
136,128,95182,1,4,0:0:0:0:
144,144,95318,1,8,0:0:0:0:
152,152,95454,1,0,0:0:0:0:
144,168,95591,1,2,0:0:0:0:
136,176,95727,1,6,0:0:0:0:
160,192,96000,1,0,0:0:0:0:
160,192,96034,1,0,0:0:0:0:
168,200,96136,1,2,0:0:0:0:
168,200,96170,1,2,0:0:0:0:
176,208,96273,1,4,0:0:0:0:
176,208,96307,1,4,0:0:0:0:
184,216,96409,1,6,0:0:0:0:
184,216,96443,1,6,0:0:0:0:
192,224,96545,1,2,0:0:0:0:
192,224,96579,1,2,0:0:0:0:
200,216,96682,1,12,0:0:0:0:
200,216,96716,1,12,0:0:0:0:
160,192,96818,1,0,0:0:0:0:
160,192,96852,1,0,0:0:0:0:
168,200,96954,1,2,0:0:0:0:
168,200,96988,1,2,0:0:0:0:
176,208,97091,1,4,0:0:0:0:
176,208,97125,1,4,0:0:0:0:
136,112,97227,1,0,0:0:0:0:
136,128,97364,1,6,0:0:0:0:
144,144,97500,1,6,0:0:0:0:
152,152,97636,1,4,0:0:0:0:
144,168,97773,1,6,0:0:0:0:
152,160,97909,2,0,L|192:136,7,45
232,120,99273,1,0,0:0:0:0:
280,104,99409,1,0,0:0:0:0:
320,136,99545,1,0,0:0:0:0:
352,176,99682,1,0,0:0:0:0:
368,224,99818,1,0,0:0:0:0:
384,272,99954,1,0,0:0:0:0:
384,272,100091,1,0,0:0:0:0:
328,264,100227,1,0,0:0:0:0:
272,256,100363,1,0,0:0:0:0:
256,256,100398,1,0,0:0:0:0:
240,256,100432,1,0,0:0:0:0:
224,256,100466,1,4,0:0:0:0:
208,248,100500,1,4,0:0:0:0:
192,240,100534,1,4,0:0:0:0:
176,232,100568,1,4,0:0:0:0:
168,224,100602,1,6,0:0:0:0:
160,216,100636,1,6,0:0:0:0:
144,216,100670,1,6,0:0:0:0:
128,216,100704,1,0,0:0:0:0:
112,224,100738,1,2,0:0:0:0:
96,232,100773,1,0,0:0:0:0:
88,240,100807,1,0,0:0:0:0:
80,264,100841,1,2,0:0:0:0:
80,264,100875,1,0,0:0:0:0:
80,264,100909,1,12,0:0:0:0:
272,256,100942,1,12,0:0:0:0:
256,256,100977,1,0,0:0:0:0:
240,256,101011,1,8,0:0:0:0:
224,256,101045,1,0,0:0:0:0:
208,248,101079,1,0,0:0:0:0:
192,240,101113,1,0,0:0:0:0:
176,232,101147,1,4,0:0:0:0:
168,224,101181,1,4,0:0:0:0:
160,216,101215,1,0,0:0:0:0:
144,216,101249,1,0,0:0:0:0:
128,216,101283,1,6,0:0:0:0:
112,224,101317,1,6,0:0:0:0:
96,232,101352,1,0,0:0:0:0:
88,240,101386,1,4,0:0:0:0:
80,264,101420,1,0,0:0:0:0:
176,232,101454,1,0,0:0:0:0:
80,264,101488,1,0,0:0:0:0:
136,192,101590,1,0,0:0:0:0:
128,184,101624,1,0,0:0:0:0:
120,176,101658,1,8,0:0:0:0:
112,168,101692,1,4,0:0:0:0:
104,160,101726,1,10,0:0:0:0:
96,152,101760,1,0,0:0:0:0:
88,144,101795,1,0,0:0:0:0:
80,136,101829,1,10,0:0:0:0:
72,128,101863,1,4,0:0:0:0:
112,112,101999,1,4,0:0:0:0:
112,96,102033,1,4,0:0:0:0:
120,88,102067,1,4,0:0:0:0:
128,80,102101,1,8,0:0:0:0:
136,80,102135,1,8,0:0:0:0:
176,80,102272,1,2,0:0:0:0:
216,80,102408,1,0,0:0:0:0:
256,80,102545,1,0,0:0:0:0:
264,80,102579,1,0,0:0:0:0:
272,80,102613,1,0,0:0:0:0:
280,80,102647,1,2,0:0:0:0:
288,88,102681,1,2,0:0:0:0:
320,112,102817,1,8,0:0:0:0:
328,120,102851,1,8,0:0:0:0:
336,120,102885,1,8,0:0:0:0:
344,112,102920,1,4,0:0:0:0:
352,104,102954,1,4,0:0:0:0:
392,104,103090,1,4,0:0:0:0:
432,96,103226,1,4,0:0:0:0:
456,128,103363,1,4,0:0:0:0:
456,168,103499,1,2,0:0:0:0:
448,208,103635,1,8,0:0:0:0:
416,232,103772,1,0,0:0:0:0:
408,240,103806,1,0,0:0:0:0:
208,0,103840,1,8,0:0:0:0:
392,248,103874,1,0,0:0:0:0:
384,248,103908,1,8,0:0:0:0:
376,248,103942,1,8,0:0:0:0:
368,248,103976,1,8,0:0:0:0:
360,248,104010,1,8,0:0:0:0:
352,248,104045,1,8,0:0:0:0:
312,248,104181,1,4,0:0:0:0:
304,248,104215,1,4,0:0:0:0:
296,248,104249,1,0,0:0:0:0:
288,248,104283,1,0,0:0:0:0:
280,240,104317,1,10,0:0:0:0:
272,200,104454,2,0,L|32:32,1,270.000010299683
48,56,104760,1,4,0:0:0:0:
48,64,104795,1,4,0:0:0:0:
48,72,104829,1,0,0:0:0:0:
48,80,104863,1,4,0:0:0:0:
48,88,104897,1,4,0:0:0:0:
48,96,104931,1,0,0:0:0:0:
48,104,104965,1,4,0:0:0:0:
48,112,104999,1,4,0:0:0:0:
48,120,105033,1,0,0:0:0:0:
48,128,105067,1,8,0:0:0:0:
48,128,105101,1,8,0:0:0:0:
56,136,105135,1,8,0:0:0:0:
64,152,105204,1,4,0:0:0:0:
64,160,105238,1,0,0:0:0:0:
64,168,105272,1,8,0:0:0:0:
88,136,105408,1,10,0:0:0:0:
40,216,105442,1,10,0:0:0:0:
40,224,105476,1,10,0:0:0:0:
48,232,105510,1,10,0:0:0:0:
48,240,105545,1,10,0:0:0:0:
48,248,105579,1,10,0:0:0:0:
56,256,105613,1,10,0:0:0:0:
64,264,105647,1,10,0:0:0:0:
72,272,105681,1,10,0:0:0:0:
176,232,105817,1,4,0:0:0:0:
136,192,105953,1,2,0:0:0:0:
128,184,105987,1,2,0:0:0:0:
120,176,106021,1,0,0:0:0:0:
112,168,106055,1,2,0:0:0:0:
104,160,106089,1,2,0:0:0:0:
96,152,106123,1,0,0:0:0:0:
88,144,106158,1,4,0:0:0:0:
80,136,106192,1,4,0:0:0:0:
72,128,106226,1,4,0:0:0:0:
112,112,106362,1,0,0:0:0:0:
112,96,106396,1,0,0:0:0:0:
120,88,106430,1,4,0:0:0:0:
128,80,106464,1,4,0:0:0:0:
136,80,106498,1,0,0:0:0:0:
176,80,106635,1,8,0:0:0:0:
216,80,106771,1,2,0:0:0:0:
256,80,106908,1,0,0:0:0:0:
264,80,106942,1,0,0:0:0:0:
272,80,106976,1,8,0:0:0:0:
280,80,107010,1,8,0:0:0:0:
288,88,107044,1,8,0:0:0:0:
320,112,107180,1,2,0:0:0:0:
328,120,107214,1,2,0:0:0:0:
336,120,107248,1,2,0:0:0:0:
344,112,107283,1,0,0:0:0:0:
352,104,107317,1,4,0:0:0:0:
392,104,107453,1,0,0:0:0:0:
432,96,107589,1,8,0:0:0:0:
456,128,107726,1,8,0:0:0:0:
456,168,107862,1,0,0:0:0:0:
448,208,107998,1,8,0:0:0:0:
416,232,108135,1,2,0:0:0:0:
408,240,108169,1,0,0:0:0:0:
400,248,108203,1,4,0:0:0:0:
392,248,108237,1,10,0:0:0:0:
384,248,108271,1,4,0:0:0:0:
376,248,108305,1,0,0:0:0:0:
368,248,108339,1,2,0:0:0:0:
360,248,108373,1,0,0:0:0:0:
352,248,108408,1,4,0:0:0:0:
312,248,108544,1,4,0:0:0:0:
304,248,108578,1,10,0:0:0:0:
296,248,108612,1,10,0:0:0:0:
288,248,108646,1,4,0:0:0:0:
280,240,108680,1,2,0:0:0:0:
272,200,108817,2,0,L|32:32,1,270.000010299683
48,56,109123,1,0,0:0:0:0:
48,64,109158,1,2,0:0:0:0:
48,72,109192,1,10,0:0:0:0:
48,80,109226,1,0,0:0:0:0:
48,88,109260,1,2,0:0:0:0:
48,96,109294,1,10,0:0:0:0:
48,104,109328,1,0,0:0:0:0:
48,112,109362,1,2,0:0:0:0:
48,120,109396,1,10,0:0:0:0:
48,128,109430,1,0,0:0:0:0:
48,128,109464,1,2,0:0:0:0:
56,136,109498,1,10,0:0:0:0:
56,144,109533,1,0,0:0:0:0:
56,160,109567,1,2,0:0:0:0:
56,168,109601,1,10,0:0:0:0:
56,176,109635,1,0,0:0:0:0:
64,184,109670,1,2,0:0:0:0:
64,192,109704,1,10,0:0:0:0:
64,200,109738,1,0,0:0:0:0:
64,208,109772,1,2,0:0:0:0:
64,216,109806,1,10,0:0:0:0:
72,224,109840,1,0,0:0:0:0:
80,232,109874,1,2,0:0:0:0:
80,240,109908,1,10,0:0:0:0:
88,248,109942,1,0,0:0:0:0:
96,256,109976,1,2,0:0:0:0:
104,264,110010,1,10,0:0:0:0:
112,272,110045,1,0,0:0:0:0:
176,232,110181,1,4,0:0:0:0:
136,192,110317,1,4,0:0:0:0:
128,184,110351,1,4,0:0:0:0:
120,176,110385,1,12,0:0:0:0:
112,168,110419,1,4,0:0:0:0:
104,160,110453,1,14,0:0:0:0:
96,152,110487,1,4,0:0:0:0:
88,144,110522,1,4,0:0:0:0:
80,136,110556,1,14,0:0:0:0:
72,128,110590,1,4,0:0:0:0:
112,112,110726,1,4,0:0:0:0:
112,96,110760,1,4,0:0:0:0:
120,88,110794,1,4,0:0:0:0:
128,80,110828,1,12,0:0:0:0:
136,80,110862,1,12,0:0:0:0:
176,80,110999,1,6,0:0:0:0:
216,80,111135,1,4,0:0:0:0:
256,80,111272,1,4,0:0:0:0:
264,80,111306,1,4,0:0:0:0:
272,80,111340,1,4,0:0:0:0:
280,80,111374,1,6,0:0:0:0:
288,88,111408,1,6,0:0:0:0:
320,112,111544,1,12,0:0:0:0:
328,120,111578,1,12,0:0:0:0:
336,120,111612,1,12,0:0:0:0:
344,112,111647,1,4,0:0:0:0:
352,104,111681,1,4,0:0:0:0:
392,104,111817,1,4,0:0:0:0:
432,96,111953,1,4,0:0:0:0:
456,128,112090,1,4,0:0:0:0:
456,168,112226,1,6,0:0:0:0:
448,208,112362,1,12,0:0:0:0:
416,232,112499,1,4,0:0:0:0:
408,240,112533,1,4,0:0:0:0:
208,0,112567,1,12,0:0:0:0:
392,248,112601,1,4,0:0:0:0:
384,248,112635,1,12,0:0:0:0:
376,248,112669,1,12,0:0:0:0:
368,248,112703,1,12,0:0:0:0:
360,248,112737,1,12,0:0:0:0:
352,248,112772,1,12,0:0:0:0:
312,248,112908,1,4,0:0:0:0:
304,248,112942,1,4,0:0:0:0:
296,248,112976,1,4,0:0:0:0:
288,248,113010,1,4,0:0:0:0:
280,240,113044,1,14,0:0:0:0:
272,200,113181,2,4,L|32:32,1,270.000010299683
48,56,113487,1,4,0:0:0:0:
48,64,113522,1,4,0:0:0:0:
48,72,113556,1,4,0:0:0:0:
48,80,113590,1,4,0:0:0:0:
48,88,113624,1,4,0:0:0:0:
48,96,113658,1,4,0:0:0:0:
48,104,113692,1,4,0:0:0:0:
48,112,113726,1,4,0:0:0:0:
48,120,113760,1,4,0:0:0:0:
48,128,113794,1,12,0:0:0:0:
48,128,113828,1,12,0:0:0:0:
56,136,113862,1,12,0:0:0:0:
64,152,113931,1,4,0:0:0:0:
64,160,113965,1,4,0:0:0:0:
64,168,113999,1,12,0:0:0:0:
88,136,114135,1,14,0:0:0:0:
40,216,114169,1,14,0:0:0:0:
40,224,114203,1,14,0:0:0:0:
48,232,114237,1,14,0:0:0:0:
48,240,114272,1,14,0:0:0:0:
48,248,114306,1,14,0:0:0:0:
56,256,114340,1,14,0:0:0:0:
64,264,114374,1,14,0:0:0:0:
72,272,114408,1,14,0:0:0:0:
176,232,114544,1,4,0:0:0:0:
136,192,114680,1,6,0:0:0:0:
128,184,114714,1,6,0:0:0:0:
120,176,114748,1,4,0:0:0:0:
112,168,114782,1,6,0:0:0:0:
104,160,114816,1,6,0:0:0:0:
96,152,114850,1,4,0:0:0:0:
88,144,114885,1,4,0:0:0:0:
80,136,114919,1,4,0:0:0:0:
72,128,114953,1,4,0:0:0:0:
112,112,115089,1,4,0:0:0:0:
112,96,115123,1,4,0:0:0:0:
120,88,115157,1,4,0:0:0:0:
128,80,115191,1,4,0:0:0:0:
136,80,115225,1,4,0:0:0:0:
176,80,115362,1,12,0:0:0:0:
216,80,115498,1,6,0:0:0:0:
256,80,115635,1,4,0:0:0:0:
264,80,115669,1,4,0:0:0:0:
272,80,115703,1,12,0:0:0:0:
280,80,115737,1,12,0:0:0:0:
288,88,115771,1,12,0:0:0:0:
320,112,115907,1,6,0:0:0:0:
328,120,115941,1,6,0:0:0:0:
336,120,115975,1,6,0:0:0:0:
344,112,116010,1,4,0:0:0:0:
352,104,116044,1,4,0:0:0:0:
392,104,116180,1,4,0:0:0:0:
432,96,116316,1,12,0:0:0:0:
456,128,116453,1,12,0:0:0:0:
456,168,116589,1,4,0:0:0:0:
448,208,116725,1,12,0:0:0:0:
416,232,116862,1,6,0:0:0:0:
408,240,116896,1,4,0:0:0:0:
400,248,116930,1,4,0:0:0:0:
392,248,116964,1,14,0:0:0:0:
384,248,116998,1,4,0:0:0:0:
376,248,117032,1,4,0:0:0:0:
368,248,117066,1,6,0:0:0:0:
360,248,117100,1,4,0:0:0:0:
352,248,117135,1,4,0:0:0:0:
312,248,117271,1,4,0:0:0:0:
304,248,117305,1,14,0:0:0:0:
296,248,117339,1,14,0:0:0:0:
288,248,117373,1,4,0:0:0:0:
280,240,117407,1,6,0:0:0:0:
272,200,117544,2,4,L|32:32,1,270.000010299683
48,56,117850,1,4,0:0:0:0:
48,64,117885,1,6,0:0:0:0:
48,72,117919,1,14,0:0:0:0:
48,80,117953,1,4,0:0:0:0:
48,88,117987,1,6,0:0:0:0:
48,96,118021,1,14,0:0:0:0:
48,104,118055,1,4,0:0:0:0:
48,112,118089,1,6,0:0:0:0:
48,120,118123,1,14,0:0:0:0:
48,128,118157,1,4,0:0:0:0:
48,128,118191,1,6,0:0:0:0:
56,136,118225,1,14,0:0:0:0:
56,144,118260,1,4,0:0:0:0:
56,160,118294,1,6,0:0:0:0:
56,168,118328,1,14,0:0:0:0:
56,176,118362,1,4,0:0:0:0:
64,184,118397,1,6,0:0:0:0:
64,192,118431,1,14,0:0:0:0:
64,200,118465,1,4,0:0:0:0:
64,208,118499,1,6,0:0:0:0:
64,216,118533,1,14,0:0:0:0:
72,224,118567,1,4,0:0:0:0:
256,192,118635,12,0,118976,0:0:0:0:
176,232,119045,1,0,0:0:0:0:
136,192,119181,1,0,0:0:0:0:
128,184,119215,1,0,0:0:0:0:
120,176,119249,1,8,0:0:0:0:
112,168,119283,1,4,0:0:0:0:
104,160,119317,1,10,0:0:0:0:
96,152,119351,1,0,0:0:0:0:
88,144,119386,1,0,0:0:0:0:
80,136,119420,1,10,0:0:0:0:
72,128,119454,1,4,0:0:0:0:
112,112,119590,1,4,0:0:0:0:
112,96,119624,1,4,0:0:0:0:
120,88,119658,1,4,0:0:0:0:
128,80,119692,1,8,0:0:0:0:
136,80,119726,1,8,0:0:0:0:
176,80,119863,1,2,0:0:0:0:
216,80,119999,1,0,0:0:0:0:
256,80,120136,1,0,0:0:0:0:
264,80,120170,1,0,0:0:0:0:
272,80,120204,1,0,0:0:0:0:
280,80,120238,1,2,0:0:0:0:
288,88,120272,1,2,0:0:0:0:
320,112,120408,1,8,0:0:0:0:
328,120,120442,1,8,0:0:0:0:
336,120,120476,1,8,0:0:0:0:
344,112,120511,1,4,0:0:0:0:
352,104,120545,1,4,0:0:0:0:
392,104,120681,1,4,0:0:0:0:
432,96,120817,1,4,0:0:0:0:
456,128,120954,1,4,0:0:0:0:
456,168,121090,1,2,0:0:0:0:
448,208,121226,1,8,0:0:0:0:
416,232,121363,1,0,0:0:0:0:
408,240,121397,1,0,0:0:0:0:
208,0,121431,1,8,0:0:0:0:
392,248,121465,1,0,0:0:0:0:
384,248,121499,1,8,0:0:0:0:
376,248,121533,1,8,0:0:0:0:
368,248,121567,1,8,0:0:0:0:
360,248,121601,1,8,0:0:0:0:
352,248,121636,1,8,0:0:0:0:
312,248,121772,1,4,0:0:0:0:
304,248,121806,1,4,0:0:0:0:
296,248,121840,1,0,0:0:0:0:
288,248,121874,1,0,0:0:0:0:
280,240,121908,1,10,0:0:0:0:
272,200,122045,2,0,L|32:32,1,270.000010299683
80,48,122318,1,0,0:0:0:0:
256,192,122454,12,0,122727,0:0:0:0:
232,168,122863,5,0,0:0:0:0:
