osu file format v12

[General]
AudioFilename: gtTnzb4OW4TC.128.mp3
AudioLeadIn: 0
PreviewTime: -1
Countdown: 1
SampleSet: Soft
StackLeniency: 0.7
Mode: 0
LetterboxInBreaks: 0
EpilepsyWarning: 1

[Editor]
Bookmarks: -67
DistanceSpacing: 1
BeatDivisor: 6
GridSize: 8

[Metadata]
Title:Aqua and Spaceship
TitleUnicode:Aqua and Spaceship
Artist:Miku Hatsune
ArtistUnicode:Miku Hatsune
Creator:Xgor
Version:EZ
Source:
Tags:
BeatmapID:235836
BeatmapSetID:85979

[Difficulty]
HPDrainRate:0
CircleSize:2
OverallDifficulty:0
ApproachRate:0
SliderMultiplier:0.400000005960464
SliderTickRate:1

[Events]
//Background and Video events
0,0,"hatsune-miku-chrie-E2-99-A5-32011805-1024-768.jpg",1,1
//Break Periods
2,83177,90995
//Storyboard Layer 0 (Background)
//Storyboard Layer 1 (Fail)
//Storyboard Layer 2 (Pass)
//Storyboard Layer 3 (Foreground)
//Storyboard Sound Samples
//Background Colour Transformations
3,100,163,162,255

[TimingPoints]
5523,272.727272727273,4,2,0,100,1,0

[HitObjects]
0,56,5523,1,2,0:1:0:0:
160,56,6613,1,2,0:1:0:0:
320,56,7704,1,2,0:1:0:0:
480,56,8795,1,2,0:1:0:0:
488,216,9886,5,2,0:1:0:0:
328,216,10976,1,2,0:1:0:0:
168,216,12067,1,2,0:1:0:0:
8,216,13158,1,2,0:1:0:0:
120,328,14250,6,2,P|392:312|456:112,1,480.000007152557
392,56,18613,6,2,P|120:72|56:272,1,480.000007152557
120,328,22977,6,2,P|392:312|456:112,1,480.000007152557
392,56,27341,6,2,P|120:72|56:272,1,480.000007152557
24,344,31704,5,2,0:1:0:0:
184,336,32795,1,2,0:1:0:0:
344,320,33886,2,2,P|480:280|496:248,1,160.000002384186
496,112,36068,5,2,0:1:0:0:
336,104,37159,1,2,0:1:0:0:
176,88,38250,2,2,P|40:48|24:16,1,160.000002384186
40,200,40432,5,2,0:1:0:0:
40,200,41523,1,2,0:1:0:0:
176,280,42613,1,2,0:1:0:0:
176,280,43704,1,2,0:1:0:0:
336,280,44795,5,2,0:1:0:0:
336,280,45886,1,2,0:1:0:0:
472,200,46977,1,2,0:1:0:0:
472,200,48068,1,2,0:1:0:0:
392,328,49159,6,2,P|120:312|56:112,1,480.000007152557
120,56,53522,6,2,P|392:72|456:272,1,480.000007152557
392,328,57886,6,2,P|120:312|56:112,1,480.000007152557
120,56,62250,6,2,P|392:72|456:272,1,480.000007152557
488,344,66613,5,2,0:1:0:0:
328,336,67704,1,2,0:1:0:0:
168,320,68795,2,2,P|32:280|16:248,1,160.000002384186
16,112,70977,5,2,0:1:0:0:
176,104,72068,1,2,0:1:0:0:
336,88,73159,2,2,P|472:48|488:16,1,160.000002384186
472,200,75341,5,2,0:1:0:0:
472,200,76432,1,2,0:1:0:0:
336,280,77522,1,2,0:1:0:0:
336,280,78613,1,2,0:1:0:0:
176,280,79704,5,2,0:1:0:0:
176,280,80795,1,2,0:1:0:0:
40,200,81886,1,2,0:1:0:0:
40,200,82977,1,2,0:1:0:0:
120,304,92795,5,2,0:1:0:0:
120,304,93886,1,2,0:1:0:0:
120,304,94977,1,2,0:1:0:0:
120,304,96068,1,2,0:1:0:0:
392,304,97159,5,2,0:1:0:0:
392,304,98250,1,2,0:1:0:0:
392,304,99341,1,2,0:1:0:0:
392,304,100432,1,2,0:1:0:0:
448,181,101523,6,2,P|235:11|53:117,1,480.000007152557
63,202,105886,6,2,P|276:372|458:266,1,480.000007152557
448,181,110250,6,2,P|235:11|53:117,1,480.000007152557
63,202,114614,6,2,P|276:372|458:266,1,480.000007152557
256,192,120068,12,6,123341,0:1:0:0:
