osu file format v12

[General]
AudioFilename: gtTnzb4OW4TC.128.mp3
AudioLeadIn: 0
PreviewTime: -1
Countdown: 1
SampleSet: Soft
StackLeniency: 0.7
Mode: 0
LetterboxInBreaks: 1
EpilepsyWarning: 1

[Editor]
Bookmarks: -67
DistanceSpacing: 1
BeatDivisor: 2
GridSize: 16

[Metadata]
Title:Aqua and Spaceship
TitleUnicode:Aqua and Spaceship
Artist:Miku Hatsune
ArtistUnicode:Miku Hatsune
Creator:Xgor
Version:[Advanced]
Source:
Tags:
BeatmapID:235844
BeatmapSetID:85979

[Difficulty]
HPDrainRate:2
CircleSize:2
OverallDifficulty:3
ApproachRate:3
SliderMultiplier:0.800000005960464
SliderTickRate:1

[Events]
//Background and Video events
0,0,"hatsune-miku-chrie-E2-99-A5-32011805-1024-768.jpg",1,1
//Break Periods
//Storyboard Layer 0 (Background)
//Storyboard Layer 1 (Fail)
//Storyboard Layer 2 (Pass)
//Storyboard Layer 3 (Foreground)
//Storyboard Sound Samples
//Background Colour Transformations
3,100,163,162,255

[TimingPoints]
5523,272.727272727273,4,2,0,100,1,0
12204,-100,4,2,0,100,0,0

[HitObjects]
40,288,5523,2,2,B|80:312|120:320|128:312,1,80.0000005960464
208,312,6068,2,2,P|288:288|296:280,1,80.0000005960464
384,232,6613,2,2,B|432:216|448:192|448:192|448:200,1,80.0000005960464
408,96,7159,2,2,B|376:48|352:48|352:48,1,80.0000005960464
240,56,7704,2,2,P|160:64|144:88,1,80.0000005960464
80,160,8250,2,2,P|120:224|216:232,3,160.000001192093
336,96,10159,6,2,L|376:112,1,40.0000002980232
416,120,10432,2,2,L|432:168,1,40.0000002980232
440,200,10704,2,2,L|392:264,1,80.0000005960464
280,304,11250,2,2,L|240:288,1,40.0000002980232
200,280,11523,2,2,L|184:232,1,40.0000002980232
176,200,11795,2,2,L|224:136,1,80.0000005960464
280,80,12204,6,2,B|448:56|504:136|312:344,1,400.000002980232
296,336,13704,2,2,L|192:296,1,80.0000005960464
192,328,14250,6,2,P|112:304|72:200,1,200.000001490116
176,104,15341,2,2,P|256:128|296:232,1,200.000001490116
416,312,16432,6,2,P|456:256|432:216,1,120.00000089407
376,128,17113,6,2,P|328:160|336:224,1,120.00000089407
320,288,17795,6,2,L|144:248,1,160.000001192093
64,136,18613,5,2,0:1:0:0:
136,96,18886,1,2,0:1:0:0:
216,88,19159,1,2,0:1:0:0:
312,120,19432,1,2,0:1:0:0:
352,216,19704,1,2,0:1:0:0:
264,256,19977,1,2,0:1:0:0:
168,256,20250,1,2,0:1:0:0:
80,264,20523,1,2,0:1:0:0:
56,192,20795,6,2,P|96:144|144:136,1,80.0000005960464
160,152,21341,2,2,P|224:144|248:112,1,80.0000005960464
280,80,21886,1,2,0:1:0:0:
360,64,22159,2,2,P|448:136|408:256,1,240.000001788139
176,96,23250,6,2,L|136:112,1,40.0000002980232
96,120,23523,2,2,L|80:168,1,40.0000002980232
72,200,23795,2,2,L|120:264,1,80.0000005960464
232,304,24341,2,2,L|272:288,1,40.0000002980232
312,280,24614,2,2,L|328:232,1,40.0000002980232
336,200,24886,2,2,L|288:136,1,80.0000005960464
48,48,25704,5,2,0:1:0:0:
128,296,26250,5,2,0:1:0:0:
464,224,26795,5,2,0:1:0:0:
264,40,27341,5,2,0:1:0:0:
184,96,27613,2,2,L|144:128,6,40.0000002980232
312,152,28704,2,2,L|344:192,6,40.0000002980232
256,256,29795,2,2,L|224:296,6,40.0000002980232
144,336,30886,2,2,P|64:256|112:144,1,240.000001788139
160,112,31977,2,2,L|400:80,1,240.000001788139
416,144,33068,6,2,L|192:240,1,240.000001788139
240,320,34159,1,2,0:1:0:0:
96,320,34704,5,2,0:1:0:0:
64,208,34977,1,2,0:1:0:0:
144,144,35250,1,2,0:1:0:0:
240,144,35523,5,2,0:1:0:0:
336,160,35795,1,2,0:1:0:0:
368,48,36068,6,2,P|448:128|400:240,1,240.000001788139
352,272,37159,2,2,L|112:304,1,240.000001788139
96,240,38250,6,2,L|320:144,1,240.000001788139
400,80,39341,2,2,P|432:288|320:320,1,360.000002682209
304,304,40841,5,2,0:1:0:0:
96,240,41659,1,2,0:1:0:0:
96,192,41932,1,2,0:1:0:0:
64,96,42613,6,2,L|192:80,2,120.00000089407
224,176,43704,2,2,L|352:160,2,120.00000089407
472,288,44795,6,2,B|432:312|392:320|384:312,1,80.0000005960464
304,312,45340,6,2,P|224:288|216:280,1,80.0000005960464
128,232,45885,6,2,B|80:216|64:192|64:192|64:200,1,80.0000005960464
104,96,46431,6,2,B|136:48|160:48|160:48,1,80.0000005960464
272,56,46976,6,2,P|352:64|368:88,1,80.0000005960464
432,160,47522,6,2,P|392:224|296:232,3,160.000001192093,0|0|0|4,0:0|0:0|0:0|0:0,0:1:0:0:
