osu file format v14

[General]
AudioFilename: MikitoP feat.Matsushita - Kunoichi demo Koi ga shitai.mp3
AudioLeadIn: 0
PreviewTime: 56469
Countdown: 0
SampleSet: Soft
StackLeniency: 0.7
Mode: 3
LetterboxInBreaks: 0
SpecialStyle: 0
WidescreenStoryboard: 0

[Editor]
DistanceSpacing: 1.1
BeatDivisor: 4
GridSize: 4
TimelineZoom: 1

[Metadata]
Title:Kunoichi demo Koi ga Shitai
TitleUnicode:クノイチでも恋がしたい
Artist:MikitoP feat.Matsushita
ArtistUnicode:みきとP feat.松下
Creator:[GraveChaos]
Version:NOVICE
Source:SOUND VOLTEX II -infinite infection-
Tags:SDVX Vocaloid Bemani Nico Nico Douga Hatsune Miku Kagamine Rin DrawdeX
BeatmapID:579655
BeatmapSetID:218482

[Difficulty]
HPDrainRate:7
CircleSize:4
OverallDifficulty:7
ApproachRate:5
SliderMultiplier:1.2
SliderTickRate:1

[Events]
//Background and Video events
0,0,"Kunoichi demo Koi ga Shitai.png",0,0
//Break Periods
//Storyboard Layer 0 (Background)
//Storyboard Layer 1 (Fail)
//Storyboard Layer 2 (Pass)
//Storyboard Layer 3 (Foreground)
//Storyboard Sound Samples

[TimingPoints]
5281,324.324324324324,4,2,1,40,1,0
43551,324.324324324324,4,2,1,40,1,0
56523,-100,4,2,1,40,0,1
83442,-100,4,2,1,40,0,0

[HitObjects]
64,192,91,128,0,416:0:0:0:0:
320,192,416,128,0,740:0:0:0:0:
192,192,740,128,0,1064:0:0:0:0:
448,192,1064,128,0,1389:0:0:0:0:
192,192,1389,128,0,1713:0:0:0:0:
320,192,1713,128,0,2037:0:0:0:0:
64,192,2037,128,0,2362:0:0:0:0:
448,192,2362,128,0,2686:0:0:0:0:
64,192,2686,128,0,3010:0:0:0:60:soft-hitnormal.wav
320,192,3010,128,0,3335:0:0:0:0:
192,192,3335,128,0,3659:0:0:0:0:
448,192,3659,128,0,3983:0:0:0:0:
64,192,3983,128,0,4308:0:0:0:0:
448,192,4308,128,0,4632:0:0:0:0:
192,192,4632,128,0,4956:0:0:0:0:
320,192,4956,128,0,5280:0:0:0:0:
64,192,5280,1,2,0:0:0:0:
448,192,5280,1,4,0:0:0:0:
320,192,5605,1,2,0:0:0:0:
448,192,5929,1,2,0:0:0:0:
192,192,5929,1,0,0:0:0:0:
192,192,6253,1,2,0:0:0:0:
320,192,6578,1,2,0:0:0:0:
64,192,6578,1,0,0:0:0:0:
320,192,6902,1,2,0:0:0:0:
448,192,7226,1,2,0:0:0:0:
192,192,7226,1,0,0:0:0:0:
192,192,7551,1,2,0:0:0:0:
64,192,7875,1,2,0:0:0:0:
448,192,7875,128,0,9010:0:0:0:0:
192,192,8199,1,2,0:0:0:0:
320,192,8524,1,2,0:0:0:0:
64,192,8848,1,2,0:0:0:0:
320,192,9010,1,8,0:0:0:0:
192,192,9010,1,0,0:0:0:0:
64,192,9335,1,2,0:0:0:0:
320,192,9497,1,2,0:0:0:0:
192,192,9659,1,2,0:0:0:0:
448,192,9821,1,2,0:0:0:0:
64,192,9983,1,2,0:0:0:0:
448,192,10145,128,2,10470:0:0:0:0:
320,192,10470,1,4,0:0:0:0:
64,192,10470,1,0,0:0:0:0:
192,192,10794,1,2,0:0:0:0:
448,192,10794,1,0,0:0:0:0:
64,192,11118,1,2,0:0:0:0:
448,192,11443,1,2,0:0:0:0:
192,192,11767,1,2,0:0:0:0:
64,192,12091,1,2,0:0:0:0:
320,192,12091,1,0,0:0:0:0:
448,192,12416,1,2,0:0:0:0:
320,192,12740,1,2,0:0:0:0:
448,192,13064,1,4,0:0:0:0:
192,192,13064,1,2,0:0:0:0:
320,192,13389,1,2,0:0:0:0:
64,192,13389,1,0,0:0:0:0:
448,192,13713,1,2,0:0:0:0:
64,192,14037,1,2,0:0:0:0:
320,192,14037,1,0,0:0:0:0:
448,192,14362,128,2,14686:0:0:0:0:
192,192,14362,1,8,0:0:0:0:
64,192,14686,128,8,15010:0:0:0:0:
320,192,14686,1,2,0:0:0:0:
192,192,15010,128,8,15335:0:0:0:0:
320,192,15010,1,2,0:0:0:0:
448,192,15335,1,2,0:0:0:0:
64,192,15497,1,2,0:0:0:0:
320,192,15659,1,2,0:0:0:0:
192,192,15659,1,0,0:0:0:0:
448,192,15983,1,2,0:0:0:0:
64,192,15983,1,0,0:0:0:0:
192,192,16308,1,2,0:0:0:0:
320,192,16632,1,2,0:0:0:0:
64,192,16956,1,2,0:0:0:0:
448,192,17280,1,2,0:0:0:0:
192,192,17280,1,0,0:0:0:0:
320,192,17605,1,2,0:0:0:0:
192,192,17929,1,2,0:0:0:0:
320,192,18253,1,4,0:0:0:0:
64,192,18253,1,2,0:0:0:0:
448,192,18578,1,2,0:0:0:0:
192,192,18578,1,0,0:0:0:0:
64,192,18902,1,2,0:0:0:0:
448,192,19226,1,2,0:0:0:0:
192,192,19226,1,0,0:0:0:0:
320,192,19551,128,2,19875:0:0:0:0:
64,192,19551,1,8,0:0:0:0:
448,192,19875,128,2,20199:0:0:0:0:
192,192,19875,1,8,0:0:0:0:
64,192,20199,128,8,20524:0:0:0:0:
320,192,20199,1,2,0:0:0:0:
448,192,20524,1,2,0:0:0:0:
192,192,20524,128,8,20848:0:0:0:0:
448,192,20848,1,0,0:0:0:0:
320,192,21010,1,0,0:0:0:0:
64,192,21172,1,0,0:0:0:0:
192,192,21335,1,0,0:0:0:0:
320,192,21497,128,0,21821:0:0:0:0:
64,192,21821,128,0,22145:0:0:0:0:
448,192,22145,1,4,0:0:0:0:
192,192,22145,1,2,0:0:0:0:
320,192,22470,1,2,0:0:0:0:
192,192,22470,1,0,0:0:0:0:
320,192,22794,1,0,0:0:0:0:
64,192,23118,1,2,0:0:0:0:
192,192,23118,1,0,0:0:0:0:
192,192,23443,1,0,0:0:0:0:
320,192,23767,1,2,0:0:0:0:
448,192,23767,1,0,0:0:0:0:
320,192,24091,128,8,24416:0:0:0:0:
64,192,24091,1,2,0:0:0:0:
192,192,24416,128,2,24740:0:0:0:0:
448,192,24416,1,8,0:0:0:0:
64,192,24740,1,0,0:0:0:0:
64,192,25064,1,2,0:0:0:0:
320,192,25064,1,0,0:0:0:0:
192,192,25389,1,0,0:0:0:0:
192,192,25713,1,2,0:0:0:0:
448,192,25713,1,0,0:0:0:0:
320,192,26037,1,0,0:0:0:0:
64,192,26362,1,2,0:0:0:0:
320,192,26362,1,0,0:0:0:0:
64,192,26686,128,2,27010:0:0:0:0:
448,192,27010,128,2,27335:0:0:0:0:
192,192,27335,1,4,0:0:0:0:
64,192,27335,1,2,0:0:0:0:
320,192,27659,1,2,0:0:0:0:
64,192,27659,1,0,0:0:0:0:
192,192,27983,1,0,0:0:0:0:
448,192,28308,1,2,0:0:0:0:
192,192,28308,1,0,0:0:0:0:
320,192,28632,1,0,0:0:0:0:
64,192,28956,1,2,0:0:0:0:
320,192,28956,1,0,0:0:0:0:
448,192,29280,128,2,29605:0:0:0:0:
192,192,29280,1,8,0:0:0:0:
64,192,29605,128,8,29929:0:0:0:0:
320,192,29605,1,2,0:0:0:0:
448,192,29929,1,0,0:0:0:0:
64,192,30253,1,2,0:0:0:0:
320,192,30253,1,0,0:0:0:0:
320,192,30578,1,0,0:0:0:0:
192,192,30902,1,2,0:0:0:0:
448,192,30902,1,0,0:0:0:0:
192,192,31226,1,0,0:0:0:0:
64,192,31551,1,2,0:0:0:0:
320,192,31551,1,0,0:0:0:0:
448,192,31875,128,2,32199:0:0:0:0:
192,192,31875,1,8,0:0:0:0:
192,192,32199,128,2,32524:0:0:0:0:
320,192,32199,1,8,0:0:0:0:
448,192,32524,1,4,0:0:0:0:
64,192,32524,1,0,0:0:0:0:
320,192,32848,1,2,0:0:0:0:
64,192,32848,1,0,0:0:0:0:
192,192,33172,1,0,0:0:0:0:
448,192,33497,1,2,0:0:0:0:
192,192,33497,1,0,0:0:0:0:
320,192,33821,1,0,0:0:0:0:
64,192,34145,1,2,0:0:0:0:
320,192,34145,1,0,0:0:0:0:
192,192,34470,128,2,34794:0:0:0:0:
448,192,34794,1,2,0:0:0:0:
64,192,35118,128,8,35443:0:0:0:0:
320,192,35118,1,2,0:0:0:0:
320,192,35443,128,2,35767:0:0:0:0:
192,192,35443,1,8,0:0:0:0:
64,192,35767,128,2,36091:0:0:0:0:
448,192,35767,1,8,0:0:0:0:
192,192,36091,128,2,36416:0:0:0:0:
320,192,36091,1,8,0:0:0:0:
448,192,36416,128,0,36578:0:0:0:0:
64,192,36578,1,0,0:0:0:0:
192,192,36740,1,2,0:0:0:0:
320,192,37064,1,0,0:0:0:0:
192,192,37389,1,2,0:0:0:0:
448,192,37389,128,0,37713:0:0:0:0:
64,192,37713,1,2,0:0:0:0:
320,192,37713,1,4,0:0:0:0:
192,192,38037,1,2,0:0:0:0:
448,192,38037,1,0,0:0:0:0:
64,192,38362,1,0,0:0:0:0:
448,192,38686,1,2,0:0:0:0:
192,192,38686,1,0,0:0:0:0:
320,192,39010,1,0,0:0:0:0:
64,192,39335,1,2,0:0:0:0:
320,192,39335,1,0,0:0:0:0:
192,192,39659,1,0,0:0:0:0:
192,192,39983,1,2,0:0:0:0:
448,192,39983,1,0,0:0:0:0:
320,192,40308,128,8,40632:0:0:0:0:
64,192,40308,1,2,0:0:0:0:
448,192,40632,1,8,0:0:0:0:
192,192,40794,128,8,41118:0:0:0:0:
64,192,40794,1,2,0:0:0:0:
448,192,41118,128,2,41443:0:0:0:0:
320,192,41118,1,8,0:0:0:0:
64,192,41443,128,2,41929:0:0:0:0:
192,192,41443,1,8,0:0:0:0:
320,192,41767,1,0,0:0:0:0:
448,192,41929,1,2,0:0:0:0:
64,192,42253,1,0,0:0:0:0:
448,192,42416,1,0,0:0:0:0:
192,192,42578,1,2,0:0:0:0:
320,192,42578,1,0,0:0:0:0:
64,192,42902,128,0,43551:0:0:0:0:
192,192,43226,1,0,0:0:0:0:
448,192,43551,128,4,44199:0:0:0:0:
320,192,43551,1,2,0:0:0:0:
192,192,44199,128,0,44848:0:0:0:0:
320,192,44848,128,2,45496:0:0:0:0:
64,192,45496,128,0,46145:0:0:0:0:
320,192,46145,128,2,46794:0:0:0:0:
192,192,46794,128,0,47442:0:0:0:0:
448,192,47442,128,0,48091:0:0:0:0:
192,192,48091,128,0,48740:0:0:0:0:
448,192,48740,128,8,49064:0:0:0:0:
64,192,48740,1,2,0:0:0:0:
320,192,49064,128,8,49388:0:0:0:0:
192,192,49064,1,0,0:0:0:0:
448,192,49388,128,2,50686:0:0:0:0:
64,192,49388,1,8,0:0:0:0:
192,192,50037,1,2,0:0:0:0:
320,192,50686,1,2,0:0:0:0:
64,192,51010,128,0,51334:0:0:0:0:
192,192,51334,128,2,51821:0:0:0:0:
448,192,51334,1,8,0:0:0:0:
320,192,51821,1,8,0:0:0:0:
448,192,51983,128,2,52469:0:0:0:0:
64,192,51983,1,8,0:0:0:0:
192,192,52469,1,0,0:0:0:0:
64,192,52632,128,2,52956:0:0:0:0:
320,192,52632,1,8,0:0:0:0:
320,192,52956,128,2,53280:0:0:0:0:
448,192,52956,1,8,0:0:0:0:
192,192,53280,1,2,0:0:0:0:
64,192,53280,128,8,53605:0:0:0:0:
448,192,53605,128,8,53929:0:0:0:0:
320,192,53605,1,2,0:0:0:0:
64,192,53929,128,8,55226:0:0:0:0:
192,192,53929,1,2,0:0:0:0:
320,192,54253,1,0,0:0:0:0:
448,192,54578,1,0,0:0:0:0:
192,192,54902,1,2,0:0:0:0:
320,192,55226,1,8,0:0:0:0:
448,192,55226,128,2,55550:0:0:0:0:
64,192,55550,1,8,0:0:0:0:
192,192,55550,128,2,55875:0:0:0:0:
320,192,55875,128,8,56199:0:0:0:0:
448,192,55875,1,2,0:0:0:0:
64,192,56199,1,2,0:0:0:0:
192,192,56199,128,8,56523:0:0:0:0:
448,192,56523,1,4,0:0:0:0:
320,192,56523,1,2,0:0:0:0:
192,192,56848,1,2,0:0:0:0:
448,192,56848,1,0,0:0:0:0:
64,192,57172,1,0,0:0:0:0:
192,192,57496,1,2,0:0:0:0:
448,192,57496,1,0,0:0:0:0:
64,192,57821,1,0,0:0:0:0:
448,192,58145,128,2,58469:0:0:0:0:
64,192,58469,128,0,58794:0:0:0:0:
320,192,58794,1,2,0:0:0:0:
192,192,58794,1,8,0:0:0:0:
448,192,59118,1,0,0:0:0:0:
64,192,59442,1,2,0:0:0:0:
320,192,59442,1,0,0:0:0:0:
448,192,59767,1,0,0:0:0:0:
320,192,60091,1,2,0:0:0:0:
64,192,60091,1,0,0:0:0:0:
192,192,60415,128,0,60740:0:0:0:0:
448,192,60740,128,8,61064:0:0:0:0:
320,192,60740,1,2,0:0:0:0:
192,192,61064,1,2,0:0:0:0:
64,192,61064,128,8,61388:0:0:0:0:
448,192,61388,1,2,0:0:0:0:
320,192,61550,1,0,0:0:0:0:
192,192,61713,1,0,0:0:0:0:
448,192,62037,1,2,0:0:0:0:
192,192,62037,1,0,0:0:0:0:
64,192,62361,1,0,0:0:0:0:
320,192,62686,1,2,0:0:0:0:
64,192,62686,1,0,0:0:0:0:
192,192,63010,1,2,0:0:0:0:
448,192,63334,128,2,63659:0:0:0:0:
64,192,63659,128,0,63983:0:0:0:0:
320,192,63983,1,2,0:0:0:0:
448,192,63983,1,8,0:0:0:0:
192,192,64307,1,0,0:0:0:0:
64,192,64632,1,2,0:0:0:0:
320,192,64632,1,0,0:0:0:0:
320,192,64956,1,0,0:0:0:0:
192,192,65280,1,2,0:0:0:0:
448,192,65280,1,0,0:0:0:0:
320,192,65605,128,2,65929:0:0:0:0:
64,192,65929,128,8,66253:0:0:0:0:
192,192,65929,1,2,0:0:0:0:
448,192,66253,128,2,66902:0:0:0:0:
320,192,66253,1,8,0:0:0:0:
192,192,66578,1,2,0:0:0:0:
192,192,66902,128,2,67226:0:0:0:0:
64,192,66902,1,8,0:0:0:0:
320,192,67226,128,8,67550:0:0:0:0:
448,192,67226,1,2,0:0:0:0:
64,192,67550,128,8,67875:0:0:0:0:
192,192,67550,1,2,0:0:0:0:
320,192,67875,128,8,68199:0:0:0:0:
448,192,67875,1,2,0:0:0:0:
192,192,68199,128,2,68523:0:0:0:0:
64,192,68199,1,8,0:0:0:0:
448,192,68523,128,8,68848:0:0:0:0:
320,192,68523,1,2,0:0:0:0:
64,192,68848,128,2,69172:0:0:0:0:
192,192,68848,1,8,0:0:0:0:
320,192,69172,1,2,0:0:0:0:
192,192,69496,1,2,0:0:0:0:
448,192,69496,1,4,0:0:0:0:
320,192,69821,128,2,70145:0:0:0:0:
64,192,70145,1,0,0:0:0:0:
192,192,70469,128,2,70794:0:0:0:0:
448,192,70794,1,0,0:0:0:0:
320,192,71118,1,2,0:0:0:0:
192,192,71442,128,0,71767:0:0:0:0:
448,192,71767,128,2,72091:0:0:0:0:
64,192,71767,1,8,0:0:0:0:
64,192,72091,128,8,72415:0:0:0:0:
320,192,72091,1,2,0:0:0:0:
320,192,72415,128,8,72740:0:0:0:0:
192,192,72415,1,2,0:0:0:0:
192,192,72740,128,2,73064:0:0:0:0:
448,192,72740,1,8,0:0:0:0:
64,192,73064,128,2,73388:0:0:0:0:
320,192,73064,1,8,0:0:0:0:
448,192,73388,128,2,73713:0:0:0:0:
192,192,73388,1,8,0:0:0:0:
320,192,73713,128,8,74037:0:0:0:0:
64,192,73713,1,2,0:0:0:0:
64,192,74037,128,8,74361:0:0:0:0:
192,192,74037,1,2,0:0:0:0:
320,192,74361,1,2,0:0:0:0:
192,192,74686,1,4,0:0:0:0:
320,192,75010,128,2,75334:0:0:0:0:
64,192,75334,1,2,0:0:0:0:
320,192,75659,1,2,0:0:0:0:
192,192,75983,128,2,76307:0:0:0:0:
448,192,75983,1,8,0:0:0:0:
320,192,76307,128,8,76632:0:0:0:0:
64,192,76307,1,2,0:0:0:0:
448,192,76632,128,2,76956:0:0:0:0:
192,192,76632,1,8,0:0:0:0:
64,192,76956,1,2,0:0:0:0:
320,192,77280,128,8,77605:0:0:0:0:
192,192,77280,1,2,0:0:0:0:
64,192,77605,128,2,77929:0:0:0:0:
448,192,77605,1,8,0:0:0:0:
448,192,77929,128,2,78253:0:0:0:0:
192,192,77929,1,8,0:0:0:0:
192,192,78253,1,2,0:0:0:0:
320,192,78578,128,8,78902:0:0:0:0:
64,192,78578,1,2,0:0:0:0:
64,192,78902,128,8,79226:0:0:0:0:
192,192,78902,1,2,0:0:0:0:
448,192,79226,128,8,79875:0:0:0:0:
320,192,79226,1,2,0:0:0:0:
192,192,79550,1,2,0:0:0:0:
192,192,79875,128,4,80199:0:0:0:0:
64,192,79875,1,2,0:0:0:0:
448,192,80199,1,2,0:0:0:0:
64,192,80361,1,2,0:0:0:0:
448,192,80523,128,2,80848:0:0:0:0:
320,192,80523,1,0,0:0:0:0:
64,192,80848,128,0,81172:0:0:0:0:
320,192,81172,128,2,81496:0:0:0:0:
192,192,81496,128,8,81821:0:0:0:0:
64,192,81496,1,2,0:0:0:0:
448,192,81821,128,2,82469:0:0:0:0:
320,192,81821,1,8,0:0:0:0:
192,192,82469,1,2,0:0:0:0:
320,192,82794,1,2,0:0:0:0:
64,192,83118,128,2,83442:0:0:0:0:
320,192,83442,128,2,83767:0:0:0:0:
448,192,83767,1,4,0:0:0:0:
192,192,83767,1,2,0:0:0:0:
320,192,84091,1,2,0:0:0:0:
64,192,84091,1,0,0:0:0:0:
320,192,84415,1,0,0:0:0:0:
448,192,84740,1,2,0:0:0:0:
192,192,84740,1,0,0:0:0:0:
192,192,85064,1,0,0:0:0:0:
320,192,85388,1,2,0:0:0:0:
64,192,85388,1,0,0:0:0:0:
192,192,85713,128,2,86037:0:0:0:0:
320,192,86037,128,2,86361:0:0:0:0:
64,192,86361,1,2,0:0:0:0:
448,192,86361,1,4,0:0:0:0:
192,192,86686,1,2,0:0:0:0:
448,192,86686,1,0,0:0:0:0:
320,192,87010,1,0,0:0:0:0:
64,192,87334,1,2,0:0:0:0:
320,192,87334,1,0,0:0:0:0:
448,192,87659,128,2,87983:0:0:0:0:
192,192,87659,1,8,0:0:0:0:
192,192,87983,128,8,88307:0:0:0:0:
64,192,87983,1,2,0:0:0:0:
320,192,88307,128,2,88632:0:0:0:0:
448,192,88307,1,8,0:0:0:0:
64,192,88632,128,8,88956:0:0:0:0:
192,192,88632,1,2,0:0:0:0:
448,192,88794,1,0,0:0:0:0:
320,192,88956,1,0,0:0:0:0:
192,192,89280,1,2,0:0:0:0:
448,192,89280,1,0,0:0:0:0:
448,192,89605,1,2,0:0:0:0:
64,192,89929,1,2,0:0:0:0:
320,192,89929,1,0,0:0:0:0:
64,192,90253,1,0,0:0:0:0:
192,192,90578,1,2,0:0:0:0:
448,192,90578,1,0,0:0:0:0:
448,192,90902,1,2,0:0:0:0:
64,192,91226,1,2,0:0:0:0:
320,192,91226,1,0,0:0:0:0:
448,192,91550,1,4,0:0:0:0:
192,192,91550,1,2,0:0:0:0:
64,192,91875,1,2,0:0:0:0:
320,192,91875,1,0,0:0:0:0:
64,192,92199,1,0,0:0:0:0:
448,192,92523,1,2,0:0:0:0:
192,192,92523,1,0,0:0:0:0:
64,192,92848,128,2,93172:0:0:0:0:
320,192,92848,1,8,0:0:0:0:
448,192,93172,1,8,0:0:0:0:
320,192,93172,128,2,93496:0:0:0:0:
192,192,93496,128,2,93821:0:0:0:0:
64,192,93496,1,8,0:0:0:0:
448,192,93821,128,2,94145:0:0:0:0:
320,192,93821,1,8,0:0:0:0:
320,192,94145,128,2,95280:0:0:0:0:
64,192,94145,1,4,0:0:0:0:
64,192,95280,128,2,96091:0:0:0:0:
448,192,96091,128,2,96740:0:0:0:0:
192,192,96740,1,2,0:0:0:0:
64,192,97388,128,0,98686:0:0:0:0:
320,192,97388,128,0,98686:0:0:0:0:
