osu file format v12

[General]
AudioFilename: MV.mp3
AudioLeadIn: 2000
PreviewTime: 39750
Countdown: 0
SampleSet: Normal
StackLeniency: 0.7
Mode: 0
LetterboxInBreaks: 1
WidescreenStoryboard: 1

[Editor]
DistanceSpacing: 0.5
BeatDivisor: 4
GridSize: 4
TimelineZoom: 1.5

[Metadata]
Title:Yonjuunana
TitleUnicode:ヨンジュウナナ
Artist:MikitoP
ArtistUnicode:みきとP
Creator:SuperHD
Version:Insane
Source:
Tags:初音ミクHatsune Miku Vocaloid
BeatmapID:411232
BeatmapSetID:169839

[Difficulty]
HPDrainRate:7
CircleSize:4
OverallDifficulty:7
ApproachRate:9
SliderMultiplier:1.7
SliderTickRate:1

[Events]
//Background and Video events
0,0,"cfdc58ed2e738bd432c9efb0a38b87d6267ff92b.jpg",0,0
//Break Periods
2,101352,111540
2,179492,188808
//Storyboard Layer 0 (Background)
//Storyboard Layer 1 (Fail)
//Storyboard Layer 2 (Pass)
//Storyboard Layer 3 (Foreground)
//Storyboard Sound Samples
//Background Colour Transformations
3,100,163,162,255

[TimingPoints]
687,348.837209302326,4,2,0,30,1,0
11849,-100,4,2,0,50,0,0
17424,-100,4,1,40,40,0,0
17599,-100,4,2,0,50,0,0
17773,-100,4,1,40,40,0,0
17947,-100,4,2,0,50,0,0
18122,-100,4,1,40,40,0,0
18296,-100,4,2,0,50,0,0
18471,-100,4,1,40,40,0,0
18645,-100,4,2,0,50,0,0
18820,-100,4,1,40,40,0,0
18994,-100,4,2,0,50,0,0
19168,-100,4,1,40,40,0,0
19343,-100,4,2,0,50,0,0
19517,-100,4,1,40,40,0,0
19692,-100,4,2,0,50,0,0
19866,-100,4,1,40,40,0,0
20040,-100,4,2,0,50,0,0
20215,-100,4,1,40,40,0,0
20738,-100,4,2,0,50,0,0
23006,-100,4,1,1,50,0,0
55099,-100,4,1,40,40,0,0
55273,-100,4,2,0,50,0,0
55447,-100,4,1,40,40,0,0
55622,-100,4,2,0,50,0,0
55796,-100,4,1,40,40,0,0
55883,-100,4,2,0,50,0,0
56145,-100,4,1,40,50,0,0
56494,-100,4,1,1,50,0,0
61378,-100,4,1,0,10,0,0
61552,-100,4,1,0,20,0,0
61727,-100,4,1,0,30,0,0
61901,-100,4,1,0,40,0,0
62075,-100,4,1,1,50,0,0
67482,-100,4,1,40,40,0,0
67657,-100,4,1,1,50,0,0
75680,-100,4,1,40,40,0,0
76029,-100,4,1,0,50,0,0
78826,-100,4,1,1,75,0,1
101152,-100,4,1,1,50,0,0
133238,-100,4,1,40,40,0,0
133413,-100,4,1,0,50,0,0
133587,-100,4,1,40,40,0,0
133761,-100,4,1,0,50,0,0
133936,-100,4,1,40,40,0,0
134285,-100,4,1,1,50,0,0
139517,-100,4,1,0,10,0,0
139692,-100,4,1,0,20,0,0
139866,-100,4,1,0,30,0,0
140040,-100,4,1,0,40,0,0
140215,-100,4,1,1,50,0,0
145447,-100,4,1,40,40,0,0
145796,-100,4,1,1,50,0,0
147192,-133.333333333333,4,1,1,50,0,0
147889,-100,4,1,1,50,0,0
153645,-100,4,1,40,40,0,0
154081,-100,4,1,0,50,0,0
156966,-100,4,1,1,75,0,1
166727,-100,4,1,0,15,0,1
166814,-100,4,1,0,20,0,1
166901,-100,4,1,0,25,0,1
166988,-100,4,1,0,30,0,1
167075,-100,4,1,1,35,0,1
167163,-100,4,1,0,40,0,1
167250,-100,4,1,1,45,0,1
179291,-100,4,1,0,50,0,0
189750,-100,4,1,40,40,0,0
190450,-100,4,1,1,50,0,0
212075,-100,4,1,40,40,0,0
212250,-100,4,1,1,50,0,0
215040,-100,4,1,40,50,0,0
215477,-100,4,1,0,50,0,0
218006,-100,4,1,40,50,0,0
218354,-200,4,2,0,25,0,0
228820,-200,4,1,0,50,0,0
229175,-200,4,1,40,50,0,0
229524,-200,4,1,0,50,0,0
235099,-166.666666666667,4,1,40,20,0,0
235273,-166.666666666667,4,1,0,20,0,0
235447,-142.857142857143,4,1,40,30,0,0
235622,-142.857142857143,4,1,0,30,0,0
235796,-125,4,1,40,40,0,0
235971,-125,4,1,0,40,0,0
236145,-111.111111111111,4,1,40,50,0,0
236320,-111.111111111111,4,1,0,50,0,0
236494,-100,4,1,0,50,0,0
237896,-100,4,1,1,75,0,1
258994,-100,4,1,40,40,0,1
259524,-100,4,1,0,50,0,0
261610,-200,4,1,0,50,0,0
261959,-142.857142857143,4,1,1,50,0,0
262308,-111.111111111111,4,1,0,50,0,0
262657,-90.9090909090909,4,1,1,50,0,0
263006,-100,4,1,1,50,0,0
276261,-100,4,2,0,50,0,0

[Colours]
Combo1 : 192,192,192
Combo2 : 128,255,255
Combo3 : 255,255,255
Combo4 : 255,255,128
Combo5 : 0,255,64
Combo6 : 0,128,255

[HitObjects]
84,124,512,5,0,0:0:0:0:
84,124,687,2,0,P|168:128|252:112,1,170,2|0,0:0|0:0,0:0:0:0:
316,88,1210,2,0,P|360:80|408:76,1,85
456,120,1559,1,0,0:0:0:0:
436,188,1733,1,0,0:0:0:0:
452,256,1907,1,0,0:0:0:0:
400,308,2082,2,0,P|358:309|316:313,1,85,0|0,0:0|0:0,0:0:0:0:
244,312,2431,1,0,0:0:0:0:
176,288,2605,6,0,P|156:336|132:360,1,85
80,280,2954,2,0,P|56:196|56:112,1,170
100,60,3477,2,0,P|184:72|272:68,1,170,2|0,0:0|0:0,0:0:0:0:
336,48,4000,1,0,0:0:0:0:
404,52,4175,1,0,0:0:0:0:
460,92,4349,2,0,L|432:172,2,85
392,284,4873,6,0,P|348:284|300:296,1,85,0|0,0:0|0:0,0:0:0:0:
200,316,5221,2,0,P|160:324|112:324,1,85
40,220,5570,1,0,0:0:0:0:
184,160,5745,1,0,0:0:0:0:
104,288,5919,1,0,0:0:0:0:
88,132,6093,1,0,0:0:0:0:
188,248,6268,6,0,P|228:264|272:268,1,85,2|0,0:0|0:0,0:0:0:0:
344,260,6617,1,0,0:0:0:0:
416,232,6792,1,0,0:0:0:0:
456,168,6966,2,0,L|472:84,1,85
372,40,7315,2,0,L|356:128,1,85
284,208,7663,2,0,P|200:200|120:164,1,170,0|0,0:0|0:0,0:0:0:0:
40,112,8187,2,0,P|36:200|52:284,1,170
160,336,8710,2,0,P|204:332|248:332,1,85
420,192,9059,5,2,0:0:0:0:
420,192,9408,2,0,P|384:168|340:152,1,85
248,120,9757,2,0,L|216:200,2,85
248,120,10280,1,0,0:0:0:0:
92,176,10454,2,0,L|56:260,1,85,0|0,0:0|0:0,0:0:0:0:
140,332,10803,2,0,L|172:252,1,85
232,312,11152,1,0,0:0:0:0:
308,272,11327,1,0,0:0:0:0:
376,220,11501,1,0,0:0:0:0:
420,148,11675,1,0,0:0:0:0:
444,68,11850,6,0,P|360:68|272:80,1,170,2|0,0:0|0:0,0:0:0:0:
84,112,12373,1,0,0:0:0:0:
84,112,12547,2,0,L|60:196,2,85
256,192,13071,1,0,0:0:0:0:
424,272,13245,5,0,0:0:0:0:
232,276,13420,2,0,L|256:192,1,85
380,132,13768,2,0,L|356:216,2,85
96,128,14466,6,0,P|76:212|72:296,1,170,2|0,0:0|0:0,0:0:0:0:
336,300,14989,2,0,P|380:304|420:304,1,85
448,200,15338,2,0,L|464:112,1,85
372,48,15687,2,0,L|356:136,1,85
148,96,16036,6,0,L|64:108,1,85,0|0,0:0|0:0,0:0:0:0:
188,244,16385,2,0,L|280:232,1,85
168,172,16734,1,0,0:0:0:0:
340,128,16908,1,0,0:0:0:0:
232,260,17083,1,0,0:0:0:0:
236,84,17257,1,0,0:0:0:0:
336,232,17431,6,0,L|388:300,1,85,2|0,0:0|0:0,0:0:0:0:
296,352,17780,2,0,L|236:272,1,85
148,152,18129,2,0,L|200:220,1,85
104,260,18478,2,0,L|44:180,1,85
136,56,18826,5,0,0:0:0:0:
140,72,19001,1,0,0:0:0:0:
276,108,19175,1,0,0:0:0:0:
272,124,19350,1,0,0:0:0:0:
236,276,19524,1,0,0:0:0:0:
240,260,19699,1,0,0:0:0:0:
376,328,19873,1,0,0:0:0:0:
372,312,20047,1,0,0:0:0:0:
424,168,20221,5,0,0:0:0:0:
424,168,20571,1,0,0:0:0:0:
180,260,20745,2,0,P|168:172|172:92,2,170
256,192,21617,12,0,22664,0:0:0:0:
160,92,22838,5,2,0:0:0:0:
184,100,22925,1,0,0:0:0:0:
204,108,23012,2,0,P|128:152|64:208,2,170,4|8|0,0:0|0:0|0:0,0:0:0:0:
248,228,23885,1,0,0:0:0:0:
332,132,24059,1,8,0:0:0:0:
448,76,24234,6,0,P|472:164|476:248,1,170,0|0,0:0|0:0,0:0:0:0:
476,242,24757,1,8,0:0:0:0:
312,336,24931,1,0,0:0:0:0:
328,332,25018,1,0,0:0:0:0:
344,328,25106,2,0,L|328:244,1,85
192,192,25454,2,0,L|212:284,1,85,8|0,0:0|0:0,0:0:0:0:
288,112,25803,6,0,P|368:76|452:60,2,170,4|8|0,0:0|0:0|0:0,0:0:0:0:
176,68,26675,1,0,0:0:0:0:
176,68,26763,2,0,L|140:100,1,42.5,0|8,0:0|0:0,0:0:0:0:
40,180,27024,1,0,0:0:0:0:
40,180,27373,6,0,P|60:220|88:248,1,85,0|8,0:0|0:0,0:0:0:0:
144,164,27722,1,0,0:0:0:0:
144,164,27809,1,0,0:0:0:0:
144,164,27896,1,0,0:0:0:0:
208,240,28071,2,0,P|252:244|296:256,1,85,0|8,0:0|0:0,0:0:0:0:
308,276,28332,1,0,0:0:0:0:
336,288,28420,1,0,0:0:0:0:
364,284,28507,1,0,0:0:0:0:
388,268,28594,6,0,P|452:212|476:132,2,170,4|8|0,0:0|0:0|0:0,0:0:0:0:
332,136,29466,2,0,L|248:112,1,85,0|8,0:0|0:0,0:0:0:0:
64,60,29815,1,0,0:0:0:0:
64,60,30163,6,0,P|64:104|72:152,1,85,0|8,0:0|0:0,0:0:0:0:
200,304,30513,1,0,0:0:0:0:
184,300,30600,1,0,0:0:0:0:
168,296,30687,2,0,L|192:212,1,85
336,136,31036,2,0,L|312:220,1,85,8|0,0:0|0:0,0:0:0:0:
112,224,31384,6,0,L|148:100,1,127.5,4|0,0:0|0:0,0:0:0:0:
152,84,31734,1,8,0:0:0:0:
256,192,31908,1,0,0:0:0:0:
112,224,32082,1,0,0:0:0:0:
216,332,32257,1,0,0:0:0:0:
356,320,32431,2,0,P|400:316|440:316,1,85,0|0,0:0|0:0,0:0:0:0:
256,192,32780,12,2,33827,0:0:0:0:
136,84,34001,5,0,0:0:0:0:
136,84,34088,1,0,0:0:0:0:
136,84,34175,2,0,P|116:124|104:164,1,85,4|0,0:0|0:0,0:0:0:0:
192,304,34524,1,8,0:0:0:0:
176,220,34699,1,0,0:0:0:0:
272,344,34873,5,0,0:0:0:0:
264,256,35047,2,0,P|308:248|352:248,1,85,0|8,0:0|0:0,0:0:0:0:
376,332,35396,2,0,P|436:256|416:192,1,170
228,148,35920,1,8,0:0:0:0:
172,80,36094,1,0,0:0:0:0:
256,64,36268,2,0,P|296:48|340:40,2,85,0|0|8,0:0|0:0|0:0,0:0:0:0:
104,120,36792,6,0,P|80:204|76:288,1,170
156,352,37315,1,8,0:0:0:0:
228,288,37489,1,0,0:0:0:0:
330,266,37664,1,0,0:0:0:0:
388,344,37838,2,0,P|416:308|424:268,1,85,0|8,0:0|0:0,0:0:0:0:
384,188,38187,6,0,P|468:172|492:100,1,170
412,112,38710,2,0,L|327:112,1,85,8|0,0:0|0:0,0:0:0:0:
281,191,39059,1,0,0:0:0:0:
258,37,39234,1,0,0:0:0:0:
185,175,39408,1,8,0:0:0:0:
326,113,39582,1,0,0:0:0:0:
166,86,39756,6,0,L|88:53,1,85,4|0,0:0|0:0,0:0:0:0:
37,153,40106,2,0,L|119:188,1,85,8|0,0:0|0:0,0:0:0:0:
70,279,40454,1,0,0:0:0:0:
168,244,40628,2,0,P|216:236|256:236,1,85,8|0,0:0|0:0,0:0:0:0:
352,212,40977,2,0,P|334:293|264:336,1,170
168,244,41501,6,0,P|216:236|256:236,1,85,8|0,0:0|0:0,0:0:0:0:
460,240,41850,2,0,L|464:152,1,85
376,76,42199,2,0,L|372:160,1,85,8|0,0:0|0:0,0:0:0:0:
296,252,42547,6,0,P|256:272|216:288,1,85,4|0,0:0|0:0,0:0:0:0:
184,232,42809,1,0,0:0:0:0:
184,232,42896,2,0,P|144:252|104:268,1,85,8|0,0:0|0:0,0:0:0:0:
52,184,43245,1,0,0:0:0:0:
52,184,43420,2,0,P|96:168|132:152,2,85,0|8|0,0:0|0:0|0:0,0:0:0:0:
44,164,44117,6,0,P|88:148|124:132,1,85,0|8,0:0|0:0,0:0:0:0:
220,84,44466,1,0,0:0:0:0:
220,84,44553,1,0,0:0:0:0:
220,84,44640,2,0,P|260:64|304:52,1,85
424,52,44989,1,8,0:0:0:0:
400,80,45077,1,0,0:0:0:0:
424,100,45164,1,0,0:0:0:0:
400,128,45251,1,0,0:0:0:0:
424,148,45338,6,0,L|424:232,1,85,4|0,0:0|0:0,0:0:0:0:
368,308,45687,1,8,0:0:0:0:
280,272,45861,1,0,0:0:0:0:
200,320,46036,2,0,P|156:320|112:328,1,85
48,232,46385,2,0,P|92:232|136:224,1,85,8|0,0:0|0:0,0:0:0:0:
208,124,46733,6,0,L|188:40,1,85,0|0,0:0|0:0,0:0:0:0:
304,80,47082,2,0,L|324:168,2,85,8|0|0,0:0|0:0|0:0,0:0:0:0:
420,120,47606,1,0,0:0:0:0:
420,120,47780,2,0,L|440:208,1,85,8|0,0:0|0:0,0:0:0:0:
380,312,48128,5,4,0:0:0:0:
248,252,48303,1,0,0:0:0:0:
368,176,48478,1,8,0:0:0:0:
332,308,48652,1,0,0:0:0:0:
200,248,48827,1,0,0:0:0:0:
320,172,49001,1,0,0:0:0:0:
284,304,49175,1,8,0:0:0:0:
152,244,49349,1,0,0:0:0:0:
272,172,49524,6,0,L|360:176,1,85,0|0,0:0|0:0,0:0:0:0:
428,96,49873,2,0,L|344:92,1,85,8|0,0:0|0:0,0:0:0:0:
216,84,50222,1,0,0:0:0:0:
216,84,50396,1,0,0:0:0:0:
112,160,50571,1,8,0:0:0:0:
112,160,50745,1,0,0:0:0:0:
240,160,50920,6,0,L|264:248,1,85,4|0,0:0|0:0,0:0:0:0:
296,248,51181,1,0,0:0:0:0:
328,252,51268,2,0,L|352:336,1,85,8|0,0:0|0:0,0:0:0:0:
256,336,51617,1,0,0:0:0:0:
112,288,51792,1,0,0:0:0:0:
176,340,51966,1,8,0:0:0:0:
224,204,52140,1,0,0:0:0:0:
164,76,52315,6,0,L|80:96,1,85,0|0,0:0|0:0,0:0:0:0:
236,152,52664,1,8,0:0:0:0:
336,124,52838,1,0,0:0:0:0:
408,200,53013,1,0,0:0:0:0:
408,200,53187,2,0,L|496:176,2,85,0|8|0,0:0|0:0|0:0,0:0:0:0:
376,296,53710,6,0,P|292:320|208:324,1,170,4|8,0:0|0:0,0:0:0:0:
72,136,54234,2,0,L|40:304,2,170
216,60,55105,1,0,0:0:0:0:
228,84,55280,1,0,0:0:0:0:
380,148,55454,1,0,0:0:0:0:
376,168,55629,1,0,0:0:0:0:
224,240,55803,6,0,P|200:276|188:316,2,85
428,112,56501,6,0,P|424:184|408:236,1,127.5,12|0,0:0|0:0,0:0:0:0:
380,264,56850,2,0,P|340:284|300:296,1,85,0|8,0:0|0:0,0:0:0:0:
60,312,57199,2,0,L|72:224,1,85
184,136,57547,2,0,L|172:228,1,85
180,240,57809,1,0,0:0:0:0:
192,256,57896,6,0,P|232:276|272:280,1,85,8|0,0:0|0:0,0:0:0:0:
456,284,58245,1,0,0:0:0:0:
456,284,58420,2,0,L|476:200,2,85,8|0|0,0:0|0:0|0:0,0:0:0:0:
372,176,58943,1,0,0:0:0:0:
248,52,59117,1,0,0:0:0:0:
272,56,59204,1,0,0:0:0:0:
292,60,59292,6,0,L|272:144,1,85,12|0,0:0|0:0,0:0:0:0:
224,336,59640,1,0,0:0:0:0:
136,276,59815,1,8,0:0:0:0:
92,180,59989,2,0,P|80:136|76:96,1,85
252,128,60338,2,0,P|264:172|268:216,1,85
268,244,60600,6,0,L|268:288,1,42.5,0|8,0:0|0:0,0:0:0:0:
324,312,60861,1,0,0:0:0:0:
424,324,61036,1,0,0:0:0:0:
324,312,61210,1,8,0:0:0:0:
204,288,61385,5,0,0:0:0:0:
156,256,61559,1,0,0:0:0:0:
132,204,61734,1,0,0:0:0:0:
128,148,61908,1,0,0:0:0:0:
148,92,62082,6,0,P|200:60|264:44,1,127.5,12|0,0:0|0:0,0:0:0:0:
288,60,62431,2,0,P|328:80|368:88,1,85,0|8,0:0|0:0,0:0:0:0:
456,176,62780,1,0,0:0:0:0:
456,176,62954,2,0,L|440:264,1,85
288,328,63303,5,0,0:0:0:0:
288,328,63390,1,0,0:0:0:0:
288,328,63478,2,0,L|304:240,1,85,8|0,0:0|0:0,0:0:0:0:
188,136,63827,2,0,L|172:224,1,85,0|8,0:0|0:0,0:0:0:0:
112,340,64175,2,0,L|76:216,1,127.5
68,188,64524,2,0,L|56:276,1,85
80,88,64873,5,12,0:0:0:0:
168,48,65047,1,0,0:0:0:0:
252,88,65222,1,0,0:0:0:0:
332,48,65396,1,8,0:0:0:0:
408,92,65571,2,0,L|432:176,2,85
284,224,66094,5,0,0:0:0:0:
300,220,66181,1,0,0:0:0:0:
312,216,66268,2,0,L|340:300,1,85,8|0,0:0|0:0,0:0:0:0:
338,296,66617,1,0,0:0:0:0:
232,340,66792,5,0,0:0:0:0:
204,332,66879,1,0,0:0:0:0:
176,320,66966,1,0,0:0:0:0:
152,304,67053,1,0,0:0:0:0:
128,284,67140,2,0,L|108:244,2,42.5
76,164,67489,2,0,L|36:184,1,42.5
128,88,67663,6,0,P|168:144|160:200,1,127.5,4|0,0:0|0:0,0:0:0:0:
76,164,68013,2,0,P|48:132|36:92,1,85,0|8,0:0|0:0,0:0:0:0:
128,88,68361,1,0,0:0:0:0:
128,88,68536,1,0,0:0:0:0:
240,40,68710,1,0,0:0:0:0:
240,40,68885,1,0,0:0:0:0:
348,100,69059,6,0,L|432:120,1,85,8|0,0:0|0:0,0:0:0:0:
292,212,69408,2,0,L|208:236,1,85,0|8,0:0|0:0,0:0:0:0:
348,320,69757,2,0,L|432:340,2,85,0|0|8,0:0|0:0|0:0,0:0:0:0:
244,320,70280,1,0,0:0:0:0:
136,320,70454,2,0,P|84:252|56:172,2,170,4|0|8,0:0|0:0|0:0,0:0:0:0:
56,173,71327,1,0,0:0:0:0:
104,72,71501,1,0,0:0:0:0:
216,64,71675,6,0,P|300:80|384:80,1,170
464,156,72199,2,0,P|420:168|376:172,1,85,8|0,0:0|0:0,0:0:0:0:
184,308,72547,1,0,0:0:0:0:
180,272,72635,1,0,0:0:0:0:
172,232,72722,1,0,0:0:0:0:
160,196,72809,1,0,0:0:0:0:
144,160,72896,1,0,0:0:0:0:
104,72,73070,1,0,0:0:0:0:
56,192,73245,6,0,P|40:256|40:320,2,127.5,4|0|0,0:0|0:0|0:0,0:0:0:0:
192,136,73942,2,0,L|268:96,1,85
268,96,74291,1,0,0:0:0:0:
384,52,74466,1,0,0:0:0:0:
416,52,74553,1,0,0:0:0:0:
443,53,74640,2,0,P|403:128|348:191,1,170
284,268,75163,1,0,0:0:0:0:
284,268,75338,6,0,P|256:304|236:344,1,85
428,192,75687,2,0,P|456:156|476:116,1,85
256,192,76035,12,0,77256,0:0:0:0:
256,192,77431,5,2,0:0:0:0:
76,64,78129,1,2,0:0:0:0:
256,64,78303,1,2,0:0:0:0:
172,208,78477,2,0,L|92:240,1,85
160,328,78827,6,0,L|240:296,1,85,4|0,0:0|0:0,0:0:0:0:
408,316,79175,2,0,L|328:348,1,85,8|0,0:0|0:0,0:0:0:0:
332,248,79524,1,0,0:0:0:0:
408,88,79699,1,0,0:0:0:0:
288,232,79873,1,8,0:0:0:0:
364,68,80047,2,0,P|280:40|196:28,1,170,0|0,0:0|0:0,0:0:0:0:
40,80,80571,5,8,0:0:0:0:
92,216,80745,1,0,0:0:0:0:
180,104,80920,1,0,0:0:0:0:
60,148,81093,2,0,P|24:184|16:216,1,85,0|8,0:0|0:0,0:0:0:0:
92,216,81443,2,0,P|160:263|244:260,1,170,4|0,0:0|0:0,0:0:0:0:
243,260,81878,1,0,0:0:0:0:
243,260,81966,1,8,0:0:0:0:
192,152,82140,5,0,0:0:0:0:
308,156,82314,2,0,P|340:184|360:224,1,85
408,320,82663,1,8,0:0:0:0:
208,320,82838,2,0,P|168:340|128:352,1,85,8|0,0:0|0:0,0:0:0:0:
148,312,83099,1,0,0:0:0:0:
160,272,83187,1,0,0:0:0:0:
164,228,83274,1,0,0:0:0:0:
164,184,83361,1,8,0:0:0:0:
60,252,83536,5,0,0:0:0:0:
208,320,83710,2,0,P|224:280|224:232,2,85,0|0|8,0:0|0:0|0:0,0:0:0:0:
320,64,84234,1,0,0:0:0:0:
300,60,84321,1,0,0:0:0:0:
280,56,84408,6,0,L|256:144,1,85,4|0,0:0|0:0,0:0:0:0:
420,200,84757,2,0,L|396:284,1,85,8|0,0:0|0:0,0:0:0:0:
84,168,85106,2,0,L|60:256,2,85,0|0|8,0:0|0:0|0:0,0:0:0:0:
288,140,85628,6,0,P|296:228|260:300,1,170
140,200,86152,1,8,0:0:0:0:
160,248,86239,1,0,0:0:0:0:
116,284,86327,1,0,0:0:0:0:
72,256,86414,1,0,0:0:0:0:
84,204,86501,2,0,P|76:120|56:36,1,170,0|8,0:0|0:0,0:0:0:0:
92,40,86937,2,0,L|136:48,1,42.5
276,64,87199,5,4,0:0:0:0:
332,188,87373,1,0,0:0:0:0:
192,172,87547,1,8,0:0:0:0:
340,324,87722,2,0,L|376:300,1,42.5
460,248,87896,2,0,L|420:228,1,42.5
332,188,88071,5,0,0:0:0:0:
192,172,88245,2,0,L|108:148,1,85,8|0,0:0|0:0,0:0:0:0:
144,296,88594,1,0,0:0:0:0:
352,248,88768,2,0,L|436:228,1,85,0|8,0:0|0:0,0:0:0:0:
240,328,89117,1,0,0:0:0:0:
208,336,89204,1,0,0:0:0:0:
176,344,89292,1,0,0:0:0:0:
48,192,89466,6,0,L|64:152,1,42.5
124,230,89640,2,0,L|136:272,1,42.5,8|0,0:0|0:0,0:0:0:0:
168,152,89815,2,0,L|204:128,1,42.5
264,92,89989,2,0,P|304:168|320:256,2,170,4|8|0,0:0|0:0|0:0,0:0:0:0:
72,144,90861,1,0,0:0:0:0:
216,284,91036,1,8,0:0:0:0:
264,92,91210,1,0,0:0:0:0:
424,236,91385,5,0,0:0:0:0:
424,236,91472,1,0,0:0:0:0:
424,236,91559,1,0,0:0:0:0:
392,100,91734,1,8,0:0:0:0:
392,100,91821,1,0,0:0:0:0:
392,100,91908,1,0,0:0:0:0:
236,44,92082,6,0,L|168:156,1,127.5
152,180,92431,2,0,L|164:96,1,85,8|0,0:0|0:0,0:0:0:0:
72,304,92780,2,0,L|148:340,1,85,4|0,0:0|0:0,0:0:0:0:
356,316,93129,2,0,L|280:280,1,85,8|0,0:0|0:0,0:0:0:0:
80,192,93478,5,0,0:0:0:0:
112,136,93652,1,0,0:0:0:0:
160,96,93827,1,8,0:0:0:0:
216,64,94001,1,0,0:0:0:0:
368,40,94175,1,0,0:0:0:0:
464,152,94350,1,0,0:0:0:0:
316,176,94524,1,8,0:0:0:0:
468,236,94699,5,0,0:0:0:0:
468,236,94786,1,0,0:0:0:0:
468,236,94873,2,0,L|340:256,1,127.5
348,284,95222,2,0,L|268:316,1,85,8|0,0:0|0:0,0:0:0:0:
148,340,95571,5,4,0:0:0:0:
144,248,95745,1,0,0:0:0:0:
64,296,95920,1,8,0:0:0:0:
260,96,96268,1,0,0:0:0:0:
340,52,96443,1,0,0:0:0:0:
336,140,96617,1,8,0:0:0:0:
376,208,96791,1,0,0:0:0:0:
416,272,96966,5,0,0:0:0:0:
416,272,97314,1,8,0:0:0:0:
144,140,97489,2,0,P|116:216|108:304,2,170
256,192,98361,12,2,99408,0:0:0:0:
256,192,99582,5,0,0:0:0:0:
184,128,99756,2,0,L|300:72,1,127.5,4|2,0:0|0:0,0:0:0:0:
332,60,100105,2,0,L|296:136,1,85,12|2,0:0|0:0,0:0:0:0:
180,328,100455,1,0,0:0:0:0:
216,328,100542,1,0,0:0:0:0:
252,328,100629,1,0,0:0:0:0:
288,328,100716,1,0,0:0:0:0:
324,328,100804,1,8,0:0:0:0:
440,248,100978,1,2,0:0:0:0:
440,88,101152,1,4,0:0:0:0:
64,184,112140,6,0,P|112:256|180:308,1,170,4|0,0:0|0:0,0:0:0:0:
280,280,112664,1,8,0:0:0:0:
372,328,112838,1,0,0:0:0:0:
448,264,113013,1,0,0:0:0:0:
400,168,113187,2,0,P|316:184|232:188,2,170
432,72,114059,2,0,P|388:80|348:84,1,85,8|0,0:0|0:0,0:0:0:0:
252,88,114408,5,0,0:0:0:0:
252,88,114582,2,0,L|244:176,2,85,0|8|0,0:0|0:0|0:0,0:0:0:0:
136,240,115106,2,0,L|144:156,1,85,4|0,0:0|0:0,0:0:0:0:
120,148,115367,1,0,0:0:0:0:
96,140,115454,2,0,L|104:56,1,85,8|0,0:0|0:0,0:0:0:0:
208,176,115803,5,0,0:0:0:0:
336,152,115978,1,0,0:0:0:0:
276,228,116152,1,8,0:0:0:0:
268,100,116327,1,0,0:0:0:0:
208,176,116500,2,0,L|276:228,1,85,0|0,0:0|0:0,0:0:0:0:
336,152,116849,2,0,L|268:100,1,85,8|0,0:0|0:0,0:0:0:0:
424,76,117199,5,0,0:0:0:0:
432,100,117286,1,0,0:0:0:0:
440,124,117373,1,0,0:0:0:0:
416,220,117547,2,0,L|440:304,1,85,8|0,0:0|0:0,0:0:0:0:
344,352,117896,5,4,0:0:0:0:
256,312,118071,2,0,L|172:336,1,85,0|8,0:0|0:0,0:0:0:0:
76,308,118420,1,0,0:0:0:0:
256,312,118594,1,0,0:0:0:0:
344,352,118768,2,0,P|352:308|340:264,1,85
416,368,119117,6,0,P|424:288|388:204,1,170
256,312,119640,2,0,L|172:336,1,85,8|0,0:0|0:0,0:0:0:0:
76,308,119989,1,0,0:0:0:0:
64,132,120164,2,0,L|40:216,2,85,0|8|0,0:0|0:0|0:0,0:0:0:0:
132,64,120687,5,4,0:0:0:0:
232,52,120861,1,0,0:0:0:0:
244,148,121036,1,8,0:0:0:0:
144,160,121210,1,0,0:0:0:0:
208,260,121385,2,0,L|296:248,1,85
452,292,121734,2,0,L|368:304,1,85,8|0,0:0|0:0,0:0:0:0:
364,288,122257,6,0,L|448:276,1,85,0|8,0:0|0:0,0:0:0:0:
360,176,122605,1,0,0:0:0:0:
344,156,122692,1,0,0:0:0:0:
328,136,122780,2,0,L|244:148,1,85,0|8,0:0|0:0,0:0:0:0:
100,220,123129,5,8,0:0:0:0:
132,236,123216,1,0,0:0:0:0:
164,244,123303,1,0,0:0:0:0:
200,248,123390,1,0,0:0:0:0:
232,248,123477,6,0,P|276:248|316:244,1,85,4|0,0:0|0:0,0:0:0:0:
280,136,123827,2,0,P|236:136|196:140,1,85,8|0,0:0|0:0,0:0:0:0:
100,220,124175,1,0,0:0:0:0:
100,220,124349,2,0,P|57:224|15:224,1,85,0|0,0:0|0:0,0:0:0:0:
120,108,124698,2,0,P|192:156|208:236,1,170
176,312,125222,5,8,0:0:0:0:
176,312,125396,2,0,L|208:232,1,85
316,288,125745,2,0,L|348:208,2,85,0|8|0,0:0|0:0|0:0,0:0:0:0:
176,312,126268,5,4,0:0:0:0:
176,312,126443,2,0,L|208:232,1,85,0|8,0:0|0:0,0:0:0:0:
140,176,126792,1,0,0:0:0:0:
40,276,126966,1,0,0:0:0:0:
176,316,127140,1,0,0:0:0:0:
140,176,127315,1,8,0:0:0:0:
40,276,127489,1,0,0:0:0:0:
140,176,127663,6,0,L|164:92,1,85,0|0,0:0|0:0,0:0:0:0:
288,72,128013,2,0,L|264:156,1,85,8|0,0:0|0:0,0:0:0:0:
240,256,128361,1,0,0:0:0:0:
312,336,128536,1,0,0:0:0:0:
408,292,128710,1,8,0:0:0:0:
396,192,128885,1,0,0:0:0:0:
292,164,129059,6,0,L|256:84,2,85,4|0|8,0:0|0:0|0:0,0:0:0:0:
176,216,129582,1,0,0:0:0:0:
176,216,129757,2,0,L|140:136,1,85
240,136,130106,1,8,0:0:0:0:
72,212,130280,1,0,0:0:0:0:
248,344,130454,6,0,P|300:296|320:240,1,127.5,0|0,0:0|0:0,0:0:0:0:
319,243,130803,1,8,0:0:0:0:
176,216,130978,1,0,0:0:0:0:
264,352,131152,6,0,P|316:304|336:248,1,127.5,0|0,0:0|0:0,0:0:0:0:
335,251,131501,1,8,0:0:0:0:
176,216,131675,1,0,0:0:0:0:
124,120,131850,5,4,0:0:0:0:
124,120,132199,1,8,0:0:0:0:
376,76,132373,2,0,P|408:156|408:240,2,170
124,120,133245,5,0,0:0:0:0:
256,104,133420,1,0,0:0:0:0:
200,176,133594,1,0,0:0:0:0:
180,48,133768,1,0,0:0:0:0:
124,120,133943,1,0,0:0:0:0:
256,104,134117,1,0,0:0:0:0:
200,176,134292,1,0,0:0:0:0:
440,316,134640,6,0,L|388:196,1,127.5,12|0,0:0|0:0,0:0:0:0:
360,184,134989,2,0,L|348:272,1,85,0|8,0:0|0:0,0:0:0:0:
228,324,135338,2,0,L|240:240,2,85,0|0|0,0:0|0:0|0:0,0:0:0:0:
144,152,135861,1,0,0:0:0:0:
132,148,135949,1,0,0:0:0:0:
120,144,136036,6,0,P|144:104|176:76,1,85,8|0,0:0|0:0,0:0:0:0:
280,160,136385,2,0,P|256:200|224:228,1,85,0|8,0:0|0:0,0:0:0:0:
260,76,136734,2,0,P|304:60|344:56,1,85
148,220,137082,2,0,P|104:236|64:240,1,85
48,276,137344,1,0,0:0:0:0:
60,308,137431,6,0,P|104:320|148:324,1,85,12|0,0:0|0:0,0:0:0:0:
248,316,137780,1,0,0:0:0:0:
344,292,137954,1,8,0:0:0:0:
432,248,138129,2,0,L|464:168,2,85
304,52,138652,5,0,0:0:0:0:
324,60,138739,1,0,0:0:0:0:
340,68,138827,2,0,L|308:148,1,85,8|0,0:0|0:0,0:0:0:0:
160,132,139175,2,0,L|196:48,1,85,0|8,0:0|0:0,0:0:0:0:
56,84,139524,5,0,0:0:0:0:
56,132,139699,1,0,0:0:0:0:
56,180,139873,1,0,0:0:0:0:
56,228,140047,1,0,0:0:0:0:
56,276,140222,6,0,L|176:328,1,127.5,12|0,0:0|0:0,0:0:0:0:
200,308,140571,2,0,L|284:292,1,85,0|8,0:0|0:0,0:0:0:0:
376,336,140920,2,0,L|460:320,2,85
424,152,141443,5,0,0:0:0:0:
408,148,141530,1,0,0:0:0:0:
392,144,141617,2,0,L|368:228,1,85,8|0,0:0|0:0,0:0:0:0:
232,248,141966,1,0,0:0:0:0:
256,160,142140,1,8,0:0:0:0:
148,64,142315,6,0,L|112:188,1,127.5
112,186,142664,1,0,0:0:0:0:
256,160,142838,1,0,0:0:0:0:
372,108,143013,5,12,0:0:0:0:
312,272,143187,1,0,0:0:0:0:
424,220,143361,1,0,0:0:0:0:
312,272,143536,2,0,P|228:296|144:304,2,170,8|0|0,0:0|0:0|0:0,0:0:0:0:
320,236,144321,1,0,0:0:0:0:
296,212,144408,6,0,P|256:224|212:232,1,85,8|0,0:0|0:0,0:0:0:0:
72,168,144757,2,0,P|116:172|160:172,1,85,0|8,0:0|0:0,0:0:0:0:
236,156,145018,2,0,L|276:144,1,42.5
400,116,145280,1,0,0:0:0:0:
400,116,145367,1,0,0:0:0:0:
400,116,145454,2,0,L|360:128,1,42.5
384,216,145629,2,0,L|424:204,1,42.5
296,192,145803,6,0,P|256:212|216:224,1,85,12|0,0:0|0:0,0:0:0:0:
116,244,146152,1,0,0:0:0:0:
116,244,146327,2,0,L|96:160,2,85,8|0|0,0:0|0:0|0:0,0:0:0:0:
216,224,146850,2,0,P|256:212|296:192,1,85,0|0,0:0|0:0,0:0:0:0:
404,64,147199,6,0,P|360:88|316:100,1,95.6250036478044,0|0,0:0|0:0,0:0:0:0:
224,104,147547,6,0,P|268:128|312:140,1,95.6250036478044
428,128,147896,6,0,P|372:156|308:176,1,127.5
188,164,148245,6,0,P|244:192|308:212,1,127.5
304,212,148594,5,4,0:0:0:0:
304,212,148768,2,0,L|340:288,2,85,0|8|0,0:0|0:0|0:0,0:0:0:0:
212,344,149292,1,8,0:0:0:0:
124,260,149466,1,0,0:0:0:0:
120,140,149640,1,8,0:0:0:0:
248,52,149815,6,0,L|304:212,1,170,0|0,0:0|0:0,0:0:0:0:
400,140,150337,2,0,L|368:61,1,85,0|0,0:0|0:0,0:0:0:0:
148,128,150686,2,0,L|176:208,1,85,4|0,0:0|0:0,0:0:0:0:
396,172,151035,2,0,L|365:92,1,85,12|0,0:0|0:0,0:0:0:0:
340,312,151385,6,0,P|404:304|464:284,2,127.5,0|0|0,0:0|0:0|0:0,0:0:0:0:
216,320,152082,2,0,L|208:232,1,85
68,116,152431,1,8,0:0:0:0:
88,284,152606,2,0,L|68:112,1,170
324,88,153129,2,0,L|412:76,1,85
440,72,153390,1,0,0:0:0:0:
440,72,153478,1,0,0:0:0:0:
272,172,153652,5,0,0:0:0:0:
272,216,153827,1,0,0:0:0:0:
232,192,154001,1,0,0:0:0:0:
256,192,154175,12,0,155396,0:0:0:0:
256,192,155571,5,2,0:0:0:0:
384,152,155920,1,0,0:0:0:0:
376,184,156007,1,0,0:0:0:0:
368,216,156094,1,0,0:0:0:0:
436,296,156268,1,0,0:0:0:0:
256,332,156443,1,0,0:0:0:0:
76,296,156617,1,0,0:0:0:0:
76,208,156791,1,2,0:0:0:0:
160,104,156966,6,0,P|180:64|212:32,1,85,4|0,0:0|0:0,0:0:0:0:
280,140,157315,2,0,P|260:180|228:212,1,85,8|0,0:0|0:0,0:0:0:0:
56,176,157664,1,0,0:0:0:0:
168,52,157838,1,0,0:0:0:0:
232,208,158013,1,8,0:0:0:0:
396,328,158187,6,0,L|440:160,1,170,0|0,0:0|0:0,0:0:0:0:
439,163,158623,1,0,0:0:0:0:
439,163,158710,1,8,0:0:0:0:
304,60,158885,1,0,0:0:0:0:
304,60,158972,1,0,0:0:0:0:
304,60,159059,2,0,L|280:144,1,85
96,204,159408,5,8,0:0:0:0:
96,204,159582,2,0,P|116:280|196:320,1,170,4|0,0:0|0:0,0:0:0:0:
384,264,160106,1,8,0:0:0:0:
244,128,160280,1,0,0:0:0:0:
191,318,160454,1,0,0:0:0:0:
384,236,160629,1,0,0:0:0:0:
216,144,160803,1,8,0:0:0:0:
216,144,160978,6,0,P|132:152|48:176,1,170,0|0,0:0|0:0,0:0:0:0:
49,175,161501,1,8,0:0:0:0:
112,68,161675,2,0,L|152:48,1,42.5
188,112,161850,2,0,L|172:156,1,42.5
204,220,162024,2,0,L|248:216,1,42.5
312,256,162199,1,8,0:0:0:0:
344,260,162286,1,0,0:0:0:0:
376,256,162373,1,0,0:0:0:0:
404,244,162460,1,0,0:0:0:0:
428,220,162547,6,0,P|452:184|464:144,1,85,4|0,0:0|0:0,0:0:0:0:
336,88,162896,2,0,P|312:124|300:164,1,85,0|0,0:0|0:0,0:0:0:0:
148,184,163245,6,0,P|135:224|112:259,2,85
56,112,163768,2,0,P|128:72|216:88,1,170,0|0,0:0|0:0,0:0:0:0:
256,284,164292,6,0,P|220:308|180:324,1,85,8|0,0:0|0:0,0:0:0:0:
352,72,164640,2,0,P|388:48|428:32,1,85
476,316,164989,2,0,P|440:340|400:356,1,85,8|0,0:0|0:0,0:0:0:0:
256,284,165338,1,4,0:0:0:0:
216,292,165425,1,0,0:0:0:0:
176,300,165513,1,0,0:0:0:0:
120,128,165687,1,8,0:0:0:0:
408,156,165861,2,0,L|376:324,2,170
348,56,166734,5,4,0:0:0:0:
304,60,166821,1,0,0:0:0:0:
264,68,166908,1,0,0:0:0:0:
224,84,166995,1,0,0:0:0:0:
188,108,167082,1,8,0:0:0:0:
156,136,167170,1,0,0:0:0:0:
132,172,167257,1,0,0:0:0:0:
120,212,167344,1,0,0:0:0:0:
120,256,167431,2,0,L|148:292,1,42.5
228,328,167606,2,0,L|216:280,1,42.5
264,232,167780,2,0,L|304:208,1,42.5,8|0,0:0|0:0,0:0:0:0:
336,300,167954,2,0,L|352:340,1,42.5
432,276,168129,6,0,P|460:192|472:112,2,170,4|8|0,0:0|0:0|0:0,0:0:0:0:
328,300,169001,1,0,0:0:0:0:
304,308,169088,1,0,0:0:0:0:
280,316,169175,2,0,P|236:328|196:332,1,85,8|0,0:0|0:0,0:0:0:0:
172,332,169437,1,0,0:0:0:0:
140,328,169524,2,0,L|80:168,2,170,0|8|0,0:0|0:0|0:0,0:0:0:0:
220,188,170396,5,0,0:0:0:0:
232,56,170571,1,8,0:0:0:0:
96,36,170745,1,0,0:0:0:0:
80,168,170919,2,0,L|168:180,1,85,4|0,0:0|0:0,0:0:0:0:
431,168,171268,2,0,L|344:180,1,85,8|0,0:0|0:0,0:0:0:0:
256,336,171617,5,0,0:0:0:0:
256,304,171704,1,0,0:0:0:0:
256,272,171792,1,0,0:0:0:0:
256,240,171879,1,0,0:0:0:0:
256,208,171966,1,8,0:0:0:0:
172,72,172140,2,0,P|256:60|340:72,1,170,0|0,0:0|0:0,0:0:0:0:
368,80,172577,1,0,0:0:0:0:
404,92,172664,6,0,L|436:176,1,85,8|0,0:0|0:0,0:0:0:0:
348,312,173013,2,0,L|316:232,1,85
156,192,173361,2,0,L|188:276,1,85,8|0,0:0|0:0,0:0:0:0:
60,188,173710,5,4,0:0:0:0:
72,64,173885,1,0,0:0:0:0:
196,76,174059,1,8,0:0:0:0:
184,200,174234,1,0,0:0:0:0:
328,200,174408,5,0,0:0:0:0:
316,76,174582,1,0,0:0:0:0:
440,64,174757,1,8,0:0:0:0:
452,188,174931,1,0,0:0:0:0:
400,280,175105,5,0,0:0:0:0:
364,300,175193,1,0,0:0:0:0:
324,312,175280,1,0,0:0:0:0:
192,256,175454,1,8,0:0:0:0:
160,136,175629,2,0,P|240:84|316:88,2,170
256,192,176501,12,4,179292,0:0:0:0:
112,92,189408,5,0,0:0:0:0:
184,292,189757,2,0,L|148:320,1,42.5
240,192,189931,2,0,L|236:240,1,42.5
256,312,190106,2,0,L|296:332,1,42.5
312,256,190280,2,0,L|352:240,1,42.5
368,312,190454,6,0,P|440:264|480:192,1,170,0|8,0:0|0:0,0:0:0:0:
479,192,191152,1,0,0:0:0:0:
416,112,191327,1,0,0:0:0:0:
324,148,191501,1,8,0:0:0:0:
260,64,191675,1,0,0:0:0:0:
168,100,191850,6,0,L|104:44,1,85,0|0,0:0|0:0,0:0:0:0:
40,152,192199,2,0,L|104:208,1,85,8|0,0:0|0:0,0:0:0:0:
272,344,192547,1,0,0:0:0:0:
192,192,192722,1,0,0:0:0:0:
348,272,192896,1,8,0:0:0:0:
172,296,193071,1,0,0:0:0:0:
300,180,193245,6,0,L|344:104,1,85,4|0,0:0|0:0,0:0:0:0:
476,56,193594,2,0,L|432:132,1,85,8|0,0:0|0:0,0:0:0:0:
292,164,193943,2,0,L|336:88,1,85
468,40,194292,2,0,L|424:116,1,85,8|0,0:0|0:0,0:0:0:0:
256,48,194640,6,0,P|200:52|136:76,2,113.333333333333,0|0|0,0:0|0:0|0:0,0:0:0:0:
60,176,195338,1,0,0:0:0:0:
200,212,195513,1,0,0:0:0:0:
72,128,195687,1,8,0:0:0:0:
212,164,195861,1,0,0:0:0:0:
212,164,195949,1,0,0:0:0:0:
212,164,196036,6,0,P|280:112|360:88,1,170,4|8,0:0|0:0,0:0:0:0:
472,88,196559,1,0,0:0:0:0:
472,88,196734,2,0,L|448:172,2,85,0|0|8,0:0|0:0|0:0,0:0:0:0:
420,264,197257,1,0,0:0:0:0:
352,340,197431,5,0,0:0:0:0:
352,340,197606,1,0,0:0:0:0:
88,328,197780,2,0,L|104:244,1,85,8|0,0:0|0:0,0:0:0:0:
352,340,198129,5,0,0:0:0:0:
352,340,198303,1,0,0:0:0:0:
104,244,198478,2,0,L|160:180,1,85,8|0,0:0|0:0,0:0:0:0:
352,340,198827,6,0,L|408:176,1,170,4|8,0:0|0:0,0:0:0:0:
292,160,199350,1,0,0:0:0:0:
220,56,199524,2,0,L|192:136,1,85
264,240,199873,2,0,L|292:160,1,85,8|0,0:0|0:0,0:0:0:0:
396,116,200221,5,0,0:0:0:0:
264,240,200396,1,0,0:0:0:0:
432,296,200571,2,0,P|392:316|352:328,1,85,4|0,0:0|0:0,0:0:0:0:
324,312,200832,1,0,0:0:0:0:
324,312,200920,1,4,0:0:0:0:
124,252,201094,2,0,L|96:332,2,85,0|4|0,0:0|0:0|0:0,0:0:0:0:
132,88,201617,5,4,0:0:0:0:
220,136,201792,1,0,0:0:0:0:
304,84,201966,2,0,L|356:152,1,85,8|0,0:0|0:0,0:0:0:0:
460,176,202314,2,0,L|408:104,1,85
304,84,202664,6,0,L|356:152,1,85,8|0,0:0|0:0,0:0:0:0:
380,296,203013,1,4,0:0:0:0:
292,248,203188,1,0,0:0:0:0:
208,300,203361,2,0,L|156:232,1,85,8|0,0:0|0:0,0:0:0:0:
52,208,203710,2,0,L|104:280,1,85
208,300,204059,6,0,L|156:232,1,85,8|0,0:0|0:0,0:0:0:0:
52,208,204408,2,0,P|92:140|184:132,1,170,4|8,0:0|0:0,0:0:0:0:
176,128,204931,1,0,0:0:0:0:
396,132,205106,2,0,L|408:216,1,85
284,128,205455,2,0,L|272:44,1,85,8|0,0:0|0:0,0:0:0:0:
408,216,205803,5,0,0:0:0:0:
284,128,205978,1,0,0:0:0:0:
428,68,206152,1,8,0:0:0:0:
408,216,206327,1,0,0:0:0:0:
408,216,206414,1,0,0:0:0:0:
408,216,206501,2,0,L|372:296,1,85
288,308,206763,1,0,0:0:0:0:
288,308,206850,2,0,L|324:228,1,85,8|0,0:0|0:0,0:0:0:0:
88,156,207199,6,0,L|64:72,1,85,4|0,0:0|0:0,0:0:0:0:
188,32,207547,2,0,L|200:120,1,85,8|0,0:0|0:0,0:0:0:0:
312,120,207896,2,0,L|320:32,1,85
448,76,208245,2,0,L|420:160,1,85,8|0,0:0|0:0,0:0:0:0:
368,340,208594,5,0,0:0:0:0:
296,340,208768,1,0,0:0:0:0:
368,340,208943,1,8,0:0:0:0:
272,272,209117,1,0,0:0:0:0:
368,340,209292,1,0,0:0:0:0:
248,204,209466,2,0,L|220:124,2,85,0|8|0,0:0|0:0|0:0,0:0:0:0:
456,48,209989,6,0,L|284:48,1,170,4|8,0:0|0:0,0:0:0:0:
112,92,210513,2,0,L|140:176,1,85
248,204,210861,2,0,L|220:124,2,85,0|8|0,0:0|0:0|0:0,0:0:0:0:
456,48,211384,2,0,L|284:48,1,170,4|8,0:0|0:0,0:0:0:0:
112,92,211908,5,0,0:0:0:0:
104,112,211995,1,0,0:0:0:0:
96,132,212082,2,0,L|64:212,1,85
152,304,212431,2,0,L|184:224,1,85
252,40,212780,5,4,0:0:0:0:
252,40,212954,2,0,L|336:72,1,85
444,112,213303,1,8,0:0:0:0:
220,128,213478,5,0,0:0:0:0:
220,128,213652,2,0,L|300:160,2,85
408,208,214175,5,4,0:0:0:0:
408,208,214349,2,0,L|324:240,1,85
324,304,214699,2,0,L|280:320,1,42.5,8|0,0:0|0:0,0:0:0:0:
268,220,214873,1,0,0:0:0:0:
224,200,215047,1,0,0:0:0:0:
244,156,215222,1,0,0:0:0:0:
288,176,215396,1,0,0:0:0:0:
256,192,215571,12,2,216792,0:0:0:0:
404,101,216966,6,0,L|416:60,2,42.5
256,32,217314,1,0,0:0:0:0:
256,52,217402,1,0,0:0:0:0:
256,72,217489,1,0,0:0:0:0:
92,96,217664,2,0,L|80:48,2,42.5
112,180,218013,1,0,0:0:0:0:
112,180,218187,1,0,0:0:0:0:
136,276,218361,6,0,P|172:304|208:320,1,85,2|0,0:0|0:0,0:0:0:0:
208,320,218885,1,0,0:0:0:0:
284,316,219059,2,0,L|300:276,1,42.5
376,264,219408,2,0,L|360:308,1,42.5
440,220,219757,5,0,0:0:0:0:
476,156,219931,1,0,0:0:0:0:
412,120,220106,1,0,0:0:0:0:
376,184,220280,1,0,0:0:0:0:
308,224,220454,2,0,L|272:200,1,42.5,0|0,0:0|0:0,0:0:0:0:
272,200,220977,6,0,L|188:200,1,85,2|0,0:0|0:0,0:0:0:0:
128,132,221501,2,0,L|172:132,1,42.5
248,268,221850,2,0,L|204:268,1,42.5
156,132,222199,2,0,L|200:132,1,42.5
220,268,222547,2,0,L|176:268,1,42.5,0|0,0:0|0:0,0:0:0:0:
188,132,222896,2,0,L|232:132,1,42.5
188,268,223245,2,0,L|188:312,2,42.5
224,132,223768,5,0,0:0:0:0:
224,132,223856,1,0,0:0:0:0:
224,132,223943,2,0,B|224:88|308:88|308:180|232:220|160:204|160:148|164:112,1,255,2|0,0:0|0:0,0:0:0:0:
356,248,225164,1,0,0:0:0:0:
356,248,225250,1,0,0:0:0:0:
356,248,225338,2,0,B|356:292|272:292|272:200|348:160|420:176|420:232|416:268,1,255,2|0,0:0|0:0,0:0:0:0:
452,116,226733,6,0,L|388:116,1,63.75,2|0,0:0|0:0,0:0:0:0:
352,116,227082,2,0,L|376:76,1,42.5
256,80,227431,2,0,L|232:124,1,42.5
168,236,227780,1,0,0:0:0:0:
168,236,227954,2,0,L|256:236,1,85,0|0,0:0|0:0,0:0:0:0:
253,236,228652,5,0,0:0:0:0:
253,236,228739,1,0,0:0:0:0:
253,236,228827,2,0,L|284:268,1,42.5
380,264,229175,2,0,L|348:232,1,42.5
472,232,229524,6,0,P|468:188|452:148,1,85,2|0,0:0|0:0,0:0:0:0:
336,68,230047,1,0,0:0:0:0:
336,68,230222,2,0,P|340:112|356:152,1,85
256,192,230745,1,0,0:0:0:0:
256,192,230920,2,0,L|272:236,2,42.5,0|0|0,0:0|0:0|0:0,0:0:0:0:
232,120,231443,1,0,0:0:0:0:
168,80,231617,2,0,P|128:64|84:56,1,85
104,124,232140,1,0,0:0:0:0:
40,152,232315,6,0,P|44:196|60:236,1,85,2|0,0:0|0:0,0:0:0:0:
176,316,232838,1,0,0:0:0:0:
176,316,233013,2,0,P|172:272|156:232,1,85
256,192,233536,1,0,0:0:0:0:
256,192,233710,2,0,L|240:148,2,42.5,0|0|0,0:0|0:0|0:0,0:0:0:0:
280,264,234234,1,0,0:0:0:0:
344,304,234408,2,0,P|384:320|428:328,1,85
425,327,235106,6,0,L|472:304,1,50.9999984436036,4|0,0:0|0:0,0:0:0:0:
344,264,235454,2,0,L|288:240,1,59.4999981842042
424,204,235803,2,0,L|484:172,1,68
344,132,236152,2,0,L|272:100,1,76.4999976654053
136,92,236501,2,0,L|60:56,2,85,4|0|0,0:0|0:0|0:0,0:0:0:0:
56,192,237024,5,0,0:0:0:0:
56,192,237111,1,0,0:0:0:0:
56,192,237199,2,0,L|80:228,1,42.5
48,292,237373,2,0,L|88:312,1,42.5
144,260,237547,2,0,L|188:236,1,42.5
268,188,237722,2,0,L|256:228,1,42.5
312,272,237896,6,0,P|380:316|468:308,1,170,4|8,0:0|0:0,0:0:0:0:
412,196,238419,1,0,0:0:0:0:
468,100,238593,2,0,P|428:84|384:88,1,85
264,44,238942,1,8,0:0:0:0:
128,56,239117,2,0,P|80:128|56:208,1,170,0|0,0:0|0:0,0:0:0:0:
256,192,239640,2,0,P|280:156|292:116,1,85,8|0,0:0|0:0,0:0:0:0:
128,56,239989,5,0,0:0:0:0:
156,224,240163,1,0,0:0:0:0:
291,116,240338,1,8,0:0:0:0:
228,40,240513,2,0,L|392:92,1,170,4|0,0:0|0:0,0:0:0:0:
376,136,240948,1,0,0:0:0:0:
376,136,241036,2,0,L|460:164,1,85,8|0,0:0|0:0,0:0:0:0:
395,318,241385,6,0,L|304:284,1,85
88,304,241734,2,0,L|168:336,1,85,8|0,0:0|0:0,0:0:0:0:
188,212,242082,1,0,0:0:0:0:
196,180,242170,1,0,0:0:0:0:
204,148,242257,1,0,0:0:0:0:
208,116,242344,1,0,0:0:0:0:
208,80,242431,1,8,0:0:0:0:
96,136,242606,5,0,0:0:0:0:
256,196,242780,2,0,P|264:152|268:112,2,85,0|0|8,0:0|0:0|0:0,0:0:0:0:
88,304,243303,1,0,0:0:0:0:
88,304,243390,1,0,0:0:0:0:
88,304,243478,2,0,L|128:228,1,85,4|0,0:0|0:0,0:0:0:0:
420,184,243827,2,0,L|380:260,1,85,8|0,0:0|0:0,0:0:0:0:
88,156,244175,2,0,L|128:80,2,85,0|0|8,0:0|0:0|0:0,0:0:0:0:
247,64,244698,6,0,P|331:48|416:48,1,170,0|0,0:0|0:0,0:0:0:0:
436,84,245135,1,0,0:0:0:0:
448,120,245222,2,0,L|460:160,1,42.5,8|0,0:0|0:0,0:0:0:0:
396,208,245396,2,0,L|384:164,1,42.5
312,136,245571,1,0,0:0:0:0:
308,144,245657,1,0,0:0:0:0:
304,152,245745,1,0,0:0:0:0:
300,160,245832,1,0,0:0:0:0:
296,168,245920,2,0,L|272:252,1,85,8|0,0:0|0:0,0:0:0:0:
88,312,246268,6,0,L|116:224,1,85,4|0,0:0|0:0,0:0:0:0:
113,231,246617,1,8,0:0:0:0:
312,136,246791,2,0,P|340:216|348:304,2,170
308,56,247664,5,0,0:0:0:0:
292,60,247751,1,0,0:0:0:0:
276,64,247838,1,0,0:0:0:0:
260,68,247925,1,0,0:0:0:0:
216,72,248013,5,8,0:0:0:0:
200,88,248100,1,0,0:0:0:0:
184,104,248187,1,0,0:0:0:0:
172,116,248274,1,0,0:0:0:0:
124,128,248361,5,0,0:0:0:0:
116,156,248449,1,0,0:0:0:0:
108,184,248536,1,0,0:0:0:0:
100,208,248623,1,0,0:0:0:0:
68,264,248710,2,0,L|88:304,1,42.5,8|0,0:0|0:0,0:0:0:0:
176,328,248885,2,0,L|156:288,1,42.5
216,248,249059,6,0,P|280:308|360:336,2,170,4|8|0,0:0|0:0|0:0,0:0:0:0:
344,192,249931,1,0,0:0:0:0:
344,192,250018,1,0,0:0:0:0:
344,192,250106,2,0,L|388:116,1,85,8|0,0:0|0:0,0:0:0:0:
200,48,250454,2,0,L|112:200,2,170,0|8|0,0:0|0:0|0:0,0:0:0:0:
116,196,251327,5,0,0:0:0:0:
72,336,251501,1,8,0:0:0:0:
216,304,251675,1,0,0:0:0:0:
356,336,251850,2,0,P|432:296|464:264,1,127.5,4|0,0:0|0:0,0:0:0:0:
461,267,252199,1,8,0:0:0:0:
344,200,252373,1,0,0:0:0:0:
344,200,252460,1,0,0:0:0:0:
344,200,252547,2,0,L|272:92,2,127.5
164,172,253245,5,0,0:0:0:0:
164,172,253420,1,0,0:0:0:0:
164,172,253594,2,0,L|116:100,1,85,8|0,0:0|0:0,0:0:0:0:
56,244,253943,1,0,0:0:0:0:
56,244,254118,1,0,0:0:0:0:
56,244,254292,2,0,L|104:316,1,85,8|0,0:0|0:0,0:0:0:0:
160,276,254553,5,0,0:0:0:0:
160,276,254640,2,0,L|208:348,1,85,4|0,0:0|0:0,0:0:0:0:
296,272,254989,1,8,0:0:0:0:
296,272,255077,2,0,L|320:308,1,42.5
436,280,255338,1,0,0:0:0:0:
436,280,255425,2,0,L|408:244,1,42.5
392,92,255687,5,8,0:0:0:0:
392,92,255861,1,0,0:0:0:0:
392,92,256035,2,0,L|328:208,1,127.5,0|0,0:0|0:0,0:0:0:0:
320,224,256385,1,8,0:0:0:0:
92,332,256559,2,0,L|64:164,2,170
256,340,257431,6,0,L|356:256,1,127.5,4|0,0:0|0:0,0:0:0:0:
380,232,257780,2,0,L|356:320,1,85,8|0,0:0|0:0,0:0:0:0:
192,232,258129,2,0,L|292:148,1,127.5
316,124,258478,2,0,L|292:212,1,85,8|0,0:0|0:0,0:0:0:0:
293,206,258739,1,0,0:0:0:0:
293,206,258827,1,0,0:0:0:0:
120,108,259001,5,0,0:0:0:0:
152,116,259175,1,0,0:0:0:0:
128,144,259350,1,0,0:0:0:0:
84,248,259524,2,0,L|100:332,2,85,4|0|4,0:0|0:0|0:0,0:0:0:0:
84,248,260047,1,0,0:0:0:0:
256,348,260222,5,0,0:0:0:0:
292,340,260571,1,0,0:0:0:0:
324,332,260920,1,0,0:0:0:0:
360,324,261268,1,0,0:0:0:0:
416,56,261617,6,0,L|404:100,1,42.5
308,136,261966,6,0,L|324:76,1,59.4999981842042,8|0,0:0|0:0,0:0:0:0:
208,48,262315,6,0,L|184:128,1,76.4999976654053
44,160,262663,6,0,L|72:68,1,93.5000028533936,8|0,0:0|0:0,0:0:0:0:
256,192,263013,12,0,264757,0:0:0:0:
104,212,265280,5,0,0:0:0:0:
116,252,265454,1,0,0:0:0:0:
128,292,265629,1,2,0:0:0:0:
128,292,265716,1,0,0:0:0:0:
128,292,265803,2,0,P|208:320|292:328,2,170,4|8|0,0:0|0:0|0:0,0:0:0:0:
312,232,266675,5,0,0:0:0:0:
352,92,266850,1,8,0:0:0:0:
464,180,267024,2,0,L|420:344,1,170,0|0,0:0|0:0,0:0:0:0:
420,343,267547,1,8,0:0:0:0:
312,232,267722,1,0,0:0:0:0:
296,216,267809,1,0,0:0:0:0:
284,200,267896,2,0,L|252:120,1,85
136,120,268245,2,0,L|172:204,1,85,8|0,0:0|0:0,0:0:0:0:
148,308,268594,6,0,P|228:336|312:320,2,170,4|8|0,0:0|0:0|0:0,0:0:0:0:
244,196,269466,1,0,0:0:0:0:
244,196,269553,2,0,L|248:148,1,42.5,0|8,0:0|0:0,0:0:0:0:
256,40,269815,1,0,0:0:0:0:
256,40,270164,2,0,L|344:40,1,85,0|8,0:0|0:0,0:0:0:0:
472,120,270513,5,0,0:0:0:0:
460,144,270600,1,0,0:0:0:0:
448,164,270687,2,0,L|360:164,1,85
228,292,271036,1,8,0:0:0:0:
216,264,271123,1,0,0:0:0:0:
200,232,271210,1,0,0:0:0:0:
188,204,271297,1,0,0:0:0:0:
172,172,271384,6,0,P|136:92|72:40,2,170,4|8|0,0:0|0:0|0:0,0:0:0:0:
240,320,272257,2,0,L|324:320,1,85,0|8,0:0|0:0,0:0:0:0:
468,320,272606,1,0,0:0:0:0:
468,320,272954,2,0,L|440:240,1,85,0|8,0:0|0:0,0:0:0:0:
252,164,273303,5,0,0:0:0:0:
272,160,273390,1,0,0:0:0:0:
292,156,273478,2,0,L|324:236,1,85
188,276,273827,2,0,L|156:192,1,85,8|0,0:0|0:0,0:0:0:0:
108,56,274175,6,0,P|76:112|64:176,1,127.5,4|0,0:0|0:0,0:0:0:0:
64,204,274524,1,8,0:0:0:0:
188,276,274699,1,0,0:0:0:0:
356,80,274873,1,0,0:0:0:0:
240,80,275047,1,0,0:0:0:0:
188,276,275222,2,0,L|272:276,1,85,0|0,0:0|0:0,0:0:0:0:
273,276,275745,5,0,0:0:0:0:
376,276,275920,1,0,0:0:0:0:
472,276,276094,1,0,0:0:0:0:
472,276,276181,1,0,0:0:0:0:
472,276,276268,2,0,L|432:200,1,85
256,192,276617,1,0,0:0:0:0:
80,180,276792,2,0,L|56:144,2,42.5,0|0|2,0:0|0:0|0:0,0:0:0:0:
256,192,277140,12,4,279756,0:0:0:0:
