osu file format v14

[General]
AudioFilename: squartatrice.mp3
AudioLeadIn: 0
PreviewTime: 81673
Countdown: 0
SampleSet: Normal
StackLeniency: 0.7
Mode: 1
LetterboxInBreaks: 0
WidescreenStoryboard: 0

[Editor]
DistanceSpacing: 0.8
BeatDivisor: 4
GridSize: 32
TimelineZoom: 1

[Metadata]
Title:squartatrice
TitleUnicode:squartatrice
Artist:Miki Sayaka vs. Miki Sayaka (fw. Miki Sayaka)
ArtistUnicode:美樹さやか vs. 美樹さやか (fw. 美樹さやか)
Creator:Nardoxyribonucleic
Version:Inner Oni
Source:BMS
Tags:Taiko BOF2011 OF FIGHTERS 2011 Kozato Yuzuki gmtn. LUZE Shinsekai- Akemi_Homura
BeatmapID:1294978
BeatmapSetID:613839

[Difficulty]
HPDrainRate:6
CircleSize:5
OverallDifficulty:6
ApproachRate:7
SliderMultiplier:1.4
SliderTickRate:1

[Events]
//Background and Video events
0,0,"mikisayaka.jpg",0,80
//Break Periods
//Storyboard Layer 0 (Background)
//Storyboard Layer 1 (Fail)
//Storyboard Layer 2 (Pass)
//Storyboard Layer 3 (Foreground)
//Storyboard Sound Samples

[TimingPoints]
2674,333.333333333333,3,1,0,70,1,0
10673,-100,3,1,0,80,0,0
26673,-100,3,1,0,90,0,0
42673,333.333333333333,6,1,0,90,1,0
42673,-83.3333333333333,6,1,0,90,0,0
43506,-71.4285714285714,6,1,0,90,0,0
43839,-100,6,1,0,90,0,0
45506,-71.4285714285714,6,1,0,90,0,0
45839,-100,6,1,0,90,0,0
46672,-83.3333333333333,6,1,0,90,0,0
47506,-71.4285714285714,6,1,0,90,0,0
47839,-100,6,1,0,90,0,0
49506,-71.4285714285714,6,1,0,90,0,0
49839,-100,6,1,0,90,0,0
54672,-83.3333333333333,6,1,0,90,0,0
55506,-71.4285714285714,6,1,0,90,0,0
55839,-100,6,1,0,90,0,0
58672,333.333333333333,4,1,0,100,1,0
61338,-100,4,1,0,80,0,0
72005,-100,4,1,0,90,0,0
81338,333.333333333333,5,1,0,90,1,0
83004,333.333333333333,4,1,0,100,1,1
115003,-100,4,1,0,80,0,0
128503,-100,4,1,0,50,0,0
129003,-100,4,1,0,45,0,0
129670,-100,4,1,0,40,0,0
130337,-100,4,1,0,35,0,0
131003,-100,4,1,0,30,0,0
131670,-100,4,1,0,25,0,0
132337,-100,4,1,0,20,0,0

[HitObjects]
256,192,2674,5,0,0:0:0:0:
256,192,2840,1,0,0:0:0:0:
256,192,3007,1,8,0:0:0:0:
256,192,3173,1,0,0:0:0:0:
256,192,3340,1,8,0:0:0:0:
256,192,3673,1,8,0:0:0:0:
256,192,3840,1,0,0:0:0:0:
256,192,4007,1,8,0:0:0:0:
256,192,4173,1,0,0:0:0:0:
256,192,4340,1,8,0:0:0:0:
256,192,4507,1,0,0:0:0:0:
256,192,4673,1,0,0:0:0:0:
256,192,5007,1,0,0:0:0:0:
256,192,5340,1,0,0:0:0:0:
256,192,5507,1,0,0:0:0:0:
256,192,5673,1,8,0:0:0:0:
256,192,5840,1,0,0:0:0:0:
256,192,6007,1,8,0:0:0:0:
256,192,6173,1,0,0:0:0:0:
256,192,6340,1,0,0:0:0:0:
256,192,6673,1,8,0:0:0:0:
256,192,6840,1,0,0:0:0:0:
256,192,7007,1,0,0:0:0:0:
256,192,7173,1,8,0:0:0:0:
256,192,7340,1,8,0:0:0:0:
256,192,7507,1,0,0:0:0:0:
256,192,7673,1,8,0:0:0:0:
256,192,7840,1,0,0:0:0:0:
256,192,8007,1,8,0:0:0:0:
256,192,8340,1,8,0:0:0:0:
256,192,8507,1,0,0:0:0:0:
256,192,8673,1,8,0:0:0:0:
256,192,8840,1,0,0:0:0:0:
256,192,9007,1,0,0:0:0:0:
256,192,9173,1,8,0:0:0:0:
256,192,9340,1,8,0:0:0:0:
256,192,9673,1,8,0:0:0:0:
256,192,9840,1,0,0:0:0:0:
256,192,10007,1,8,0:0:0:0:
256,192,10173,1,0,0:0:0:0:
256,192,10340,1,0,0:0:0:0:
256,192,10673,1,0,0:0:0:0:
256,192,10840,1,0,0:0:0:0:
256,192,11007,1,8,0:0:0:0:
256,192,11173,1,0,0:0:0:0:
256,192,11340,1,8,0:0:0:0:
256,192,11673,1,0,0:0:0:0:
256,192,11840,1,8,0:0:0:0:
256,192,12007,1,8,0:0:0:0:
256,192,12173,1,0,0:0:0:0:
256,192,12340,1,8,0:0:0:0:
256,192,12507,1,8,0:0:0:0:
256,192,12673,1,0,0:0:0:0:
256,192,12840,1,0,0:0:0:0:
256,192,12923,1,0,0:0:0:0:
256,192,13007,1,8,0:0:0:0:
256,192,13090,1,0,0:0:0:0:
256,192,13173,1,0,0:0:0:0:
256,192,13257,1,8,0:0:0:0:
256,192,13340,1,8,0:0:0:0:
256,192,13507,1,0,0:0:0:0:
256,192,13673,1,8,0:0:0:0:
256,192,13840,1,0,0:0:0:0:
256,192,14007,1,8,0:0:0:0:
256,192,14173,1,0,0:0:0:0:
256,192,14340,1,0,0:0:0:0:
256,192,14673,1,8,0:0:0:0:
256,192,14840,1,0,0:0:0:0:
256,192,15007,1,0,0:0:0:0:
256,192,15173,1,8,0:0:0:0:
256,192,15340,1,8,0:0:0:0:
256,192,15507,1,0,0:0:0:0:
256,192,15673,1,8,0:0:0:0:
256,192,15840,1,0,0:0:0:0:
256,192,16007,1,8,0:0:0:0:
256,192,16340,1,8,0:0:0:0:
256,192,16507,1,0,0:0:0:0:
256,192,16673,1,8,0:0:0:0:
256,192,16840,1,0,0:0:0:0:
256,192,17007,1,0,0:0:0:0:
256,192,17173,1,8,0:0:0:0:
256,192,17340,1,8,0:0:0:0:
256,192,17673,1,8,0:0:0:0:
256,192,17840,1,0,0:0:0:0:
256,192,18007,1,8,0:0:0:0:
256,192,18173,1,0,0:0:0:0:
256,192,18340,1,0,0:0:0:0:
256,192,18673,1,0,0:0:0:0:
256,192,18840,1,0,0:0:0:0:
256,192,19007,1,8,0:0:0:0:
256,192,19173,1,0,0:0:0:0:
256,192,19340,1,8,0:0:0:0:
256,192,19673,1,8,0:0:0:0:
256,192,19840,1,0,0:0:0:0:
256,192,20007,1,8,0:0:0:0:
256,192,20173,1,0,0:0:0:0:
256,192,20340,1,8,0:0:0:0:
256,192,20507,1,8,0:0:0:0:
256,192,20673,1,0,0:0:0:0:
256,192,20840,1,0,0:0:0:0:
256,192,20923,1,0,0:0:0:0:
256,192,21007,1,8,0:0:0:0:
256,192,21090,1,0,0:0:0:0:
256,192,21173,1,0,0:0:0:0:
256,192,21257,1,8,0:0:0:0:
256,192,21340,1,8,0:0:0:0:
256,192,21507,1,0,0:0:0:0:
256,192,21673,1,8,0:0:0:0:
256,192,21840,1,0,0:0:0:0:
256,192,22007,1,8,0:0:0:0:
256,192,22173,1,0,0:0:0:0:
256,192,22340,1,0,0:0:0:0:
256,192,22673,1,8,0:0:0:0:
256,192,22840,1,0,0:0:0:0:
256,192,23007,1,0,0:0:0:0:
256,192,23173,1,8,0:0:0:0:
256,192,23340,1,8,0:0:0:0:
256,192,23507,1,0,0:0:0:0:
256,192,23673,1,8,0:0:0:0:
256,192,23840,1,0,0:0:0:0:
256,192,24007,1,8,0:0:0:0:
256,192,24340,1,8,0:0:0:0:
256,192,24673,1,8,0:0:0:0:
256,192,24840,1,0,0:0:0:0:
256,192,25007,1,0,0:0:0:0:
256,192,25173,1,8,0:0:0:0:
256,192,25340,1,8,0:0:0:0:
256,192,25507,1,0,0:0:0:0:
256,192,25673,1,8,0:0:0:0:
256,192,25757,1,0,0:0:0:0:
256,192,25840,1,8,0:0:0:0:
256,192,25923,1,0,0:0:0:0:
256,192,26007,1,8,0:0:0:0:
256,192,26090,1,8,0:0:0:0:
256,192,26173,1,0,0:0:0:0:
256,192,26257,1,0,0:0:0:0:
256,192,26340,1,8,0:0:0:0:
256,192,26423,1,8,0:0:0:0:
256,192,26507,1,8,0:0:0:0:
256,192,26673,1,4,0:0:0:0:
256,192,26840,1,0,0:0:0:0:
256,192,26923,1,0,0:0:0:0:
256,192,27007,1,8,0:0:0:0:
256,192,27173,1,0,0:0:0:0:
256,192,27340,1,8,0:0:0:0:
256,192,27507,1,0,0:0:0:0:
256,192,27590,1,0,0:0:0:0:
256,192,27673,1,8,0:0:0:0:
256,192,27840,1,0,0:0:0:0:
256,192,28007,1,8,0:0:0:0:
256,192,28090,1,8,0:0:0:0:
256,192,28173,1,8,0:0:0:0:
256,192,28257,1,0,0:0:0:0:
256,192,28340,1,0,0:0:0:0:
256,192,28507,1,8,0:0:0:0:
256,192,28590,1,0,0:0:0:0:
256,192,28673,1,8,0:0:0:0:
256,192,28757,1,8,0:0:0:0:
256,192,28840,1,0,0:0:0:0:
256,192,28923,1,8,0:0:0:0:
256,192,29007,1,0,0:0:0:0:
256,192,29173,1,0,0:0:0:0:
256,192,29340,1,8,0:0:0:0:
256,192,29507,1,8,0:0:0:0:
256,192,29590,1,8,0:0:0:0:
256,192,29673,1,0,0:0:0:0:
256,192,29840,1,8,0:0:0:0:
256,192,29923,1,0,0:0:0:0:
256,192,30007,1,8,0:0:0:0:
256,192,30090,1,8,0:0:0:0:
256,192,30173,1,0,0:0:0:0:
256,192,30340,1,0,0:0:0:0:
256,192,30423,1,0,0:0:0:0:
256,192,30507,1,8,0:0:0:0:
256,192,30590,1,0,0:0:0:0:
256,192,30673,1,8,0:0:0:0:
256,192,30840,1,0,0:0:0:0:
256,192,31007,1,8,0:0:0:0:
256,192,31090,1,8,0:0:0:0:
256,192,31173,1,8,0:0:0:0:
256,192,31257,1,0,0:0:0:0:
256,192,31340,1,8,0:0:0:0:
256,192,31507,1,8,0:0:0:0:
256,192,31590,1,8,0:0:0:0:
256,192,31673,1,0,0:0:0:0:
256,192,31840,1,8,0:0:0:0:
256,192,31923,1,0,0:0:0:0:
256,192,32007,1,8,0:0:0:0:
256,192,32090,1,8,0:0:0:0:
256,192,32173,1,0,0:0:0:0:
256,192,32257,1,0,0:0:0:0:
256,192,32340,1,8,0:0:0:0:
256,192,32507,1,0,0:0:0:0:
256,192,32590,1,8,0:0:0:0:
256,192,32673,1,0,0:0:0:0:
256,192,32840,1,0,0:0:0:0:
256,192,32923,1,0,0:0:0:0:
256,192,33007,1,8,0:0:0:0:
256,192,33090,1,0,0:0:0:0:
256,192,33173,1,0,0:0:0:0:
256,192,33257,1,0,0:0:0:0:
256,192,33340,1,8,0:0:0:0:
256,192,33507,1,0,0:0:0:0:
256,192,33673,1,8,0:0:0:0:
256,192,33757,1,8,0:0:0:0:
256,192,33840,1,0,0:0:0:0:
256,192,33923,1,0,0:0:0:0:
256,192,34007,1,8,0:0:0:0:
256,192,34173,1,0,0:0:0:0:
256,192,34340,1,0,0:0:0:0:
256,192,34423,1,8,0:0:0:0:
256,192,34507,1,0,0:0:0:0:
256,192,34590,1,0,0:0:0:0:
256,192,34673,1,8,0:0:0:0:
256,192,34840,1,0,0:0:0:0:
256,192,34923,1,0,0:0:0:0:
256,192,35007,1,8,0:0:0:0:
256,192,35090,1,8,0:0:0:0:
256,192,35173,1,8,0:0:0:0:
256,192,35257,1,0,0:0:0:0:
256,192,35340,1,8,0:0:0:0:
256,192,35507,1,8,0:0:0:0:
256,192,35590,1,0,0:0:0:0:
256,192,35673,1,8,0:0:0:0:
256,192,35840,1,0,0:0:0:0:
256,192,36007,1,0,0:0:0:0:
256,192,36090,1,8,0:0:0:0:
256,192,36173,1,8,0:0:0:0:
256,192,36257,1,0,0:0:0:0:
256,192,36340,1,8,0:0:0:0:
256,192,36507,1,0,0:0:0:0:
256,192,36590,1,0,0:0:0:0:
256,192,36673,1,8,0:0:0:0:
256,192,36757,1,0,0:0:0:0:
256,192,36840,1,0,0:0:0:0:
256,192,36923,1,8,0:0:0:0:
256,192,37007,1,8,0:0:0:0:
256,192,37090,1,0,0:0:0:0:
256,192,37173,1,0,0:0:0:0:
256,192,37257,1,8,0:0:0:0:
256,192,37340,1,8,0:0:0:0:
256,192,37423,1,0,0:0:0:0:
256,192,37507,1,8,0:0:0:0:
256,192,37590,1,8,0:0:0:0:
256,192,37673,1,0,0:0:0:0:
256,192,37840,1,8,0:0:0:0:
256,192,37923,1,0,0:0:0:0:
256,192,38007,1,8,0:0:0:0:
256,192,38090,1,8,0:0:0:0:
256,192,38173,1,0,0:0:0:0:
256,192,38340,1,0,0:0:0:0:
256,192,38423,1,0,0:0:0:0:
256,192,38507,1,8,0:0:0:0:
256,192,38590,1,0,0:0:0:0:
256,192,38673,1,8,0:0:0:0:
256,192,38840,1,0,0:0:0:0:
256,192,38923,1,8,0:0:0:0:
256,192,39007,1,0,0:0:0:0:
256,192,39173,1,0,0:0:0:0:
256,192,39257,1,0,0:0:0:0:
256,192,39340,1,8,0:0:0:0:
256,192,39423,1,0,0:0:0:0:
256,192,39507,1,8,0:0:0:0:
256,192,39590,1,8,0:0:0:0:
256,192,39673,1,0,0:0:0:0:
256,192,39757,1,0,0:0:0:0:
256,192,39840,1,8,0:0:0:0:
256,192,39923,1,0,0:0:0:0:
256,192,40007,1,8,0:0:0:0:
256,192,40090,1,8,0:0:0:0:
256,192,40173,1,0,0:0:0:0:
256,192,40257,1,0,0:0:0:0:
256,192,40340,1,8,0:0:0:0:
256,192,40507,1,0,0:0:0:0:
256,192,40673,1,12,0:0:0:0:
256,192,40840,1,0,0:0:0:0:
256,192,40923,1,0,0:0:0:0:
256,192,41007,1,8,0:0:0:0:
256,192,41173,1,0,0:0:0:0:
256,192,41257,1,0,0:0:0:0:
256,192,41340,1,8,0:0:0:0:
256,192,41423,1,0,0:0:0:0:
256,192,41507,1,8,0:0:0:0:
256,192,41590,1,8,0:0:0:0:
256,192,41673,1,8,0:0:0:0:
256,192,41757,1,0,0:0:0:0:
256,192,41840,1,0,0:0:0:0:
256,192,41923,1,8,0:0:0:0:
256,192,42007,1,8,0:0:0:0:
256,192,42090,1,0,0:0:0:0:
256,192,42173,1,8,0:0:0:0:
256,192,42257,1,0,0:0:0:0:
256,192,42340,1,8,0:0:0:0:
256,192,42423,1,8,0:0:0:0:
256,192,42507,1,0,0:0:0:0:
256,192,42673,1,12,0:0:0:0:
256,192,43006,1,4,0:0:0:0:
256,192,43506,1,12,0:0:0:0:
256,192,43839,1,0,0:0:0:0:
256,192,44006,1,8,0:0:0:0:
256,192,44173,1,0,0:0:0:0:
256,192,44339,1,8,0:0:0:0:
256,192,44506,1,0,0:0:0:0:
256,192,44561,1,0,0:0:0:0:
256,192,44617,1,0,0:0:0:0:
256,192,44673,1,8,0:0:0:0:
256,192,44839,1,8,0:0:0:0:
256,192,45006,1,0,0:0:0:0:
256,192,45173,1,0,0:0:0:0:
256,192,45506,1,12,0:0:0:0:
256,192,45839,1,0,0:0:0:0:
256,192,46006,1,8,0:0:0:0:
256,192,46089,1,0,0:0:0:0:
256,192,46172,1,8,0:0:0:0:
256,192,46256,1,8,0:0:0:0:
256,192,46339,1,0,0:0:0:0:
256,192,46506,1,0,0:0:0:0:
256,192,46672,1,12,0:0:0:0:
256,192,47006,1,4,0:0:0:0:
256,192,47506,1,12,0:0:0:0:
256,192,47839,1,0,0:0:0:0:
256,192,48006,1,8,0:0:0:0:
256,192,48172,1,0,0:0:0:0:
256,192,48339,1,8,0:0:0:0:
256,192,48506,1,0,0:0:0:0:
256,192,48561,1,0,0:0:0:0:
256,192,48617,1,0,0:0:0:0:
256,192,48672,1,8,0:0:0:0:
256,192,48839,1,8,0:0:0:0:
256,192,49006,1,0,0:0:0:0:
256,192,49172,1,0,0:0:0:0:
256,192,49506,1,12,0:0:0:0:
256,192,49839,1,0,0:0:0:0:
256,192,50006,1,8,0:0:0:0:
256,192,50117,1,8,0:0:0:0:
256,192,50228,1,0,0:0:0:0:
256,192,50339,1,0,0:0:0:0:
256,192,50450,1,8,0:0:0:0:
256,192,50561,1,0,0:0:0:0:
256,192,50672,1,8,0:0:0:0:
256,192,51006,1,0,0:0:0:0:
256,192,51172,1,8,0:0:0:0:
256,192,51256,1,8,0:0:0:0:
256,192,51339,1,0,0:0:0:0:
256,192,51506,1,8,0:0:0:0:
256,192,51672,1,0,0:0:0:0:
256,192,51756,1,8,0:0:0:0:
256,192,51839,1,0,0:0:0:0:
256,192,51922,1,0,0:0:0:0:
256,192,52006,1,8,0:0:0:0:
256,192,52172,1,8,0:0:0:0:
256,192,52256,1,8,0:0:0:0:
256,192,52339,1,0,0:0:0:0:
256,192,52422,1,0,0:0:0:0:
256,192,52506,1,8,0:0:0:0:
256,192,52589,1,0,0:0:0:0:
256,192,52672,1,8,0:0:0:0:
256,192,52839,1,8,0:0:0:0:
256,192,53006,1,0,0:0:0:0:
256,192,53172,1,8,0:0:0:0:
256,192,53256,1,8,0:0:0:0:
256,192,53339,1,0,0:0:0:0:
256,192,53506,1,8,0:0:0:0:
256,192,53589,1,8,0:0:0:0:
256,192,53672,1,0,0:0:0:0:
256,192,53756,1,8,0:0:0:0:
256,192,53839,1,0,0:0:0:0:
256,192,53922,1,0,0:0:0:0:
256,192,54006,1,8,0:0:0:0:
256,192,54089,1,0,0:0:0:0:
256,192,54172,1,8,0:0:0:0:
256,192,54256,1,0,0:0:0:0:
256,192,54339,1,8,0:0:0:0:
256,192,54422,1,8,0:0:0:0:
256,192,54506,1,0,0:0:0:0:
256,192,54672,1,12,0:0:0:0:
256,192,55006,1,4,0:0:0:0:
256,192,55506,1,12,0:0:0:0:
256,192,55839,1,0,0:0:0:0:
256,192,56006,1,8,0:0:0:0:
256,192,56172,1,8,0:0:0:0:
256,192,56339,1,0,0:0:0:0:
256,192,56506,1,0,0:0:0:0:
256,192,56589,1,8,0:0:0:0:
256,192,56672,1,0,0:0:0:0:
256,192,56839,1,0,0:0:0:0:
256,192,56922,1,0,0:0:0:0:
256,192,57006,1,8,0:0:0:0:
256,192,57089,1,0,0:0:0:0:
256,192,57172,1,8,0:0:0:0:
256,192,57256,1,8,0:0:0:0:
256,192,57339,1,0,0:0:0:0:
256,192,57422,1,8,0:0:0:0:
256,192,57506,1,0,0:0:0:0:
256,192,57589,1,0,0:0:0:0:
256,192,57672,1,8,0:0:0:0:
256,192,57839,1,8,0:0:0:0:
256,192,58006,1,8,0:0:0:0:
256,192,58172,1,8,0:0:0:0:
256,192,58339,1,8,0:0:0:0:
256,192,58506,1,8,0:0:0:0:
256,192,58672,1,0,0:0:0:0:
256,192,58755,1,8,0:0:0:0:
256,192,58838,1,0,0:0:0:0:
256,192,58922,1,8,0:0:0:0:
256,192,59005,1,0,0:0:0:0:
256,192,59172,1,0,0:0:0:0:
256,192,59255,1,8,0:0:0:0:
256,192,59338,1,0,0:0:0:0:
256,192,59422,1,8,0:0:0:0:
256,192,59505,1,0,0:0:0:0:
256,192,59672,1,0,0:0:0:0:
256,192,59755,1,8,0:0:0:0:
256,192,59838,1,8,0:0:0:0:
256,192,59922,1,8,0:0:0:0:
256,192,60005,1,0,0:0:0:0:
256,192,60088,1,8,0:0:0:0:
256,192,60172,1,0,0:0:0:0:
256,192,60255,1,8,0:0:0:0:
256,192,60338,1,0,0:0:0:0:
256,192,60505,1,0,0:0:0:0:
256,192,60588,1,8,0:0:0:0:
256,192,60672,1,0,0:0:0:0:
256,192,60755,1,8,0:0:0:0:
256,192,60838,1,0,0:0:0:0:
256,192,60922,1,0,0:0:0:0:
256,192,61005,1,8,0:0:0:0:
256,192,61088,1,8,0:0:0:0:
256,192,61172,1,0,0:0:0:0:
256,192,61338,1,12,0:0:0:0:
256,192,61672,1,0,0:0:0:0:
256,192,62005,1,0,0:0:0:0:
256,192,62171,1,0,0:0:0:0:
256,192,62338,1,8,0:0:0:0:
256,192,62671,1,8,0:0:0:0:
256,192,63005,1,0,0:0:0:0:
256,192,63338,1,8,0:0:0:0:
256,192,63505,1,8,0:0:0:0:
256,192,63671,1,0,0:0:0:0:
256,192,63838,1,0,0:0:0:0:
256,192,64005,1,8,0:0:0:0:
256,192,64338,1,0,0:0:0:0:
256,192,64671,1,0,0:0:0:0:
256,192,64838,1,0,0:0:0:0:
256,192,65005,1,8,0:0:0:0:
256,192,65338,1,0,0:0:0:0:
256,192,65505,1,0,0:0:0:0:
256,192,65671,1,8,0:0:0:0:
256,192,65838,1,0,0:0:0:0:
256,192,66005,1,8,0:0:0:0:
256,192,66171,1,0,0:0:0:0:
256,192,66338,1,8,0:0:0:0:
256,192,66671,1,8,0:0:0:0:
256,192,67005,1,0,0:0:0:0:
256,192,67338,1,0,0:0:0:0:
256,192,67505,1,0,0:0:0:0:
256,192,67671,1,8,0:0:0:0:
256,192,68005,1,8,0:0:0:0:
256,192,68338,1,0,0:0:0:0:
256,192,68671,1,8,0:0:0:0:
256,192,68838,1,8,0:0:0:0:
256,192,69005,1,0,0:0:0:0:
256,192,69171,1,0,0:0:0:0:
256,192,69338,1,8,0:0:0:0:
256,192,69671,1,0,0:0:0:0:
256,192,70005,1,0,0:0:0:0:
256,192,70171,1,0,0:0:0:0:
256,192,70338,1,8,0:0:0:0:
256,192,70671,1,4,0:0:0:0:
256,192,70838,1,0,0:0:0:0:
256,192,70921,1,0,0:0:0:0:
256,192,71005,1,8,0:0:0:0:
256,192,71088,1,8,0:0:0:0:
256,192,71171,1,0,0:0:0:0:
256,192,71338,1,12,0:0:0:0:
256,192,71505,1,0,0:0:0:0:
256,192,71588,1,0,0:0:0:0:
256,192,71671,1,8,0:0:0:0:
256,192,71727,1,8,0:0:0:0:
256,192,71783,1,8,0:0:0:0:
256,192,71838,1,8,0:0:0:0:
256,192,71894,1,8,0:0:0:0:
256,192,71949,1,8,0:0:0:0:
256,192,72005,1,0,0:0:0:0:
256,192,72171,1,0,0:0:0:0:
256,192,72255,1,0,0:0:0:0:
256,192,72338,1,8,0:0:0:0:
256,192,72505,1,0,0:0:0:0:
256,192,72671,1,0,0:0:0:0:
256,192,72755,1,0,0:0:0:0:
256,192,72838,1,0,0:0:0:0:
256,192,72921,1,0,0:0:0:0:
256,192,73005,1,8,0:0:0:0:
256,192,73088,1,8,0:0:0:0:
256,192,73171,1,8,0:0:0:0:
256,192,73255,1,8,0:0:0:0:
256,192,73338,1,0,0:0:0:0:
256,192,73505,1,0,0:0:0:0:
256,192,73588,1,0,0:0:0:0:
256,192,73671,1,8,0:0:0:0:
256,192,73838,1,0,0:0:0:0:
256,192,74005,1,8,0:0:0:0:
256,192,74088,1,8,0:0:0:0:
256,192,74171,1,8,0:0:0:0:
256,192,74255,1,8,0:0:0:0:
256,192,74338,1,0,0:0:0:0:
256,192,74421,1,0,0:0:0:0:
256,192,74505,1,0,0:0:0:0:
256,192,74588,1,0,0:0:0:0:
256,192,74671,1,8,0:0:0:0:
256,192,74838,1,0,0:0:0:0:
256,192,74921,1,0,0:0:0:0:
256,192,75005,1,8,0:0:0:0:
256,192,75171,1,0,0:0:0:0:
256,192,75338,1,0,0:0:0:0:
256,192,75421,1,0,0:0:0:0:
256,192,75505,1,0,0:0:0:0:
256,192,75588,1,0,0:0:0:0:
256,192,75671,1,8,0:0:0:0:
256,192,75755,1,8,0:0:0:0:
256,192,75838,1,0,0:0:0:0:
256,192,75921,1,0,0:0:0:0:
256,192,76005,1,8,0:0:0:0:
256,192,76171,1,8,0:0:0:0:
256,192,76255,1,8,0:0:0:0:
256,192,76338,1,0,0:0:0:0:
256,192,76421,1,8,0:0:0:0:
256,192,76505,1,0,0:0:0:0:
256,192,76588,1,0,0:0:0:0:
256,192,76671,1,8,0:0:0:0:
256,192,76755,1,8,0:0:0:0:
256,192,76838,1,8,0:0:0:0:
256,192,76921,1,0,0:0:0:0:
256,192,77005,1,8,0:0:0:0:
256,192,77088,1,8,0:0:0:0:
256,192,77171,1,0,0:0:0:0:
256,192,77338,1,4,0:0:0:0:
256,192,77505,1,0,0:0:0:0:
256,192,77588,1,0,0:0:0:0:
256,192,77671,1,8,0:0:0:0:
256,192,77838,1,0,0:0:0:0:
256,192,78005,1,4,0:0:0:0:
256,192,78171,1,8,0:0:0:0:
256,192,78255,1,0,0:0:0:0:
256,192,78338,1,8,0:0:0:0:
256,192,78505,1,0,0:0:0:0:
256,192,78671,1,4,0:0:0:0:
256,192,78838,1,8,0:0:0:0:
256,192,78921,1,8,0:0:0:0:
256,192,79005,1,8,0:0:0:0:
256,192,79171,1,0,0:0:0:0:
256,192,79338,1,12,0:0:0:0:
256,192,79505,1,8,0:0:0:0:
256,192,79588,1,8,0:0:0:0:
256,192,79671,1,8,0:0:0:0:
256,192,79838,1,0,0:0:0:0:
256,192,80005,1,8,0:0:0:0:
256,192,80088,1,0,0:0:0:0:
256,192,80171,1,0,0:0:0:0:
256,192,80255,1,8,0:0:0:0:
256,192,80338,1,0,0:0:0:0:
256,192,80421,1,0,0:0:0:0:
256,192,80505,1,8,0:0:0:0:
256,192,80588,1,0,0:0:0:0:
256,192,80671,1,8,0:0:0:0:
256,192,80755,1,8,0:0:0:0:
256,192,80838,1,0,0:0:0:0:
256,192,80921,1,0,0:0:0:0:
256,192,81005,1,8,0:0:0:0:
256,192,81088,1,8,0:0:0:0:
256,192,81171,1,0,0:0:0:0:
256,192,81338,1,4,0:0:0:0:
256,192,81671,1,4,0:0:0:0:
256,192,82004,1,0,0:0:0:0:
256,192,82088,1,0,0:0:0:0:
256,192,82171,1,8,0:0:0:0:
256,192,82226,1,8,0:0:0:0:
256,192,82282,1,8,0:0:0:0:
256,192,82338,1,0,0:0:0:0:
256,192,82421,1,8,0:0:0:0:
256,192,82504,1,0,0:0:0:0:
256,192,82588,1,0,0:0:0:0:
256,192,82671,1,8,0:0:0:0:
256,192,82754,1,8,0:0:0:0:
256,192,82838,1,0,0:0:0:0:
256,192,83004,1,4,0:0:0:0:
256,192,83170,1,0,0:0:0:0:
256,192,83254,1,0,0:0:0:0:
256,192,83337,1,8,0:0:0:0:
256,192,83504,1,0,0:0:0:0:
256,192,83587,1,0,0:0:0:0:
256,192,83754,1,0,0:0:0:0:
256,192,83837,1,8,0:0:0:0:
256,192,84004,1,0,0:0:0:0:
256,192,84087,1,8,0:0:0:0:
256,192,84170,1,0,0:0:0:0:
256,192,84254,1,0,0:0:0:0:
256,192,84337,1,8,0:0:0:0:
256,192,84504,1,0,0:0:0:0:
256,192,84587,1,0,0:0:0:0:
256,192,84670,1,0,0:0:0:0:
256,192,84754,1,8,0:0:0:0:
256,192,84837,1,8,0:0:0:0:
256,192,85004,1,0,0:0:0:0:
256,192,85087,1,0,0:0:0:0:
256,192,85170,1,8,0:0:0:0:
256,192,85254,1,0,0:0:0:0:
256,192,85337,1,8,0:0:0:0:
256,192,85420,1,8,0:0:0:0:
256,192,85504,1,0,0:0:0:0:
256,192,85587,1,8,0:0:0:0:
256,192,85670,1,0,0:0:0:0:
256,192,85837,1,0,0:0:0:0:
256,192,85920,1,0,0:0:0:0:
256,192,86004,1,8,0:0:0:0:
256,192,86170,1,0,0:0:0:0:
256,192,86254,1,0,0:0:0:0:
256,192,86420,1,0,0:0:0:0:
256,192,86504,1,8,0:0:0:0:
256,192,86670,1,0,0:0:0:0:
256,192,86754,1,8,0:0:0:0:
256,192,86837,1,0,0:0:0:0:
256,192,86920,1,0,0:0:0:0:
256,192,87004,1,8,0:0:0:0:
256,192,87170,1,8,0:0:0:0:
256,192,87254,1,0,0:0:0:0:
256,192,87337,1,0,0:0:0:0:
256,192,87420,1,8,0:0:0:0:
256,192,87504,1,8,0:0:0:0:
256,192,87670,1,0,0:0:0:0:
256,192,87754,1,0,0:0:0:0:
256,192,87837,1,8,0:0:0:0:
256,192,87920,1,0,0:0:0:0:
256,192,88004,1,8,0:0:0:0:
256,192,88087,1,8,0:0:0:0:
256,192,88170,1,0,0:0:0:0:
256,192,88254,1,0,0:0:0:0:
256,192,88337,1,8,0:0:0:0:
256,192,88504,1,8,0:0:0:0:
256,192,88587,1,0,0:0:0:0:
256,192,88670,1,8,0:0:0:0:
256,192,88837,1,0,0:0:0:0:
256,192,88920,1,0,0:0:0:0:
256,192,89087,1,0,0:0:0:0:
256,192,89170,1,8,0:0:0:0:
256,192,89337,1,0,0:0:0:0:
256,192,89420,1,8,0:0:0:0:
256,192,89504,1,8,0:0:0:0:
256,192,89587,1,0,0:0:0:0:
256,192,89670,1,8,0:0:0:0:
256,192,89837,1,0,0:0:0:0:
256,192,89920,1,8,0:0:0:0:
256,192,90087,1,0,0:0:0:0:
256,192,90170,1,8,0:0:0:0:
256,192,90337,1,8,0:0:0:0:
256,192,90420,1,8,0:0:0:0:
256,192,90503,1,8,0:0:0:0:
256,192,90587,1,0,0:0:0:0:
256,192,90670,1,0,0:0:0:0:
256,192,90753,1,0,0:0:0:0:
256,192,90837,1,8,0:0:0:0:
256,192,91003,1,4,0:0:0:0:
256,192,91170,1,0,0:0:0:0:
256,192,91253,1,8,0:0:0:0:
256,192,91337,1,0,0:0:0:0:
256,192,91420,1,0,0:0:0:0:
256,192,91503,1,8,0:0:0:0:
256,192,91587,1,0,0:0:0:0:
256,192,91670,1,0,0:0:0:0:
256,192,91753,1,8,0:0:0:0:
256,192,91837,1,0,0:0:0:0:
256,192,91920,1,8,0:0:0:0:
256,192,92003,1,8,0:0:0:0:
256,192,92087,1,0,0:0:0:0:
256,192,92170,1,8,0:0:0:0:
256,192,92253,1,0,0:0:0:0:
256,192,92337,1,8,0:0:0:0:
256,192,92503,1,0,0:0:0:0:
256,192,92587,1,8,0:0:0:0:
256,192,92753,1,8,0:0:0:0:
256,192,92837,1,0,0:0:0:0:
256,192,93003,1,8,0:0:0:0:
256,192,93087,1,8,0:0:0:0:
256,192,93170,1,0,0:0:0:0:
256,192,93253,1,0,0:0:0:0:
256,192,93337,1,8,0:0:0:0:
256,192,93420,1,0,0:0:0:0:
256,192,93503,1,8,0:0:0:0:
256,192,93587,1,8,0:0:0:0:
256,192,93670,1,0,0:0:0:0:
256,192,94003,1,12,0:0:0:0:
256,192,94170,1,0,0:0:0:0:
256,192,94253,1,0,0:0:0:0:
256,192,94420,1,0,0:0:0:0:
256,192,94503,1,8,0:0:0:0:
256,192,94670,1,0,0:0:0:0:
256,192,94753,1,8,0:0:0:0:
256,192,94837,1,0,0:0:0:0:
256,192,94920,1,0,0:0:0:0:
256,192,95003,1,8,0:0:0:0:
256,192,95170,1,0,0:0:0:0:
256,192,95253,1,0,0:0:0:0:
256,192,95337,1,0,0:0:0:0:
256,192,95420,1,8,0:0:0:0:
256,192,95503,1,8,0:0:0:0:
256,192,95670,1,0,0:0:0:0:
256,192,95753,1,0,0:0:0:0:
256,192,95837,1,8,0:0:0:0:
256,192,95920,1,0,0:0:0:0:
256,192,96003,1,8,0:0:0:0:
256,192,96087,1,8,0:0:0:0:
256,192,96170,1,0,0:0:0:0:
256,192,96253,1,8,0:0:0:0:
256,192,96337,1,0,0:0:0:0:
256,192,96503,1,0,0:0:0:0:
256,192,96587,1,0,0:0:0:0:
256,192,96670,1,8,0:0:0:0:
256,192,96837,1,0,0:0:0:0:
256,192,96920,1,0,0:0:0:0:
256,192,97087,1,0,0:0:0:0:
256,192,97170,1,8,0:0:0:0:
256,192,97337,1,0,0:0:0:0:
256,192,97420,1,8,0:0:0:0:
256,192,97503,1,0,0:0:0:0:
256,192,97587,1,0,0:0:0:0:
256,192,97670,1,8,0:0:0:0:
256,192,97837,1,8,0:0:0:0:
256,192,97920,1,0,0:0:0:0:
256,192,98003,1,0,0:0:0:0:
256,192,98087,1,8,0:0:0:0:
256,192,98170,1,8,0:0:0:0:
256,192,98337,1,0,0:0:0:0:
256,192,98420,1,0,0:0:0:0:
256,192,98503,1,8,0:0:0:0:
256,192,98587,1,0,0:0:0:0:
256,192,98670,1,8,0:0:0:0:
256,192,98753,1,8,0:0:0:0:
256,192,98837,1,0,0:0:0:0:
256,192,98920,1,0,0:0:0:0:
256,192,99003,1,8,0:0:0:0:
256,192,99170,1,0,0:0:0:0:
256,192,99253,1,8,0:0:0:0:
256,192,99337,1,0,0:0:0:0:
256,192,99503,1,8,0:0:0:0:
256,192,99670,1,0,0:0:0:0:
256,192,99753,1,8,0:0:0:0:
256,192,99837,1,0,0:0:0:0:
256,192,100003,1,8,0:0:0:0:
256,192,100170,1,0,0:0:0:0:
256,192,100253,1,0,0:0:0:0:
256,192,100337,1,8,0:0:0:0:
256,192,100420,1,8,0:0:0:0:
256,192,100503,1,0,0:0:0:0:
256,192,100587,1,0,0:0:0:0:
256,192,100670,1,8,0:0:0:0:
256,192,100753,1,0,0:0:0:0:
256,192,100837,1,8,0:0:0:0:
256,192,100920,1,8,0:0:0:0:
256,192,101003,1,8,0:0:0:0:
256,192,101087,1,0,0:0:0:0:
256,192,101170,1,0,0:0:0:0:
256,192,101253,1,0,0:0:0:0:
256,192,101337,1,8,0:0:0:0:
256,192,101420,1,0,0:0:0:0:
256,192,101503,1,0,0:0:0:0:
256,192,101587,1,8,0:0:0:0:
256,192,101670,1,8,0:0:0:0:
256,192,101753,1,0,0:0:0:0:
256,192,101837,1,0,0:0:0:0:
256,192,101920,1,8,0:0:0:0:
256,192,102003,1,8,0:0:0:0:
256,192,102087,1,0,0:0:0:0:
256,192,102170,1,8,0:0:0:0:
256,192,102253,1,8,0:0:0:0:
256,192,102337,1,0,0:0:0:0:
256,192,102420,1,8,0:0:0:0:
256,192,102503,1,8,0:0:0:0:
256,192,102587,1,0,0:0:0:0:
256,192,102670,1,8,0:0:0:0:
256,192,102837,1,8,0:0:0:0:
256,192,102920,1,0,0:0:0:0:
256,192,103003,1,8,0:0:0:0:
256,192,103087,1,8,0:0:0:0:
256,192,103170,1,0,0:0:0:0:
256,192,103253,1,0,0:0:0:0:
256,192,103337,1,8,0:0:0:0:
256,192,103420,1,0,0:0:0:0:
256,192,103503,1,8,0:0:0:0:
256,192,103587,1,0,0:0:0:0:
256,192,103670,1,0,0:0:0:0:
256,192,103753,1,8,0:0:0:0:
256,192,103920,1,0,0:0:0:0:
256,192,104003,1,8,0:0:0:0:
256,192,104087,1,8,0:0:0:0:
256,192,104170,1,0,0:0:0:0:
256,192,104337,1,4,0:0:0:0:
256,192,104670,1,12,0:0:0:0:
256,192,104837,1,4,0:0:0:0:
256,192,105170,1,4,0:0:0:0:
256,192,105337,1,4,0:0:0:0:
256,192,105670,1,4,0:0:0:0:
256,192,105837,1,12,0:0:0:0:
256,192,106170,1,0,0:0:0:0:
256,192,106337,1,8,0:0:0:0:
256,192,106503,1,0,0:0:0:0:
256,192,106587,1,0,0:0:0:0:
256,192,106670,1,8,0:0:0:0:
256,192,106753,1,0,0:0:0:0:
256,192,106837,1,8,0:0:0:0:
256,192,107003,1,4,0:0:0:0:
256,192,107337,1,4,0:0:0:0:
256,192,107503,1,12,0:0:0:0:
256,192,107837,1,4,0:0:0:0:
256,192,108003,1,4,0:0:0:0:
256,192,108337,1,4,0:0:0:0:
256,192,108503,1,12,0:0:0:0:
256,192,108837,1,0,0:0:0:0:
256,192,109003,1,8,0:0:0:0:
256,192,109170,1,0,0:0:0:0:
256,192,109253,1,0,0:0:0:0:
256,192,109337,1,8,0:0:0:0:
256,192,109503,1,8,0:0:0:0:
256,192,109587,1,0,0:0:0:0:
256,192,109670,1,8,0:0:0:0:
256,192,109753,1,8,0:0:0:0:
256,192,109837,1,0,0:0:0:0:
256,192,110003,1,0,0:0:0:0:
256,192,110170,1,8,0:0:0:0:
256,192,110253,1,8,0:0:0:0:
256,192,110337,1,0,0:0:0:0:
256,192,110503,1,0,0:0:0:0:
256,192,110587,1,0,0:0:0:0:
256,192,110670,1,8,0:0:0:0:
256,192,110837,1,0,0:0:0:0:
256,192,111003,1,12,0:0:0:0:
256,192,111503,1,0,0:0:0:0:
256,192,111587,1,8,0:0:0:0:
256,192,111670,1,0,0:0:0:0:
256,192,111837,1,0,0:0:0:0:
256,192,112003,1,8,0:0:0:0:
256,192,112170,1,8,0:0:0:0:
256,192,112337,1,4,0:0:0:0:
256,192,112503,1,8,0:0:0:0:
256,192,112587,1,0,0:0:0:0:
256,192,112670,1,8,0:0:0:0:
256,192,112837,1,8,0:0:0:0:
256,192,112920,1,8,0:0:0:0:
256,192,113003,1,0,0:0:0:0:
256,192,113170,1,0,0:0:0:0:
256,192,113253,1,0,0:0:0:0:
256,192,113337,1,8,0:0:0:0:
256,192,113420,1,0,0:0:0:0:
256,192,113503,1,0,0:0:0:0:
256,192,113587,1,0,0:0:0:0:
256,192,113670,1,8,0:0:0:0:
256,192,113837,1,0,0:0:0:0:
256,192,114003,1,8,0:0:0:0:
256,192,114170,1,8,0:0:0:0:
256,192,114337,1,0,0:0:0:0:
256,192,114420,1,0,0:0:0:0:
256,192,114503,1,0,0:0:0:0:
256,192,114587,1,0,0:0:0:0:
256,192,114670,1,8,0:0:0:0:
256,192,114753,1,8,0:0:0:0:
256,192,114837,1,0,0:0:0:0:
256,192,115003,1,4,0:0:0:0:
256,192,115337,1,8,0:0:0:0:
256,192,115503,1,0,0:0:0:0:
256,192,115587,1,0,0:0:0:0:
256,192,115670,1,8,0:0:0:0:
256,192,115837,1,8,0:0:0:0:
256,192,116003,1,8,0:0:0:0:
256,192,116170,1,0,0:0:0:0:
256,192,116337,1,0,0:0:0:0:
256,192,116670,1,8,0:0:0:0:
256,192,116837,1,0,0:0:0:0:
256,192,117003,1,8,0:0:0:0:
256,192,117170,1,0,0:0:0:0:
256,192,117337,1,8,0:0:0:0:
256,192,117503,1,0,0:0:0:0:
256,192,117670,1,0,0:0:0:0:
256,192,118003,1,8,0:0:0:0:
256,192,118170,1,0,0:0:0:0:
256,192,118337,1,8,0:0:0:0:
256,192,118503,1,0,0:0:0:0:
256,192,118587,1,0,0:0:0:0:
256,192,118670,1,8,0:0:0:0:
256,192,118837,1,0,0:0:0:0:
256,192,119003,1,0,0:0:0:0:
256,192,119337,1,8,0:0:0:0:
256,192,119670,1,8,0:0:0:0:
256,192,119837,1,0,0:0:0:0:
256,192,120003,1,8,0:0:0:0:
256,192,120170,1,0,0:0:0:0:
256,192,120337,1,0,0:0:0:0:
256,192,120670,1,8,0:0:0:0:
256,192,120837,1,0,0:0:0:0:
256,192,120920,1,0,0:0:0:0:
256,192,121003,1,8,0:0:0:0:
256,192,121170,1,8,0:0:0:0:
256,192,121337,1,8,0:0:0:0:
256,192,121503,1,0,0:0:0:0:
256,192,121670,1,0,0:0:0:0:
256,192,122003,1,8,0:0:0:0:
256,192,122170,1,0,0:0:0:0:
256,192,122337,1,8,0:0:0:0:
256,192,122503,1,8,0:0:0:0:
256,192,122670,1,0,0:0:0:0:
256,192,122837,1,0,0:0:0:0:
256,192,123003,1,8,0:0:0:0:
256,192,123337,1,8,0:0:0:0:
256,192,123503,1,0,0:0:0:0:
256,192,123670,1,8,0:0:0:0:
256,192,123837,1,0,0:0:0:0:
256,192,123920,1,0,0:0:0:0:
256,192,124003,1,8,0:0:0:0:
256,192,124170,1,0,0:0:0:0:
256,192,124337,1,8,0:0:0:0:
256,192,124670,1,0,0:0:0:0:
256,192,125003,1,8,0:0:0:0:
256,192,125170,1,0,0:0:0:0:
256,192,125337,1,8,0:0:0:0:
256,192,125503,1,0,0:0:0:0:
256,192,125670,1,0,0:0:0:0:
256,192,126003,1,8,0:0:0:0:
256,192,126170,1,0,0:0:0:0:
256,192,126337,1,8,0:0:0:0:
256,192,126503,1,0,0:0:0:0:
256,192,126670,1,8,0:0:0:0:
256,192,126837,1,0,0:0:0:0:
256,192,127003,1,0,0:0:0:0:
256,192,127337,1,0,0:0:0:0:
256,192,127503,1,0,0:0:0:0:
256,192,127670,1,8,0:0:0:0:
256,192,127837,1,0,0:0:0:0:
256,192,128003,1,8,0:0:0:0:
256,192,128337,1,4,0:0:0:0:
256,192,128503,12,0,132337,0:0:0:0:
