osu file format v9

[General]
AudioFilename: Miki Sayaka vs. Miki Sayaka (fw. Miki Sayaka) - squartatrice.mp3
AudioLeadIn: 0
PreviewTime: 82471
Countdown: 0
SampleSet: Soft
StackLeniency: 0.7
Mode: 0
LetterboxInBreaks: 1

[Editor]
DistanceSpacing: 0.8
BeatDivisor: 4
GridSize: 8

[Metadata]
Title:squartatrice
Artist:Miki Sayaka vs. Miki Sayaka (fw. Miki Sayaka)
Creator:Muya
Version:Beginner
Source:BMS
Tags:Suzully yuineee THE BMS OF FIGHTERS 2011 - Intersection of conflict - bof2011 Mahou Shoujo Puella Magi Madoka Magica madomagi gmtn vs. kozato luze

[Difficulty]
HPDrainRate:1
CircleSize:3
OverallDifficulty:2
ApproachRate:2
SliderMultiplier:0.8
SliderTickRate:1

[Events]
//Background and Video events
0,0,"BG.jpg"
Video,0,"squartatrice.avi"
//Break Periods
2,61584,70491
//Storyboard Layer 0 (Background)
//Storyboard Layer 1 (Fail)
//Storyboard Layer 2 (Pass)
//Storyboard Layer 3 (Foreground)
//Storyboard Sound Samples
//Background Colour Transformations
3,100,163,162,255

[TimingPoints]
720,333.333333333333,3,2,1,60,1,0
42719,333.333333333333,6,2,1,60,1,0
58718,333.333333333333,4,2,1,60,1,0
81384,333.333333333333,5,2,1,60,1,0
83050,333.333333333333,4,2,1,60,1,0
128549,-100,4,2,1,30,0,0
132383,-100,4,2,1,5,0,0

[Colours]
Combo1 : 40,255,40
Combo2 : 255,43,149
Combo3 : 0,128,255
Combo4 : 255,255,45

[HitObjects]
312,192,2719,6,0,B|352:208|392:200,2,80,0|2|2
256,160,3719,2,0,B|176:128|96:160,1,160,2|0
32,264,5053,1,2
80,304,5386,2,0,B|120:320|160:312,1,80,0|2
168,248,6053,2,0,B|200:232|248:240,1,80,0|2
280,296,6719,6,0,B|360:328|440:296,1,160,2|0
512,192,8053,2,0,B|488:160|496:112,1,80,0|2
440,88,8719,2,0,B|320:24|208:88,1,240,2|0
264,272,10719,6,0,B|184:312|104:272,1,160,2|0
80,216,11720,2,0,B|0:216,2,80,2|0|2
136,184,12720,1,2
256,136,13386,1,0
216,88,13720,2,0,B|136:48|56:88,1,160,2|2
24,32,14720,6,0,B|-16:112|24:192,1,160,2|0
80,168,15720,2,0,B|120:248|80:328,1,160,2|2
136,360,16720,1,2
256,208,17720,1,2
376,56,18720,5,2
424,104,19053,2,0,B|424:184,1,80,2|0
464,232,19719,2,0,B|376:232|336:312,1,160,2|2
280,296,20719,5,2
168,352,21386,1,2
112,320,21719,2,0,B|32:320,2,80,2|0|2
168,288,22719,6,0,B|216:216|168:136,1,160,2|0
112,176,23719,2,0,B|64:104|112:24,1,160,2|2
176,48,24719,1,0
304,24,25386,1,2
360,48,25719,2,0,B|440:48,2,80,2|0|2
328,104,26719,6,0,B|248:104,2,80,6|0|2
384,136,27719,1,0
416,192,28053,1,2
408,256,28386,1,2
328,352,29053,1,0
208,312,29719,1,2
88,352,30386,6,0,B|40:280|88:200,1,160,2|0
144,168,31386,1,2
184,120,31719,2,0,B|264:120,2,80,2|0|2
144,72,32719,2,0,B|64:72,2,80,2|0|2
272,48,34053,1,2
192,152,34719,6,0,B|144:232|192:304,1,160,2|0
248,336,35719,2,0,B|328:336,1,80,2|2
384,368,36386,1,2
488,296,37053,1,0
440,176,37719,1,2
488,56,38386,6,0,B|448:48|408:56,1,80,0|2
352,88,39053,1,0
328,144,39386,1,2
272,176,39720,2,0,B|192:208|112:176,1,160,2|0
80,128,40720,6,0,B|0:128,2,80,6|4|6
136,96,41720,2,0,B|184:176|136:256,1,160,2|4
112,304,42719,6,0,B|144:328|192:320,1,80,4|4
280,296,43552,2,0,B|344:304|376:360,1,120,4|4
496,312,44719,2,0,B|512:272|496:232,1,80,4|4
448,152,45552,2,0,B|424:96|448:32,1,120,4|4
320,24,46719,6,0,B|320:104,1,80,4|4
240,160,47552,2,0,B|216:224|240:280,1,120,4|4
136,360,48719,2,0,B|56:360,1,80,4|4
96,272,49552,2,0,B|120:216|96:152,1,120,4|4
24,48,50719,6,0,B|104:80|184:48,1,160,6|0
296,48,52052,2,0,B|376:48,1,80,2|4
440,32,52719,2,0,B|400:112|440:192,1,160,6|0
472,240,53719,2,0,B|472:320,1,80,2|4
360,376,54719,5,4
336,320,55052,2,0,B|256:288|176:320,1,160,4|2
144,264,56052,2,0,B|128:224|144:184,1,80,2|0
200,152,56719,1,2
152,32,57385,1,0
128,88,57719,6,0,B|48:88,1,80,6|0
24,144,58385,1,2
48,200,58718,1,4
256,352,60051,1,4
464,200,61384,1,4
480,144,72051,5,2
360,104,72717,2,4,B|344:64|360:24,2,80,2|0|2
400,224,74051,2,0,B|416:264|400:304,2,80,2|0|2
280,184,75384,1,2
224,216,75717,1,0
160,200,76051,2,0,B|120:208|80:200,1,80,2|0
64,136,76717,2,0,B|104:128|144:136,1,80,2|0
184,88,77384,5,6
256,200,78051,1,4
320,88,78717,1,6
384,200,79384,1,4
336,320,80051,6,0,B|400:352|464:304,2,120,2|0|2
304,264,81384,1,4
248,296,81717,2,0,B|168:296,1,80,2|2
48,256,82717,1,0
104,224,83050,6,0,B|120:184|104:144,1,80,4|2
8,64,84050,2,0,B|80:0|168:40,1,160,2|0
208,72,85050,1,2
336,48,85716,2,0,B|384:120|336:200,1,160,2|0
288,240,86716,1,2
160,96,87716,6,0,B|80:96,1,80,0|2
48,152,88383,2,0,B|0:232|48:304,1,160,2|0
160,368,89716,1,2
216,336,90049,2,0,B|296:336,1,80,0|2
336,216,91049,2,0,B|256:184|176:216,2,160,6|0|2
392,184,92716,2,0,B|432:200|472:176,2,80,0|2|0
360,136,93716,6,0,B|344:96|360:56,1,80,0|6
240,16,94716,2,0,B|208:96|240:176,1,160,2|0
288,216,95716,1,2
384,304,96383,1,0
336,344,96716,2,0,B|256:376|176:344,1,160,2|2
64,192,98383,1,2
136,88,99049,6,0,B|208:56|296:88,1,160,2|0
360,192,100383,1,2
408,152,100716,2,0,B|408:72,2,80,0|2|6
456,192,101716,2,0,B|488:272|456:352,1,160,4|0
328,368,103049,1,0
272,336,103383,2,0,B|192:336,2,80,2|2|2
328,304,104383,6,0,B|400:272|400:136|328:104,1,240,4|0
168,208,106383,2,0,B|88:208,1,80,2|2
32,176,107049,2,0,B|-8:104|32:16,2,160,4|0|0
216,352,109716,6,0,B|296:392|376:352,1,160,2|0
472,272,111049,1,2
368,200,111716,1,0
288,104,112383,2,0,B|368:64|448:104,2,160,2|0|2
200,344,115049,6,0,B|120:376|40:344,1,160,6|0
16,288,116049,1,2
40,232,116383,2,0,B|120:200|200:232,1,160,2|0
312,288,117716,1,2
424,232,118383,1,0
504,136,119049,2,0,B|424:96|344:136,1,160,2|0
232,80,120383,6,0,B|152:48|72:80,1,160,2|0
48,136,121383,1,2
72,192,121716,2,0,B|152:224|232:192,1,160,2|0
344,136,123049,1,2
424,232,123716,1,0
368,344,124383,2,0,B|296:376|208:344,1,160,2|0
88,360,125716,6,0,B|16:312|40:208,1,160,2|0
160,256,127049,1,2
224,144,127716,1,0
160,32,128383,1,4
256,192,128549,12,0,132383
