osu file format v14

[General]
AudioFilename: Kazoo Kid - Trap Remix.mp3
AudioLeadIn: 0
PreviewTime: -1
Countdown: 1
SampleSet: None
StackLeniency: 0.7
Mode: 1
LetterboxInBreaks: 1
WidescreenStoryboard: 0

[Editor]
DistanceSpacing: 0.8
BeatDivisor: 4
GridSize: 16
TimelineZoom: 1

[Metadata]
Title:Kazoo Kid
TitleUnicode:Kazoo Kid
Artist:MikeDiva
ArtistUnicode:MikeDiva
Creator:Sy[K]es
Version:Easy
Source:
Tags:
BeatmapID:895395
BeatmapSetID:412816

[Difficulty]
HPDrainRate:5
CircleSize:5
OverallDifficulty:5
ApproachRate:5
SliderMultiplier:3.59999990463257
SliderTickRate:1

[Events]
//Background and Video events
0,0,"maxresdefault.jpg",0,0
//Break Periods
//Storyboard Layer 0 (Background)
//Storyboard Layer 1 (Fail)
//Storyboard Layer 2 (Pass)
//Storyboard Layer 3 (Foreground)
//Storyboard Sound Samples

[TimingPoints]
8880,689.655172413793,4,1,0,100,1,0

[HitObjects]
256,192,9742,5,0,0:0:0:0:
256,192,10259,1,0,0:0:0:0:
256,192,10776,1,0,0:0:0:0:
256,192,11121,1,0,0:0:0:0:
256,192,11638,1,0,0:0:0:0:
256,192,12155,1,0,0:0:0:0:
256,192,12500,1,0,0:0:0:0:
256,192,12845,1,0,0:0:0:0:
256,192,13190,1,8,0:0:0:0:
256,192,13535,1,0,0:0:0:0:
256,192,13879,1,0,0:0:0:0:
256,192,14224,1,0,0:0:0:0:
256,192,14569,1,8,0:0:0:0:
256,192,14742,1,8,0:0:0:0:
256,192,14914,1,0,0:0:0:0:
256,192,15259,1,8,0:0:0:0:
256,192,15604,1,0,0:0:0:0:
256,192,15948,1,8,0:0:0:0:
256,192,16293,1,0,0:0:0:0:
256,192,16638,1,0,0:0:0:0:
256,192,16983,1,8,0:0:0:0:
256,192,17328,1,8,0:0:0:0:
256,192,18017,1,0,0:0:0:0:
256,192,18362,1,0,0:0:0:0:
256,192,18707,1,8,0:0:0:0:
256,192,19052,1,0,0:0:0:0:
256,192,19397,1,0,0:0:0:0:
256,192,19742,1,8,0:0:0:0:
256,192,20086,1,8,0:0:0:0:
256,192,20259,1,8,0:0:0:0:
256,192,20604,1,8,0:0:0:0:
256,192,21121,1,8,0:0:0:0:
256,192,21466,1,8,0:0:0:0:
256,192,21811,1,0,0:0:0:0:
256,192,22155,1,0,0:0:0:0:
256,192,22500,1,0,0:0:0:0:
256,192,22845,1,8,0:0:0:0:
256,192,23535,1,0,0:0:0:0:
256,192,23879,1,0,0:0:0:0:
256,192,24052,1,0,0:0:0:0:
256,192,24224,1,8,0:0:0:0:
256,192,24397,1,0,0:0:0:0:
256,192,24569,1,0,0:0:0:0:
256,192,24742,1,0,0:0:0:0:
256,192,24914,1,0,0:0:0:0:
256,192,25086,1,0,0:0:0:0:
256,192,25259,1,0,0:0:0:0:
256,192,25604,1,8,0:0:0:0:
256,192,25948,1,0,0:0:0:0:
256,192,26121,1,8,0:0:0:0:
256,192,26293,1,0,0:0:0:0:
256,192,26638,1,0,0:0:0:0:
256,192,26983,1,8,0:0:0:0:
256,192,27328,1,0,0:0:0:0:
256,192,27500,1,8,0:0:0:0:
256,192,27845,1,8,0:0:0:0:
256,192,28017,1,0,0:0:0:0:
256,192,28362,1,8,0:0:0:0:
256,192,29052,1,0,0:0:0:0:
256,192,29397,1,0,0:0:0:0:
256,192,29742,1,8,0:0:0:0:
256,192,30086,1,0,0:0:0:0:
256,192,30259,1,8,0:0:0:0:
256,192,30604,1,8,0:0:0:0:
256,192,30776,1,0,0:0:0:0:
256,192,31121,1,8,0:0:0:0:
256,192,31293,1,8,0:0:0:0:
256,192,31466,1,0,0:0:0:0:
256,192,31638,1,8,0:0:0:0:
256,192,31811,1,0,0:0:0:0:
256,192,32155,1,0,0:0:0:0:
256,192,32500,1,8,0:0:0:0:
256,192,32845,1,0,0:0:0:0:
256,192,33190,1,8,0:0:0:0:
256,192,33535,1,8,0:0:0:0:
256,192,33879,1,8,0:0:0:0:
256,192,34569,1,0,0:0:0:0:
256,192,35259,1,8,0:0:0:0:
256,192,35604,1,0,0:0:0:0:
256,192,36293,1,0,0:0:0:0:
256,192,36638,1,8,0:0:0:0:
256,192,37328,1,0,0:0:0:0:
256,192,38017,1,8,0:0:0:0:
256,192,38362,1,0,0:0:0:0:
256,192,39052,1,0,0:0:0:0:
256,192,39397,1,8,0:0:0:0:
256,192,39742,1,8,0:0:0:0:
256,192,40086,1,0,0:0:0:0:
256,192,40604,1,8,0:0:0:0:
256,192,41121,1,0,0:0:0:0:
256,192,41811,1,0,0:0:0:0:
256,192,42155,1,8,0:0:0:0:
256,192,42845,1,0,0:0:0:0:
256,192,43535,1,8,0:0:0:0:
256,192,43879,1,0,0:0:0:0:
256,192,44569,1,0,0:0:0:0:
256,192,44914,1,8,0:0:0:0:
256,192,45259,1,8,0:0:0:0:
256,192,45604,1,0,0:0:0:0:
256,192,46121,1,0,0:0:0:0:
256,192,46811,1,0,0:0:0:0:
256,192,46983,1,0,0:0:0:0:
256,192,47328,1,0,0:0:0:0:
256,192,47673,1,4,0:0:0:0:
256,192,48362,1,0,0:0:0:0:
256,192,48879,1,0,0:0:0:0:
256,192,49052,1,8,0:0:0:0:
256,192,49397,1,8,0:0:0:0:
256,192,49742,1,0,0:0:0:0:
256,192,49914,1,0,0:0:0:0:
256,192,50086,1,0,0:0:0:0:
256,192,50431,1,8,0:0:0:0:
256,192,50776,1,0,0:0:0:0:
256,192,51121,1,4,0:0:0:0:
256,192,51638,1,0,0:0:0:0:
256,192,51811,1,8,0:0:0:0:
256,192,52155,1,8,0:0:0:0:
256,192,52500,1,0,0:0:0:0:
256,192,52673,1,0,0:0:0:0:
256,192,52845,1,0,0:0:0:0:
256,192,53190,1,8,0:0:0:0:
256,192,53879,1,0,0:0:0:0:
256,192,54397,1,0,0:0:0:0:
256,192,54569,1,8,0:0:0:0:
256,192,54914,1,8,0:0:0:0:
256,192,55259,1,0,0:0:0:0:
256,192,55431,1,0,0:0:0:0:
256,192,55604,1,0,0:0:0:0:
256,192,55948,1,8,0:0:0:0:
256,192,56293,1,0,0:0:0:0:
256,192,56638,1,4,0:0:0:0:
256,192,57155,1,0,0:0:0:0:
256,192,57328,1,8,0:0:0:0:
256,192,57673,1,8,0:0:0:0:
256,192,58017,1,0,0:0:0:0:
256,192,58190,1,8,0:0:0:0:
256,192,58362,1,0,0:0:0:0:
256,192,58707,1,8,0:0:0:0:
256,192,59397,1,0,0:0:0:0:
256,192,59569,1,0,0:0:0:0:
256,192,59742,1,0,0:0:0:0:
256,192,59914,1,0,0:0:0:0:
256,192,60086,1,8,0:0:0:0:
256,192,60259,1,0,0:0:0:0:
256,192,60431,1,8,0:0:0:0:
256,192,60604,1,0,0:0:0:0:
256,192,60776,1,8,0:0:0:0:
256,192,60948,1,0,0:0:0:0:
256,192,61121,1,8,0:0:0:0:
256,192,61293,1,8,0:0:0:0:
256,192,61466,1,0,0:0:0:0:
256,192,61638,1,8,0:0:0:0:
256,192,61811,1,0,0:0:0:0:
256,192,61983,1,8,0:0:0:0:
256,192,62155,1,0,0:0:0:0:
256,192,62328,1,8,0:0:0:0:
256,192,62500,1,8,0:0:0:0:
256,192,62673,1,0,0:0:0:0:
256,192,62845,1,8,0:0:0:0:
256,192,63017,1,0,0:0:0:0:
256,192,63190,1,8,0:0:0:0:
256,192,63362,1,0,0:0:0:0:
256,192,63535,1,8,0:0:0:0:
256,192,63707,1,8,0:0:0:0:
256,192,63879,1,8,0:0:0:0:
256,192,64052,1,0,0:0:0:0:
256,192,64224,1,8,0:0:0:0:
256,192,64914,1,0,0:0:0:0:
256,192,65086,1,0,0:0:0:0:
256,192,65259,1,0,0:0:0:0:
256,192,65431,1,8,0:0:0:0:
256,192,65604,1,8,0:0:0:0:
256,192,65776,1,0,0:0:0:0:
256,192,65948,1,8,0:0:0:0:
256,192,66293,1,8,0:0:0:0:
256,192,66466,1,0,0:0:0:0:
256,192,66638,1,8,0:0:0:0:
256,192,66811,1,8,0:0:0:0:
256,192,66983,1,0,0:0:0:0:
256,192,67155,1,8,0:0:0:0:
256,192,67328,1,0,0:0:0:0:
256,192,67500,1,8,0:0:0:0:
256,192,67845,1,0,0:0:0:0:
256,192,68017,1,8,0:0:0:0:
256,192,68362,1,8,0:0:0:0:
256,192,68707,1,8,0:0:0:0:
256,192,69052,1,0,0:0:0:0:
256,192,69224,1,0,0:0:0:0:
256,192,69397,1,8,0:0:0:0:
256,192,69742,1,8,0:0:0:0:
256,192,70431,1,0,0:0:0:0:
256,192,71121,1,8,0:0:0:0:
256,192,72155,1,8,0:0:0:0:
256,192,72500,1,8,0:0:0:0:
