osu file format v14

[General]
AudioFilename: Mike Posner - I Took A Pill In Ibiza (SeeB Remix).mp3
AudioLeadIn: 0
PreviewTime: -1
Countdown: 0
SampleSet: None
StackLeniency: 0.7
Mode: 0
LetterboxInBreaks: 1
WidescreenStoryboard: 1

[Editor]
Bookmarks: 17423,56533,136223
DistanceSpacing: 1.6
BeatDivisor: 4
GridSize: 8
TimelineZoom: 1

[Metadata]
Title:I Took A Pill In Ibiza (SeeB Remix)
TitleUnicode:I Took A Pill In Ibiza (SeeB Remix)
Artist:Mike Posner
ArtistUnicode:Mike Posner
Creator:ohad1881
Version:extrad1881 (ar 9.5)
Source:
Tags:
BeatmapID:1305874
BeatmapSetID:599361

[Difficulty]
HPDrainRate:4
CircleSize:4
OverallDifficulty:8.5
ApproachRate:9.5
SliderMultiplier:1.4
SliderTickRate:1

[Events]
//Background and Video events
0,0,"liu2.jpg",0,0
//Break Periods
//Storyboard Layer 0 (Background)
//Storyboard Layer 1 (Fail)
//Storyboard Layer 2 (Pass)
//Storyboard Layer 3 (Foreground)
//Storyboard Sound Samples

[TimingPoints]
1250,294.0599882376,4,1,0,100,1,0
1250,-100,4,1,0,40,0,0
20069,-80,4,1,0,55,0,0
38889,-66.6666666666667,4,1,0,75,0,0
57636,-66.6666666666667,4,1,0,5,0,0
57709,-50,4,1,0,85,0,1
74176,-100,4,1,0,60,0,0
76529,-50,4,1,0,85,0,1
95349,-100,4,1,0,40,0,0
114169,-80,4,1,0,55,0,0
132988,-66.6666666666667,4,1,0,50,0,0
151735,-66.6666666666667,4,1,0,5,0,0
151808,-50,4,1,0,85,0,1
168276,-100,4,1,0,60,0,0
170628,-50,4,1,0,85,0,1
189448,-50,4,1,0,85,0,0

[Colours]
Combo1 : 255,255,255
Combo2 : 255,255,255
Combo3 : 255,255,255

[HitObjects]
45,65,1250,6,0,P|88:84|181:66,1,140,8|0,0:0|0:0,0:0:0:0:
288,25,1691,2,0,P|354:6|420:28,1,140
349,124,2132,2,0,B|341:177|341:177|346:280,1,140
239,208,2573,2,0,B|207:251|207:251|143:309,1,140
259,334,3014,2,0,P|297:340|336:331,1,70
239,208,3308,1,0,0:0:0:0:
421,311,3455,1,0,0:0:0:0:
139,260,3602,6,0,P|129:214|158:125,1,140,8|0,0:0|0:0,0:0:0:0:
369,87,4043,2,0,P|330:114|237:122,1,140
90,15,4484,2,0,B|67:57|67:57|65:101|65:101|33:161,1,140
126,255,4925,2,0,B|103:297|103:297|101:341|101:341|69:401,1,140
184,329,5366,2,0,P|220:288|224:260,1,70
198,157,5660,2,0,P|210:124|237:102,1,70
353,129,5954,5,8,0:0:0:0:
305,20,6101,1,0,0:0:0:0:
446,104,6249,2,0,P|448:148|434:185,1,70
354,254,6543,1,0,0:0:0:0:
269,169,6690,1,0,0:0:0:0:
424,317,6837,2,0,P|443:285|449:249,1,70
283,311,7131,6,0,L|200:320,1,70,8|0,0:0|0:0,0:0:0:0:
136,227,7425,2,0,L|70:174,1,70
117,69,7719,2,0,L|108:-14,1,70
276,99,8013,2,0,L|268:168,1,70
362,96,8307,5,8,0:0:0:0:
192,124,8454,1,0,0:0:0:0:
409,178,8601,2,0,L|420:253,1,70
494,169,8895,1,0,0:0:0:0:
352,292,9042,1,0,0:0:0:0:
444,84,9189,2,0,L|454:14,1,70
368,46,9483,5,8,0:0:0:0:
279,68,9630,1,0,0:0:0:0:
188,77,9777,2,0,P|134:83|52:51,1,140
55,53,10145,1,0,0:0:0:0:
55,53,10218,2,0,L|40:147,1,70
234,9,10512,1,0,0:0:0:0:
186,211,10659,6,0,P|117:232|32:201,1,140,8|0,0:0|0:0,0:0:0:0:
227,314,11101,2,0,P|296:335|381:304,1,140
314,98,11542,2,0,B|301:149|301:149|310:197|297:243,1,140
157,29,11983,2,0,B|170:80|170:80|160:128|174:174,1,140
113,293,12424,2,0,P|95:334|72:356,1,70
26,166,12718,2,0,P|44:207|67:229,1,70
242,177,13012,6,0,P|314:160|378:170,1,140,8|0,0:0|0:0,0:0:0:0:
313,294,13453,1,0,0:0:0:0:
171,235,13600,2,0,P|153:194|151:150,1,70
280,7,13894,2,0,P|274:41|258:72,1,70
119,64,14188,5,0,0:0:0:0:
242,177,14335,1,0,0:0:0:0:
28,113,14482,2,0,L|15:200,1,70
249,73,14776,1,0,0:0:0:0:
126,186,14923,1,0,0:0:0:0:
340,122,15070,2,0,L|353:209,1,70
299,321,15364,5,8,0:0:0:0:
242,177,15511,1,0,0:0:0:0:
402,345,15658,2,0,P|441:352|474:347,1,70
193,274,15952,1,8,0:0:0:0:
380,226,16100,1,0,0:0:0:0:
193,274,16247,2,0,P|154:281|121:276,1,70
68,125,16541,5,8,0:0:0:0:
41,262,16688,1,0,0:0:0:0:
217,98,16835,1,0,0:0:0:0:
119,198,16982,1,0,0:0:0:0:
74,10,17129,2,0,L|82:94,1,70,8|0,0:0|0:0,0:0:0:0:
295,117,17423,2,0,L|287:201,1,70
199,37,17717,5,8,0:0:0:0:
384,90,17864,1,0,0:0:0:0:
384,90,17937,1,0,0:0:0:0:
384,90,18011,1,0,0:0:0:0:
243,144,18158,1,0,0:0:0:0:
496,50,18305,6,0,P|493:119|452:190,1,140,8|0,0:0|0:0,0:0:0:0:
243,144,18746,2,0,P|246:213|287:284,1,140
153,80,19187,6,0,P|132:122|129:152,1,70
163,230,19481,2,0,P|168:276|182:303,1,70
400,117,19775,2,0,P|413:84|414:49,1,70
82,153,20069,6,0,P|54:249|86:326,1,175,12|0,0:0|0:0,0:0:0:0:
308,178,20510,2,0,P|238:105|156:94,1,175
173,361,20952,2,0,P|270:337|320:271,1,175
180,172,21393,1,0,0:0:0:0:
405,240,21540,2,0,P|463:251|500:241,1,87.5
381,107,21834,2,0,P|323:96|286:106,1,87.5,8|0,0:0|0:0,0:0:0:0:
178,231,22128,1,0,0:0:0:0:
261,6,22275,1,0,0:0:0:0:
272,336,22422,6,0,B|289:287|289:287|292:155,1,175,8|0,0:0|0:0,0:0:0:0:
80,116,22863,2,0,B|82:239|82:239|99:288,1,175
316,52,23304,2,0,P|251:32|145:57,1,175
224,212,23745,1,0,0:0:0:0:
378,129,23892,2,0,P|410:87|413:31,1,87.5
224,212,24186,2,0,P|233:254|261:287,1,87.5
174,136,24480,1,0,0:0:0:0:
148,309,24627,1,0,0:0:0:0:
316,52,24774,6,0,L|305:153,1,87.5,8|0,0:0|0:0,0:0:0:0:
164,36,25068,1,0,0:0:0:0:
224,212,25215,1,0,0:0:0:0:
434,33,25362,2,0,L|414:223,1,175,8|0,0:0|0:0,0:0:0:0:
174,136,25804,2,0,L|194:326,1,175
368,255,26245,2,0,P|326:281|269:283,1,87.5,8|0,0:0|0:0,0:0:0:0:
174,136,26539,1,0,0:0:0:0:
432,120,26686,2,0,P|390:146|333:148,1,87.5
87,59,26980,6,0,P|55:155|110:246,1,175,8|0,0:0|0:0,0:0:0:0:
174,136,27421,2,0,L|190:231,1,87.5
323,222,27715,2,0,L|338:136,1,87.5
116,275,28009,2,0,P|156:309|192:317,1,87.5
322,316,28303,2,0,P|364:304|396:275,1,87.5,8|0,0:0|0:0,0:0:0:0:
256,163,28597,5,0,0:0:0:0:
236,296,28744,1,0,0:0:0:0:
233,75,28891,1,0,0:0:0:0:
323,222,29038,1,0,0:0:0:0:
89,117,29185,1,0,0:0:0:0:
406,119,29332,1,0,0:0:0:0:
48,214,29479,6,0,B|39:270|39:270|83:391,1,175,12|0,0:0|0:0,0:0:0:0:
208,270,29920,2,0,B|164:234|164:234|37:211,1,175
176,102,30361,2,0,B|167:158|167:158|211:279,1,175
258,100,30803,1,0,0:0:0:0:
364,238,30950,2,0,P|415:248|458:230,1,87.5
366,82,31244,5,8,0:0:0:0:
316,303,31391,1,0,0:0:0:0:
316,303,31464,1,0,0:0:0:0:
316,303,31538,1,0,0:0:0:0:
271,156,31685,1,0,0:0:0:0:
490,370,31832,6,0,B|442:386|442:386|393:391|312:375,1,175,8|0,0:0|0:0,0:0:0:0:
188,212,32273,2,0,B|172:260|172:260|167:309|183:390,1,175
316,139,32714,2,0,B|268:123|268:123|219:118|138:134,1,175
283,27,33155,1,0,0:0:0:0:
61,221,33302,2,0,B|51:269|51:269|61:323,1,87.5
244,259,33596,2,0,B|251:221|251:221|241:173,1,87.5
231,130,33817,1,0,0:0:0:0:
221,87,33890,2,0,B|213:49|213:49|223:1,1,87.5
134,151,34184,5,8,0:0:0:0:
443,48,34331,2,0,B|431:104|431:104|445:248,1,175
316,100,34772,1,0,0:0:0:0:
340,273,34919,1,0,0:0:0:0:
134,151,35066,2,0,P|87:143|37:157,1,87.5
158,15,35360,1,0,0:0:0:0:
137,252,35507,6,0,P|182:303|288:321,1,175
316,100,35949,2,0,L|296:194,1,87.5
473,12,36243,2,0,L|493:106,1,87.5
340,8,36537,5,8,0:0:0:0:
433,196,36684,2,0,L|421:377,1,175
306,238,37125,1,0,0:0:0:0:
462,112,37272,1,0,0:0:0:0:
186,280,37419,1,0,0:0:0:0:
186,280,37492,1,0,0:0:0:0:
186,280,37566,2,0,B|173:223|187:146|187:146|166:71,1,175,8|0,0:0|0:0,0:0:0:0:
331,129,38007,5,0,0:0:0:0:
193,21,38154,1,0,0:0:0:0:
410,79,38301,1,0,0:0:0:0:
117,73,38448,1,0,0:0:0:0:
297,37,38595,1,0,0:0:0:0:
186,280,38742,1,0,0:0:0:0:
432,20,38889,6,0,B|411:77|411:77|411:267,1,210.000008010865,12|0,0:0|0:0,0:0:0:0:
249,92,39330,1,0,0:0:0:0:
88,227,39477,2,0,P|72:281|97:349,1,105.000004005432,8|0,0:0|0:0,0:0:0:0:
263,220,39771,2,0,P|224:179|152:166,1,105.000004005432
181,375,40065,2,0,P|235:361|282:306,1,105.000004005432,8|0,0:0|0:0,0:0:0:0:
293,120,40359,2,0,P|254:85|203:74,1,105.000004005432
377,324,40654,6,0,B|398:275|398:275|397:116,1,210.000008010865,8|0,0:0|0:0,0:0:0:0:
155,284,41095,2,0,P|95:306|149:226,1,210.000008010865
292,175,41536,1,0,0:0:0:0:
103,105,41683,2,0,P|52:58|37:6,1,105.000004005432,0|8,0:0|0:0,0:0:0:0:
218,60,41977,1,0,0:0:0:0:
155,284,42124,2,0,P|132:330|91:363,1,105.000004005432
22,217,42418,5,8,0:0:0:0:
292,175,42565,1,0,0:0:0:0:
292,175,42638,1,0,0:0:0:0:
292,175,42712,2,0,B|362:164|362:164|416:136,1,105.000004005432
67,26,43006,6,0,B|53:81|53:81|72:260,1,210.000008010865,8|0,0:0|0:0,0:0:0:0:
218,60,43447,2,0,B|370:46|370:46|425:61,1,210.000008010865
190,205,43888,1,0,0:0:0:0:
392,141,44035,2,0,P|399:199|381:260,1,105.000004005432,0|8,0:0|0:0,0:0:0:0:
234,114,44329,1,0,0:0:0:0:
58,229,44476,2,0,P|51:287|69:348,1,105.000004005432
124,115,44770,5,8,0:0:0:0:
174,297,44917,1,0,0:0:0:0:
174,297,44991,1,0,0:0:0:0:
174,297,45064,1,0,0:0:0:0:
217,22,45211,1,0,0:0:0:0:
268,358,45358,6,0,B|294:307|294:307|296:212|274:141,1,210.000008010865,8|0,0:0|0:0,0:0:0:0:
58,229,45800,2,0,P|44:312|114:251,1,210.000008010865
124,115,46241,1,0,0:0:0:0:
277,258,46388,2,0,P|333:290|385:290,1,105.000004005432,0|8,0:0|0:0,0:0:0:0:
236,153,46682,1,0,0:0:0:0:
125,292,46829,2,0,P|141:354|178:390,1,105.000004005432
124,115,47123,1,8,0:0:0:0:
53,365,47270,1,0,0:0:0:0:
200,249,47417,6,0,P|228:197|236:140,1,105.000004005432
322,44,47711,2,0,P|332:95|357:140,1,105.000004005432,8|0,0:0|0:0,0:0:0:0:
30,98,48005,2,0,P|58:46|66:-11,1,105.000004005432
200,249,48299,6,0,B|132:284|43:262|43:262|107:221,1,210.000008010865,12|0,0:0|0:0,0:0:0:0:
245,160,48740,1,0,0:0:0:0:
331,316,48887,2,0,B|339:251|339:251|332:197,1,105.000004005432,8|0,0:0|0:0,0:0:0:0:
152,60,49181,2,0,B|146:99|146:99|154:164,1,105.000004005432
292,67,49475,5,8,0:0:0:0:
152,60,49622,1,0,0:0:0:0:
344,152,49769,1,0,0:0:0:0:
222,0,49916,1,0,0:0:0:0:
279,286,50063,6,0,B|329:228|344:151|344:151|381:233,1,210.000008010865,8|0,0:0|0:0,0:0:0:0:
215,349,50505,2,0,P|103:378|11:344,1,210.000008010865
110,196,50946,1,0,0:0:0:0:
279,286,51093,6,0,B|277:240|287:216|287:216|276:155,1,105.000004005432,0|8,0:0|0:0,0:0:0:0:
156,114,51387,1,0,0:0:0:0:
401,261,51534,2,0,B|407:294|407:294|397:318|399:364,1,105.000004005432
425,136,51828,5,8,0:0:0:0:
279,286,51975,1,0,0:0:0:0:
378,0,52122,1,0,0:0:0:0:
337,205,52269,2,0,L|304:157,1,52.5000020027161
200,27,52416,6,0,B|183:89|183:89|197:167|197:167|173:248,1,210.000008010865,8|0,0:0|0:0,0:0:0:0:
425,136,52857,2,0,P|339:92|371:187,1,210.000008010865
428,322,53298,1,0,0:0:0:0:
255,274,53445,2,0,P|183:269|139:282,1,105.000004005432,0|8,0:0|0:0,0:0:0:0:
4,377,53739,1,0,0:0:0:0:
83,217,53886,2,0,P|88:145|75:101,1,105.000004005432
219,2,54180,1,0,0:0:0:0:
370,97,54327,2,0,P|360:148|367:200,1,105.000004005432
222,95,54621,1,0,0:0:0:0:
295,309,54768,6,0,B|336:331|336:331|418:342,1,105.000004005432,8|0,0:0|0:0,0:0:0:0:
188,275,55062,2,0,B|147:297|147:297|65:308,1,105.000004005432
99,44,55357,6,0,B|102:104|102:104|42:250,1,210.000008010865,8|0,0:0|0:0,0:0:0:0:
203,161,55798,1,0,0:0:0:0:
29,93,55945,1,8,0:0:0:0:
292,50,56092,1,0,0:0:0:0:
110,241,56239,6,0,P|102:319|124:375,1,105.000004005432
328,218,56533,2,0,P|336:296|314:352,1,105.000004005432,8|0,0:0|0:0,0:0:0:0:
29,93,56827,2,0,P|21:171|43:227,1,105.000004005432
495,29,57121,2,0,P|503:107|481:163,1,105.000004005432,8|0,0:0|0:0,0:0:0:0:
197,80,57415,2,0,P|217:139|252:78,1,157.500006008148
197,80,57709,6,0,P|160:178|209:361,1,280,12|0,0:0|0:0,0:0:0:0:
395,213,58150,1,0,0:0:0:0:
197,80,58297,2,0,P|114:68|54:85,1,140,8|0,0:0|0:0,0:0:0:0:
329,327,58591,2,0,P|397:339|465:325,1,140
296,138,58885,5,8,0:0:0:0:
216,325,59032,1,0,0:0:0:0:
216,325,59106,1,0,0:0:0:0:
216,325,59179,1,0,0:0:0:0:
200,46,59326,1,0,0:0:0:0:
395,213,59473,2,0,P|323:232|181:182,1,210,8|0,0:0|0:0,0:0:0:0:
145,115,59767,6,0,L|164:272,1,140
200,46,60061,5,8,0:0:0:0:
161,253,60209,1,0,0:0:0:0:
367,28,60356,2,0,B|298:139|298:139|143:178,1,280,0|8,0:0|0:0,0:0:0:0:
81,23,60797,1,0,0:0:0:0:
250,243,60944,2,0,B|247:314|247:314|266:387,1,140
138,150,61238,5,8,0:0:0:0:
339,208,61385,1,0,0:0:0:0:
132,29,61532,1,0,0:0:0:0:
260,286,61679,1,0,0:0:0:0:
288,0,61826,1,8,0:0:0:0:
69,306,61973,1,0,0:0:0:0:
376,106,62120,2,0,P|425:182|339:208,1,210
318,169,62414,6,0,B|312:267|312:267|326:330,1,140,8|0,0:0|0:0,0:0:0:0:
132,29,62708,2,0,B|138:127|138:127|124:190,1,140
376,107,63002,2,0,B|266:120|214:139|214:139|319:60,1,280,8|0,0:0|0:0,0:0:0:0:
503,4,63443,1,0,0:0:0:0:
275,272,63590,2,0,P|169:270|64:128,1,280,8|0,0:0|0:0,0:0:0:0:
275,272,64031,2,0,P|381:270|486:128,1,280
255,23,64472,2,0,L|254:176,1,140
2,76,64766,6,0,B|77:135|168:174|168:174|266:161,1,280,8|0,0:0|0:0,0:0:0:0:
505,76,65208,2,0,B|430:135|339:174|339:174|241:161,1,280
505,76,65649,2,0,L|474:232,1,140
97,192,65943,5,8,0:0:0:0:
331,232,66090,1,0,0:0:0:0:
95,80,66237,1,0,0:0:0:0:
214,333,66384,1,0,0:0:0:0:
250,20,66531,1,8,0:0:0:0:
214,333,66678,1,0,0:0:0:0:
316,134,66825,1,0,0:0:0:0:
48,360,66972,1,0,0:0:0:0:
488,225,67119,6,0,B|380:267|273:252|273:252|331:232,1,280,12|0,0:0|0:0,0:0:0:0:
477,63,67560,1,0,0:0:0:0:
215,157,67707,2,0,P|128:185|47:179,1,140,8|0,0:0|0:0,0:0:0:0:
342,34,68001,2,0,P|429:62|510:56,1,140
221,0,68295,5,8,0:0:0:0:
276,216,68442,1,0,0:0:0:0:
97,80,68589,2,0,B|83:154|83:154|96:220,1,140
280,91,68883,1,8,0:0:0:0:
161,281,69030,1,0,0:0:0:0:
405,115,69177,1,0,0:0:0:0:
405,115,69251,1,0,0:0:0:0:
405,115,69324,1,0,0:0:0:0:
405,115,69398,1,0,0:0:0:0:
405,115,69471,6,0,L|411:268,1,140,8|0,0:0|0:0,0:0:0:0:
166,141,69765,2,0,L|160:294,1,140
506,43,70060,2,0,L|512:196,1,140,8|0,0:0|0:0,0:0:0:0:
88,0,70354,2,0,L|82:153,1,140
137,340,70648,5,8,0:0:0:0:
166,141,70795,1,0,0:0:0:0:
341,280,70942,1,0,0:0:0:0:
121,237,71089,1,0,0:0:0:0:
342,65,71236,1,8,0:0:0:0:
217,315,71383,1,0,0:0:0:0:
88,0,71530,1,0,0:0:0:0:
341,280,71677,1,0,0:0:0:0:
166,141,71824,6,0,P|80:127|8:146,1,140,8|0,0:0|0:0,0:0:0:0:
342,65,72118,2,0,P|428:51|500:70,1,140
217,315,72412,2,0,B|212:232|166:141|166:141|182:95|187:16,1,280,8|0,0:0|0:0,0:0:0:0:
95,271,72853,1,0,0:0:0:0:
342,65,73000,2,0,P|321:139|251:33,1,280,8|0,0:0|0:0,0:0:0:0:
466,285,73441,2,0,P|398:322|424:198,1,280
217,315,73882,2,0,P|127:327|66:307,1,140,8|0,0:0|0:0,0:0:0:0:
28,84,74176,6,0,B|84:26|84:26|66:135|38:231,1,280
35,333,74912,1,0,0:0:0:0:
124,265,75059,2,0,P|172:232|212:228,1,70
294,224,75353,2,0,P|341:167|213:171,1,280
205,267,76088,1,0,0:0:0:0:
112,108,76235,1,0,0:0:0:0:
109,125,76308,1,0,0:0:0:0:
106,142,76382,1,0,0:0:0:0:
103,159,76455,1,0,0:0:0:0:
100,177,76529,6,0,B|175:147|175:147|243:156|243:156|288:115|374:76,1,280,12|0,0:0|0:0,0:0:0:0:
385,307,76970,1,0,0:0:0:0:
194,67,77117,2,0,P|85:52|10:226,1,280,8|0,0:0|0:0,0:0:0:0:
87,381,77558,1,0,0:0:0:0:
186,203,77705,2,0,P|203:131|189:54,1,140,8|0,0:0|0:0,0:0:0:0:
0,2,77999,1,0,0:0:0:0:
113,194,78146,1,0,0:0:0:0:
258,24,78293,2,0,B|333:13|333:13|408:30,1,140,8|0,0:0|0:0,0:0:0:0:
486,231,78587,2,0,B|411:242|411:242|336:225,1,140
174,86,78881,5,8,0:0:0:0:
208,264,79028,1,0,0:0:0:0:
56,163,79175,2,0,P|43:241|53:306,1,140
332,178,79469,1,8,0:0:0:0:
174,86,79616,1,0,0:0:0:0:
208,264,79764,2,0,B|287:266|287:266|365:248,1,140
185,167,80058,5,8,0:0:0:0:
349,88,80205,1,0,0:0:0:0:
120,61,80352,1,0,0:0:0:0:
366,213,80499,1,0,0:0:0:0:
56,162,80646,1,8,0:0:0:0:
441,72,80793,1,0,0:0:0:0:
18,38,80940,1,0,0:0:0:0:
479,251,81087,1,0,0:0:0:0:
199,92,81234,6,0,B|194:145|185:167|185:167|194:273,1,140,8|0,0:0|0:0,0:0:0:0:
441,72,81528,2,0,B|445:125|455:147|455:147|446:253,1,140
199,92,81822,2,0,P|101:74|182:185,1,280,8|0,0:0|0:0,0:0:0:0:
441,72,82263,1,0,0:0:0:0:
213,320,82410,2,0,P|117:333|62:318,1,140,8|0,0:0|0:0,0:0:0:0:
342,254,82704,2,0,P|438:241|493:256,1,140
129,212,82998,2,0,B|118:173|118:173|118:71,1,140,8|0,0:0|0:0,0:0:0:0:
498,31,83292,2,0,B|498:130|498:130|487:169,1,140
463,204,83513,1,0,0:0:0:0:
430,230,83586,6,0,B|341:253|341:253|251:258|133:194,1,280,8|0,0:0|0:0,0:0:0:0:
11,12,84027,2,0,B|35:70|35:70|19:326,1,280
155,60,84468,2,0,L|147:231,1,140
394,10,84763,2,0,L|417:320,1,280,8|0,0:0|0:0,0:0:0:0:
493,94,85204,1,0,0:0:0:0:
303,183,85351,2,0,P|219:200|155:186,1,140,8|0,0:0|0:0,0:0:0:0:
22,38,85645,5,0,0:0:0:0:
19,72,85718,1,0,0:0:0:0:
17,107,85792,1,0,0:0:0:0:
15,142,85865,1,0,0:0:0:0:
13,177,85939,6,0,B|82:192|160:166|160:166|224:169|224:169|165:237,1,280,12|0,0:0|0:0,0:0:0:0:
21,357,86380,1,0,0:0:0:0:
314,90,86527,2,0,B|312:171|286:264|286:264|298:319|298:319|281:386,1,280,8|0,0:0|0:0,0:0:0:0:
428,210,86968,1,0,0:0:0:0:
202,97,87115,6,0,P|121:83|46:104,1,140,8|0,0:0|0:0,0:0:0:0:
301,8,87409,1,0,0:0:0:0:
223,247,87556,1,0,0:0:0:0:
223,247,87630,1,0,0:0:0:0:
223,247,87703,1,8,0:0:0:0:
202,97,87850,1,0,0:0:0:0:
333,312,87997,1,0,0:0:0:0:
366,321,88070,1,0,0:0:0:0:
401,324,88144,1,0,0:0:0:0:
436,320,88217,1,0,0:0:0:0:
469,310,88291,6,0,P|480:234|463:156,1,140,8|0,0:0|0:0,0:0:0:0:
323,88,88585,1,0,0:0:0:0:
181,178,88732,2,0,P|170:246|180:315,1,140,0|8,0:0|0:0,0:0:0:0:
324,229,89026,1,0,0:0:0:0:
58,82,89173,2,0,P|32:228|74:317,1,210
79,315,89467,5,8,0:0:0:0:
181,178,89615,1,0,0:0:0:0:
320,370,89762,1,0,0:0:0:0:
245,93,89909,1,0,0:0:0:0:
18,222,90056,1,8,0:0:0:0:
410,249,90203,1,0,0:0:0:0:
104,0,90350,1,0,0:0:0:0:
67,384,90497,1,0,0:0:0:0:
229,182,90644,6,0,P|309:165|380:187,1,140,8|0,0:0|0:0,0:0:0:0:
202,380,90938,2,0,P|122:397|51:375,1,140
95,109,91232,2,0,B|134:43|134:43|135:217|111:258,1,280,8|0,0:0|0:0,0:0:0:0:
5,50,91673,1,0,0:0:0:0:
229,182,91820,2,0,B|322:226|440:189|440:189|321:150,1,280,8|0,0:0|0:0,0:0:0:0:
95,109,92261,2,0,B|51:202|88:320|88:320|127:201,1,280
328,35,92702,2,0,P|207:60|110:19,1,210
99,0,92996,6,0,B|95:112|95:112|35:284,1,280,8|0,0:0|0:0,0:0:0:0:
328,35,93437,2,0,B|332:147|332:147|392:319,1,280
149,321,93878,2,0,P|76:333|8:319,1,140
171,144,94172,5,8,0:0:0:0:
239,371,94319,1,0,0:0:0:0:
254,40,94467,1,0,0:0:0:0:
62,306,94614,1,0,0:0:0:0:
409,153,94761,1,8,0:0:0:0:
50,36,94908,1,0,0:0:0:0:
486,16,95055,1,0,0:0:0:0:
62,306,95202,1,0,0:0:0:0:
171,144,95349,6,0,P|237:131|311:147,1,140,2|0,0:0|0:0,0:0:0:0:
382,263,95790,2,0,P|316:276|242:260,1,140
114,211,96231,2,0,B|103:258|103:258|97:370,1,140
237,334,96672,2,0,B|277:329|277:329|342:339|387:330,1,140
463,222,97113,2,0,B|423:217|423:217|358:227|313:218,1,140
148,172,97554,1,0,0:0:0:0:
148,172,97628,1,0,0:0:0:0:
148,172,97701,6,0,B|143:224|143:224|165:322,1,140,8|0,0:0|0:0,0:0:0:0:
258,208,98142,2,0,P|325:194|394:209,1,140
318,327,98583,2,0,P|251:313|182:328,1,140
46,292,99024,2,0,B|38:239|57:189|57:189|91:156,1,140
206,97,99466,2,0,P|261:100|286:94,1,70
374,196,99760,2,0,P|319:193|294:199,1,70
177,254,100054,6,0,P|209:300|295:323,1,140,8|0,0:0|0:0,0:0:0:0:
149,351,100495,1,0,0:0:0:0:
99,219,100642,2,0,B|85:135,1,70,8|0,0:0|0:0,0:0:0:0:
210,83,100936,2,0,B|198:152,1,70
332,110,101230,5,8,0:0:0:0:
295,245,101377,1,0,0:0:0:0:
419,50,101524,2,0,B|430:119,1,70
403,256,101818,1,8,0:0:0:0:
502,157,101965,1,0,0:0:0:0:
295,245,102112,2,0,P|244:254|219:248,1,70
83,143,102406,6,0,B|64:191|64:191|62:296,1,140,8|0,0:0|0:0,0:0:0:0:
186,215,102847,2,0,L|198:264,1,35
242,313,102994,2,0,P|283:325|325:323,1,70,8|0,0:0|0:0,0:0:0:0:
255,188,103288,2,0,P|275:225|306:253,1,70
363,74,103582,2,0,P|351:115|353:157,1,70,8|0,0:0|0:0,0:0:0:0:
117,19,103876,2,0,P|129:60|127:102,1,70
100,224,104170,2,0,P|88:265|90:307,1,70,8|0,0:0|0:0,0:0:0:0:
375,142,104465,2,0,P|373:107|362:73,1,70
239,293,104759,6,0,P|290:312|373:296,1,140,8|0,0:0|0:0,0:0:0:0:
291,182,105200,1,0,0:0:0:0:
291,182,105273,1,0,0:0:0:0:
291,182,105347,2,0,P|223:165|157:185,1,140,8|0,0:0|0:0,0:0:0:0:
61,287,105788,1,0,0:0:0:0:
88,97,105935,6,0,B|100:59|100:59|102:21,1,70,8|0,0:0|0:0,0:0:0:0:
277,113,106229,2,0,B|278:143|278:143|290:181,1,70
352,67,106523,1,8,0:0:0:0:
261,266,106670,1,0,0:0:0:0:
277,113,106817,1,0,0:0:0:0:
366,315,106964,1,0,0:0:0:0:
165,189,107111,6,0,P|116:189|69:180,1,70,8|0,0:0|0:0,0:0:0:0:
192,58,107405,1,0,0:0:0:0:
261,266,107552,2,0,B|241:221|241:221|243:121,1,140
361,204,107993,1,8,0:0:0:0:
173,333,108140,6,0,P|96:341|24:299,1,140
19,176,108581,2,0,P|11:99|53:27,1,140
174,67,109022,2,0,P|251:59|323:101,1,140
329,119,109390,1,0,0:0:0:0:
358,149,109464,6,0,P|394:177|434:177,1,70,8|0,0:0|0:0,0:0:0:0:
451,44,109758,1,0,0:0:0:0:
439,271,109905,1,0,0:0:0:0:
276,185,110052,2,0,P|234:181|203:184,1,70,8|0,0:0|0:0,0:0:0:0:
81,251,110346,2,0,P|123:247|154:250,1,70
77,129,110640,5,8,0:0:0:0:
55,327,110787,1,0,0:0:0:0:
170,82,110934,1,0,0:0:0:0:
192,280,111081,1,0,0:0:0:0:
276,185,111228,2,0,P|325:178|357:184,1,70,8|0,0:0|0:0,0:0:0:0:
436,286,111522,2,0,P|387:279|355:285,1,70
192,280,111816,6,0,P|174:227|184:144,1,140,8|0,0:0|0:0,0:0:0:0:
288,52,112257,1,0,0:0:0:0:
148,57,112404,2,0,P|87:61|68:55,1,70,8|0,0:0|0:0,0:0:0:0:
62,197,112698,2,0,L|82:281,1,70
271,120,112992,2,0,L|287:51,1,70,8|0,0:0|0:0,0:0:0:0:
419,217,113286,2,0,L|435:285,1,70
422,114,113580,5,8,0:0:0:0:
341,265,113727,1,0,0:0:0:0:
288,52,113874,1,0,0:0:0:0:
464,241,114022,1,0,0:0:0:0:
154,105,114169,6,0,B|139:171|139:171|159:287,1,175,12|0,0:0|0:0,0:0:0:0:
338,171,114610,2,0,B|353:237|353:237|333:353,1,175
338,171,115051,2,0,P|396:149|513:179,1,175
369,59,115492,1,0,0:0:0:0:
261,196,115639,2,0,B|256:237|256:237|275:298,1,87.5
109,209,115933,2,0,B|114:168|114:168|95:107,1,87.5,8|0,0:0|0:0,0:0:0:0:
369,59,116227,2,0,P|319:83|216:63,1,131.25
204,41,116521,6,0,P|191:90|234:204,1,175,8|0,0:0|0:0,0:0:0:0:
387,258,116962,2,0,P|351:222|230:202,1,175
106,307,117403,2,0,P|154:293|232:199,1,175
68,137,117844,1,0,0:0:0:0:
106,307,117991,2,0,P|162:349|214:350,1,87.5
387,258,118285,2,0,P|331:300|279:301,1,87.5,8|0,0:0|0:0,0:0:0:0:
323,128,118579,1,0,0:0:0:0:
220,269,118726,1,0,0:0:0:0:
259,19,118873,6,0,L|239:118,1,87.5,8|0,0:0|0:0,0:0:0:0:
398,25,119168,1,0,0:0:0:0:
161,81,119315,2,0,L|141:180,1,87.5,0|8,0:0|0:0,0:0:0:0:
147,210,119535,1,0,0:0:0:0:
153,253,119609,6,0,L|133:352,1,87.5
248,190,119903,1,0,0:0:0:0:
72,286,120050,1,8,0:0:0:0:
161,81,120197,2,0,L|141:180,1,87.5
288,52,120491,1,0,0:0:0:0:
49,129,120638,2,0,L|29:228,1,87.5,8|0,0:0|0:0,0:0:0:0:
288,52,120932,1,0,0:0:0:0:
72,286,121079,6,0,P|150:310|241:288,1,175
376,180,121520,2,0,P|368:249|383:286,1,87.5
245,144,121814,2,0,P|189:102|149:97,1,87.5,8|0,0:0|0:0,0:0:0:0:
337,40,122108,2,0,P|400:12|425:-19,1,87.5
249,249,122402,2,0,P|179:226|137:151,1,131.25,8|0,0:0|0:0,0:0:0:0:
120,97,122696,6,0,L|104:214,1,87.5
337,40,122990,2,0,L|353:157,1,87.5
198,37,123284,1,8,0:0:0:0:
259,200,123431,1,0,0:0:0:0:
69,24,123578,2,0,B|53:92|53:92|69:226,1,175,12|0,0:0|0:0,0:0:0:0:
222,117,124020,2,0,P|295:93|401:122,1,175
347,284,124461,2,0,P|274:308|168:279,1,175
112,174,124902,1,0,0:0:0:0:
89,303,125049,6,0,P|59:265|43:216,1,87.5
222,117,125343,2,0,P|205:157|178:191,1,87.5,8|0,0:0|0:0,0:0:0:0:
279,48,125637,1,0,0:0:0:0:
300,221,125784,1,0,0:0:0:0:
426,15,125931,2,0,P|427:82|478:199,1,175,8|0,0:0|0:0,0:0:0:0:
279,48,126372,2,0,B|211:46|211:46|150:63|86:53,1,175
205,198,126813,2,0,P|205:251|140:196,1,175
279,48,127254,1,0,0:0:0:0:
320,218,127401,6,0,P|328:276|317:315,1,87.5
448,183,127695,2,0,P|440:241|451:280,1,87.5,8|0,0:0|0:0,0:0:0:0:
361,92,127989,2,0,P|313:77|196:98,1,131.25
200,104,128283,6,0,P|131:115|88:100,1,87.5,8|0,0:0|0:0,0:0:0:0:
1,4,128577,1,0,0:0:0:0:
154,216,128725,2,0,B|184:171|199:104|199:104|230:160,1,175
260,322,129166,1,0,0:0:0:0:
367,104,129313,2,0,P|286:82|188:109,1,175
289,253,129754,2,0,P|369:274|467:247,1,175,0|8,0:0|0:0,0:0:0:0:
303,169,130195,1,0,0:0:0:0:
149,253,130342,2,0,P|94:264|52:253,1,87.5
40,221,130562,1,0,0:0:0:0:
28,178,130636,6,0,B|22:102|35:45|35:45|48:94,1,175,8|0,0:0|0:0,0:0:0:0:
125,165,131077,1,0,0:0:0:0:
147,53,131224,1,8,0:0:0:0:
228,240,131371,2,0,P|293:259|345:254,1,87.5
409,80,131665,2,0,B|387:44|387:44|366:103|391:173,1,175
472,329,132106,2,0,P|418:347|295:326,1,175
224,173,132547,1,0,0:0:0:0:
146,330,132694,2,0,P|83:346|30:330,1,87.5
164,110,132988,6,0,B|223:172|223:172|356:184,1,210.000008010865,12|0,0:0|0:0,0:0:0:0:
251,30,133429,1,0,0:0:0:0:
124,226,133576,2,0,P|117:307|137:351,1,105.000004005432
346,285,133871,2,0,P|356:233|346:182,1,105.000004005432
51,151,134165,6,0,P|30:234|127:217,1,210.000008010865
251,30,134606,1,0,0:0:0:0:
264,304,134753,2,0,B|277:218|277:218|241:93,1,210.000008010865,8|0,0:0|0:0,0:0:0:0:
431,241,135194,2,0,P|469:254|421:187,1,210.000008010865
159,173,135635,1,0,0:0:0:0:
264,304,135782,6,0,P|195:322|53:296,1,210.000008010865
305,109,136223,2,0,P|406:85|508:104,1,210.000008010865
159,173,136664,2,0,P|91:133|188:120,1,210.000008010865
352,322,137105,2,0,B|379:262|379:262|373:108,1,210.000008010865,8|0,0:0|0:0,0:0:0:0:
196,267,137546,5,0,0:0:0:0:
196,267,137620,1,0,0:0:0:0:
196,267,137693,2,0,L|90:278,1,105.000004005432
238,128,137987,1,0,0:0:0:0:
352,322,138134,2,0,L|458:333,1,105.000004005432
283,213,138428,1,0,0:0:0:0:
117,379,138576,6,0,B|77:371|49:328|49:328|45:267|45:267|20:186,1,210.000008010865
259,8,139017,2,0,B|240:67|240:67|237:127|237:127|209:170|169:178,1,210.000008010865
379,66,139458,1,8,0:0:0:0:
79,69,139605,2,0,B|75:130|75:130|99:200,1,105.000004005432
259,8,139899,2,0,L|271:99,1,52.5000020027161
328,212,140046,6,0,B|383:233|495:205|495:205|426:192,1,210.000008010865
192,137,140487,2,0,B|171:192|199:304|199:304|212:235,1,210.000008010865
300,76,140928,1,0,0:0:0:0:
105,154,141075,1,0,0:0:0:0:
375,210,141222,1,0,0:0:0:0:
192,137,141369,1,0,0:0:0:0:
452,76,141516,1,0,0:0:0:0:
311,328,141663,1,0,0:0:0:0:
498,194,141810,5,8,0:0:0:0:
192,137,141957,1,0,0:0:0:0:
375,210,142104,1,0,0:0:0:0:
139,12,142251,1,0,0:0:0:0:
139,12,142325,1,0,0:0:0:0:
139,12,142398,6,0,B|128:106|128:106|175:253,1,210.000008010865,12|0,0:0|0:0,0:0:0:0:
254,26,142839,1,0,0:0:0:0:
251,235,142986,2,0,B|241:289|241:289|207:348,1,105.000004005432
339,112,143280,2,0,B|349:166|349:166|383:225,1,105.000004005432
117,216,143575,2,0,P|38:203|112:150,1,210.000008010865,8|0,0:0|0:0,0:0:0:0:
218,319,144016,1,0,0:0:0:0:
339,112,144163,6,0,B|349:216|376:262|376:262|349:327,1,210.000008010865
462,104,144604,2,0,P|414:33|282:5,1,210.000008010865,8|0,0:0|0:0,0:0:0:0:
108,90,145045,1,0,0:0:0:0:
251,243,145192,1,0,0:0:0:0:
198,3,145339,2,0,B|179:64|179:64|193:156|193:156|159:240,1,210.000008010865
19,62,145780,1,0,0:0:0:0:
83,261,145927,2,0,P|128:304|175:313,1,105.000004005432
336,190,146221,2,0,P|291:233|244:242,1,105.000004005432
428,29,146515,6,0,B|415:95|415:95|449:284,1,210.000008010865,8|0,0:0|0:0,0:0:0:0:
187,93,146956,2,0,B|200:159|200:159|166:348,1,210.000008010865
76,114,147397,1,0,0:0:0:0:
282,76,147544,1,0,0:0:0:0:
71,249,147691,2,0,L|48:368,1,105.000004005432
357,190,147985,6,0,B|283:158|283:158|150:178,1,210.000008010865,8|0,0:0|0:0,0:0:0:0:
435,81,148427,2,0,B|454:208|454:208|422:282,1,210.000008010865
282,76,148868,1,0,0:0:0:0:
295,285,149015,1,0,0:0:0:0:
152,3,149162,1,0,0:0:0:0:
244,189,149309,1,0,0:0:0:0:
5,5,149456,6,0,B|4:88|4:88|37:156|24:217,1,210.000008010865,8|0,0:0|0:0,0:0:0:0:
192,337,149897,1,0,0:0:0:0:
165,128,150044,1,8,0:0:0:0:
54,306,150191,1,0,0:0:0:0:
357,249,150338,6,0,L|470:273,1,105.000004005432
165,128,150632,2,0,L|52:152,1,105.000004005432,8|0,0:0|0:0,0:0:0:0:
408,36,150926,2,0,L|521:60,1,105.000004005432
156,284,151220,2,0,L|43:308,1,105.000004005432,8|0,0:0|0:0,0:0:0:0:
295,13,151514,2,0,B|311:63|311:63|309:111|265:207,1,157.500006008148
246,194,151808,6,0,B|335:242|475:200|475:200|428:265,1,280,12|0,0:0|0:0,0:0:0:0:
262,360,152249,1,0,0:0:0:0:
282,83,152396,2,0,B|268:148|247:192|247:192|198:212|181:239|181:239|145:226|74:266,1,280,8|0,0:0|0:0,0:0:0:0:
133,30,152837,1,0,0:0:0:0:
27,227,152984,1,8,0:0:0:0:
282,83,153131,2,0,L|265:157,1,70
190,236,153279,2,0,P|183:323|199:378,1,140,8|0,0:0|0:0,0:0:0:0:
397,274,153573,1,0,0:0:0:0:
282,83,153720,2,0,P|195:76|140:92,1,140,0|8,0:0|0:0,0:0:0:0:
84,305,154014,1,0,0:0:0:0:
350,0,154161,6,0,P|407:116|304:195,1,280,8|0,0:0|0:0,0:0:0:0:
128,57,154602,1,0,0:0:0:0:
242,249,154749,2,0,P|262:325|247:387,1,140,8|0,0:0|0:0,0:0:0:0:
121,191,155043,2,0,P|107:122|127:56,1,140
319,172,155337,5,8,0:0:0:0:
127,56,155484,1,0,0:0:0:0:
405,88,155631,1,0,0:0:0:0:
143,188,155778,1,0,0:0:0:0:
260,70,155925,1,8,0:0:0:0:
242,249,156072,1,0,0:0:0:0:
366,5,156219,1,0,0:0:0:0:
309,375,156366,1,0,0:0:0:0:
143,188,156513,6,0,P|117:109|124:51,1,140,8|0,0:0|0:0,0:0:0:0:
412,170,156807,2,0,P|416:239|392:304,1,140
42,153,157101,2,0,P|106:89|256:168,1,280,8|0,0:0|0:0,0:0:0:0:
42,153,157542,1,0,0:0:0:0:
368,291,157689,6,0,B|377:225|411:169|411:169|424:89|407:9,1,280,8|0,0:0|0:0,0:0:0:0:
156,113,158131,2,0,B|140:182|154:261|154:261|187:318|197:383,1,280
301,123,158572,1,0,0:0:0:0:
54,255,158719,1,0,0:0:0:0:
506,127,158866,6,0,B|452:196|452:196|361:213|245:187,1,280,8|0,0:0|0:0,0:0:0:0:
15,127,159307,2,0,B|69:196|69:196|160:213|276:187,1,280
104,0,159748,2,0,P|95:67|117:142,1,140
236,58,160042,5,8,0:0:0:0:
199,264,160189,1,0,0:0:0:0:
373,146,160336,1,0,0:0:0:0:
93,144,160483,1,0,0:0:0:0:
329,293,160630,1,8,0:0:0:0:
336,13,160777,1,0,0:0:0:0:
116,317,160924,1,0,0:0:0:0:
446,129,161071,1,0,0:0:0:0:
86,13,161218,6,0,B|76:78|76:78|93:144|93:144|138:201|168:287,1,280,12|0,0:0|0:0,0:0:0:0:
256,84,161659,1,0,0:0:0:0:
349,271,161806,2,0,B|373:201|419:144|419:144|436:78|436:78|426:13,1,280,8|0,0:0|0:0,0:0:0:0:
469,264,162247,1,0,0:0:0:0:
256,84,162394,6,0,B|214:168|214:168|246:366,1,280,8|0,0:0|0:0,0:0:0:0:
380,192,162835,2,0,B|328:113|328:113|140:42,1,280
230,244,163277,2,0,B|323:238|323:238|479:111,1,280,0|8,0:0|0:0,0:0:0:0:
416,321,163718,1,0,0:0:0:0:
309,151,163865,1,0,0:0:0:0:
511,339,164012,1,0,0:0:0:0:
208,132,164159,6,0,P|115:116|45:142,1,140,8|0,0:0|0:0,0:0:0:0:
282,319,164453,2,0,B|311:248|309:154|309:154|272:39,1,280,0|8,0:0|0:0,0:0:0:0:
56,223,164894,2,0,L|58:305,1,70
111,162,165041,5,0,0:0:0:0:
206,364,165188,1,0,0:0:0:0:
220,84,165335,1,8,0:0:0:0:
100,377,165482,1,0,0:0:0:0:
362,213,165629,1,0,0:0:0:0:
56,223,165776,1,0,0:0:0:0:
475,85,165923,6,0,B|471:143|478:186|478:186|450:254,1,140,8|0,0:0|0:0,0:0:0:0:
206,364,166217,2,0,B|191:328|191:328|197:285|194:227,1,140
362,28,166511,2,0,P|347:132|227:37,1,280,8|0,0:0|0:0,0:0:0:0:
488,8,166952,1,0,0:0:0:0:
283,260,167099,2,0,B|200:282|69:255|69:255|8:275,1,280,8|0,0:0|0:0,0:0:0:0:
213,22,167540,2,0,B|296:0|427:27|427:27|488:7,1,280
189,195,167982,2,0,P|183:329|259:386,1,210
276,368,168276,6,0,B|201:315|201:315|-4:316,1,280
105,211,169011,1,0,0:0:0:0:
228,145,169158,2,0,L|317:147,1,70
197,49,169452,2,0,P|112:55|39:20,1,140
315,49,169893,2,0,P|400:55|473:20,1,140
228,145,170334,5,0,0:0:0:0:
225,169,170407,1,0,0:0:0:0:
222,193,170481,1,0,0:0:0:0:
220,218,170554,1,0,0:0:0:0:
219,244,170628,6,0,P|280:268|447:155,1,280,12|0,0:0|0:0,0:0:0:0:
246,31,171069,1,0,0:0:0:0:
81,202,171216,2,0,P|74:306|96:356,1,140,8|0,0:0|0:0,0:0:0:0:
323,341,171510,2,0,P|339:273|327:205,1,140
101,35,171804,6,0,B|166:73|166:73|386:77,1,280,8|0,0:0|0:0,0:0:0:0:
165,197,172245,1,0,0:0:0:0:
165,197,172319,1,0,0:0:0:0:
165,197,172392,2,0,B|149:268|149:268|166:354,1,140,8|0,0:0|0:0,0:0:0:0:
343,151,172686,2,0,P|349:231|320:306,1,140
148,72,172981,5,8,0:0:0:0:
425,106,173128,1,0,0:0:0:0:
47,183,173275,2,0,P|41:263|70:338,1,140
94,340,173495,1,0,0:0:0:0:
131,359,173569,2,0,B|225:371|323:306|323:306|205:299,1,280,8|0,0:0|0:0,0:0:0:0:
11,368,174010,1,0,0:0:0:0:
191,154,174157,5,8,0:0:0:0:
222,332,174304,1,0,0:0:0:0:
279,79,174451,1,0,0:0:0:0:
70,272,174598,1,0,0:0:0:0:
392,224,174745,1,8,0:0:0:0:
43,92,174892,1,0,0:0:0:0:
411,51,175039,1,0,0:0:0:0:
11,368,175186,1,0,0:0:0:0:
234,117,175333,6,0,B|247:212|247:212|220:292,1,140,8|0,0:0|0:0,0:0:0:0:
43,92,175627,2,0,B|30:187|30:187|44:228,1,140
411,51,175921,2,0,B|411:269|411:269|361:347,1,280,8|0,0:0|0:0,0:0:0:0:
257,68,176362,1,0,0:0:0:0:
134,321,176509,6,0,B|101:269|101:269|121:165|101:51,1,280,8|0,0:0|0:0,0:0:0:0:
201,2,176950,2,0,B|262:0|262:0|342:68|451:108,1,280
353,208,177391,2,0,P|309:273|242:296,1,140
201,2,177685,6,0,B|205:64|185:102|185:102|181:147|210:212|210:212|229:139,1,280,8|0,0:0|0:0,0:0:0:0:
71,195,178127,2,0,P|106:308|272:363,1,280
490,209,178568,2,0,B|440:208|409:196|409:196|336:211,1,140
183,272,178862,5,8,0:0:0:0:
268,95,179009,1,0,0:0:0:0:
258,374,179156,1,0,0:0:0:0:
268,95,179303,1,0,0:0:0:0:
340,284,179450,1,8,0:0:0:0:
164,39,179597,1,0,0:0:0:0:
481,308,179744,1,0,0:0:0:0:
73,83,179891,1,0,0:0:0:0:
439,28,180038,6,0,B|430:121|430:121|337:288,1,280,12|0,0:0|0:0,0:0:0:0:
258,75,180479,1,0,0:0:0:0:
172,283,180626,2,0,B|82:121|82:121|73:28,1,280,8|0,0:0|0:0,0:0:0:0:
43,250,181067,1,0,0:0:0:0:
43,250,181141,1,0,0:0:0:0:
43,250,181214,2,0,P|92:281|177:282,1,140,8|0,0:0|0:0,0:0:0:0:
258,75,181508,1,0,0:0:0:0:
469,250,181655,1,0,0:0:0:0:
469,250,181729,1,0,0:0:0:0:
469,249,181802,2,0,P|408:284|339:283,1,140,8|0,0:0|0:0,0:0:0:0:
165,143,182096,5,0,0:0:0:0:
168,177,182169,1,0,0:0:0:0:
172,212,182243,1,0,0:0:0:0:
176,247,182316,1,0,0:0:0:0:
180,282,182390,6,0,B|260:311|260:311|334:308,1,140,8|0,0:0|0:0,0:0:0:0:
258,90,182685,1,0,0:0:0:0:
63,201,182832,2,0,B|66:277|66:277|50:347,1,140,0|8,0:0|0:0,0:0:0:0:
217,203,183126,1,0,0:0:0:0:
22,90,183273,2,0,P|145:134|259:81,1,210
258,90,183567,5,8,0:0:0:0:
264,313,183714,1,0,0:0:0:0:
122,19,183861,1,0,0:0:0:0:
327,208,184008,1,0,0:0:0:0:
122,19,184155,1,8,0:0:0:0:
150,372,184302,1,0,0:0:0:0:
258,90,184449,1,0,0:0:0:0:
80,280,184596,1,0,0:0:0:0:
431,46,184743,6,0,P|432:120|400:214,1,140,8|0,0:0|0:0,0:0:0:0:
137,156,185037,2,0,P|119:88|121:18,1,140
352,281,185331,2,0,B|223:313|223:313|69:277,1,280,8|0,0:0|0:0,0:0:0:0:
258,90,185772,1,0,0:0:0:0:
58,370,185919,6,0,B|80:279|80:279|64:198|80:72,1,280,8|0,0:0|0:0,0:0:0:0:
434,93,186360,2,0,B|448:198|432:279|432:279|454:370,1,280
258,90,186801,2,0,B|250:138|250:138|260:187|260:187|246:260,1,140
123,43,187095,6,0,B|258:90|258:90|424:38,1,280,8|0,0:0|0:0,0:0:0:0:
389,341,187537,2,0,B|254:294|254:294|88:346,1,280
418,127,187978,2,0,P|429:201|411:265,1,140
99,262,188272,2,0,P|82:195|94:127,1,140,8|0,0:0|0:0,0:0:0:0:
321,354,188566,2,0,P|247:365|183:347,1,140
185,35,188860,2,0,P|252:18|321:30,1,140,8|0,0:0|0:0,0:0:0:0:
99,262,189154,1,0,0:0:0:0:
418,127,189301,1,0,0:0:0:0:
321,354,189448,5,12,0:0:0:0:
