osu file format v9

[General]
AudioFilename: youwillbeperfect.mp3
AudioLeadIn: 0
PreviewTime: 18767
Countdown: 1
SampleSet: Soft
StackLeniency: 0.7
Mode: 0
LetterboxInBreaks: 1

[Editor]
Bookmarks: 121732
DistanceSpacing: 0.9
BeatDivisor: 4
GridSize: 8

[Metadata]
Title:You Will Be Perfect
Artist:Mike Morasky
Creator:Charles445
Version:Insane
Source:Portal 2
Tags:aperture science valve gaben steam ozzyozrock

[Difficulty]
HPDrainRate:7
CircleSize:4
OverallDifficulty:7
ApproachRate:8
SliderMultiplier:2
SliderTickRate:2

[Events]
//Background and Video events
0,0,"supabg2.jpg"
//Break Periods
//Storyboard Layer 0 (Background)
//Storyboard Layer 1 (Fail)
//Storyboard Layer 2 (Pass)
//Storyboard Layer 3 (Foreground)
//Storyboard Sound Samples
//Background Colour Transformations
3,100,163,162,255

[TimingPoints]
18885.0447070915,428.571428571429,4,2,1,100,1,0
150928,-100,4,2,1,20,0,0
154303,-100,4,2,1,10,0,0
154946,-100,4,2,1,5,0,0

[Colours]
Combo1 : 255,156,9
Combo2 : 2,140,253
Combo3 : 250,34,3

[HitObjects]
304,208,18885,6,0,B|392:256|392:256|496:256,2,200,4|8|0
264,184,19849,1,0
224,160,19956,1,0
184,136,20063,1,0
144,112,20170,2,0,B|100:87|100:87|48:87,1,100,8|0
152,240,20599,5,0
152,240,20706,2,0,B|232:304,1,100
280,304,21027,2,0,B|358:241,1,100,8|0
404,120,21456,5,0
316,40,21670,1,0
196,40,21885,1,8
108,120,22099,1,0
40,264,22313,6,0,B|40:384|168:384,2,200,4|8|0
40,216,23277,1,0
40,168,23385,1,0
40,120,23492,1,0
40,72,23599,2,0,B|48:16|112:16,1,100,8|0
356,192,24027,6,0,B|256:192,1,100
256,192,24456,1,8
400,104,24670,2,0,B|488:192|400:280,1,200,0|8
256,192,25313,2,0,B|152:192,1,100,8|8
104,192,25635,1,8
56,192,25742,6,0,B|32:240|56:288,1,100,4|0
56,192,26170,2,0,B|32:144|56:96,1,100,8|0
56,288,26599,2,0,B|79:336|132:345,1,100
56,96,27027,2,0,B|79:47|132:38,1,100,8|0
296,232,27456,6,0,B|376:296,1,100
296,152,27885,2,0,B|376:88,1,100,8|0
488,192,28313,1,0
360,192,28527,1,0
232,192,28742,1,8
104,192,28956,1,0
104,312,29170,6,0,B|120:368|176:368,1,100,4|0
408,312,29599,2,0,B|392:368|336:368,1,100,8|0
256,312,30027,1,0
256,264,30135,1,0
256,216,30242,1,0
256,168,30349,1,0
256,120,30456,2,0,B|256:16,1,100,8|0
40,104,30885,6,0,B|96:160|96:224|40:280,1,200,0|8
8,192,31527,2,0,B|160:192,1,150,0|8
208,192,31956,1,8
256,192,32063,1,0
304,192,32170,1,8
432,192,32385,1,8
480,192,32492,1,8
464,144,32599,5,4
432,104,32706,1,0
392,72,32813,2,0,B|352:48|296:56,2,100,0|8|0
464,240,33456,5,0
432,280,33563,1,0
392,312,33670,1,0
344,336,33777,1,0
296,352,33885,2,0,B|248:368|192:352,1,100,8|0
112,192,34313,5,0
112,192,34420,1,0
256,192,34635,1,0
256,192,34742,1,8
400,192,34956,1,0
400,192,35063,1,0
400,192,35170,5,0
376,48,35385,1,0
256,120,35599,1,8
136,48,35813,1,0
112,192,36027,6,0,B|112:248|112:248|144:280,1,100,4|0
400,192,36456,2,0,B|400:136|400:136|368:104,1,100,8|0
40,192,36885,1,0
40,240,36992,1,0
144,352,37206,1,0
192,352,37313,2,0,B|296:352,1,100,8|0
456,120,37742,6,0,B|360:72|264:120,1,200,0|8
96,192,38385,2,0,B|192:240|288:192,1,200,0|8
192,144,39027,1,8
192,288,39242,1,8
192,288,39349,1,8
160,320,39456,6,0,B|120:352|120:352|72:352,1,100,4|0
352,320,39885,2,0,B|392:352|392:352|440:352,1,100,8|0
416,80,40313,2,0,B|459:36,2,50
384,112,40635,1,0
352,144,40742,2,0,B|328:184|352:240,1,100,8|0
95,80,41170,6,0,B|52:36,2,50
128,112,41492,1,0
160,144,41599,2,0,B|184:184|160:240,1,100,8|0
256,372,42027,5,0
256,248,42242,1,0
256,132,42456,1,8
256,12,42670,1,0
368,80,42885,6,0,B|456:128,1,100,4|0
456,256,43313,2,0,B|368:303,1,100,8|0
304,192,43742,1,0
256,192,43849,1,0
208,192,43956,1,0
160,192,44063,1,0
112,192,44170,2,0,B|8:192,1,100,8|0
48,96,44599,6,0,B|72:40|152:8|224:48,1,200,0|8
464,96,45242,2,0,B|440:40|360:8|288:48,1,200,0|8
208,136,45885,2,0,B|256:156|304:136,1,100,8|8
352,120,46206,1,8
352,168,46313,6,0,B|352:272,1,100,4|0
160,168,46742,2,0,B|160:272,1,100,8|0
352,344,47170,1,0
304,352,47277,1,0
256,360,47385,1,0
208,352,47492,1,0
160,344,47599,1,8
256,272,47813,1,0
336,56,48027,5,0
336,64,48135,1,0
336,72,48242,1,0
176,56,48456,1,8
176,64,48563,1,0
176,72,48670,1,0
424,168,48885,5,0
312,216,49099,1,0
200,168,49313,1,8
88,216,49527,1,0
88,312,49742,6,0,B|136:272|208:296,1,100,4|0
424,312,50170,2,0,B|376:272|304:296,1,100,8|0
256,192,50599,1,0
256,192,50706,1,0
184,72,50920,1,0
184,72,51027,1,8
328,72,51242,1,0
432,104,51456,6,0,B|480:200|480:200|432:280,1,200,0|8
344,344,52099,2,0,B|296:380|296:380|216:380|216:380|168:344,2,200,0|8|8
388,312,53063,1,8
432,279,53170,6,0,B|480:200|480:200|432:104,1,200,0|8
344,40,53813,2,0,B|256:32|256:32|192:40,1,150,0|8
152,48,54242,1,8
40,192,54456,1,8
152,336,54670,1,8
152,336,54777,1,8
152,336,54885,1,8
304,248,56385,6,0,B|336:304,1,50,8|0
256,304,56599,2,0,B|256:360,1,50,8|0
208,248,56813,2,0,B|176:304,1,50,8|0
256,200,57027,2,0,B|256:144,1,50,8|0
312,112,57242,6,0,B|360:136,1,50,8|0
257,75,57456,2,8,B|256:16,1,50,8|0
200,112,57670,1,8
120,112,57777,2,8,B|136:64,6,33.3333333333333
104,160,58313,6,0,B|88:208|104:264,1,100,4|0
216,352,58742,2,0,B|264:368|320:352,1,100,8|0
408,240,59170,1,0
432,200,59277,1,0
440,152,59385,1,0
432,104,59492,1,0
408,64,59599,1,8
256,32,59813,1,0
208,24,59920,1,0
160,16,60027,6,0,B|96:16|64:48,1,100
128,200,60456,2,0,B|192:200|224:168,1,100,8|0
384,112,60885,2,0,B|320:112|288:144,1,100
360,296,61313,2,0,B|424:296|456:264,1,100,8|0
216,328,61742,6,0,B|152:352|88:352|16:328,2,200,0|8|0
260,316,62706,1,0
304,304,62813,1,0
348,292,62920,1,0
392,280,63027,1,8
512,240,63242,1,0
512,240,63349,1,0
496,192,63456,6,0,B|456:96,1,100
256,48,63885,2,0,B|160:88,1,100,8|0
16,192,64313,2,0,B|56:288,1,100,0|8
256,336,64742,2,0,B|352:296,1,100,8|8
256,160,65170,5,4
256,64,65385,1,0
240,164,65599,1,8
192,81,65813,1,0
228,176,66027,1,0
145,127,66242,1,0
223,192,66456,1,8
127,191,66670,1,0
288,192,66885,5,0
384,192,67099,1,0
283,208,67313,1,8
366,256,67527,1,0
272,219,67742,1,0
320,302,67956,1,0
255,224,68170,1,8
256,320,68385,1,0
216,112,68599,6,0,B|160:88|152:40,1,100,0|0
296,112,69027,2,0,B|352:88|360:40,1,100,8|0
152,40,69456,2,0,B|96:64|88:112,1,100
360,40,69885,2,0,B|416:64|424:112,1,100,8|0
476,232,70313,5,0
388,312,70527,1,0
300,232,70742,1,8
212,312,70956,1,0
36,232,71170,5,0
124,312,71385,1,8
212,232,71599,1,8
300,312,71813,1,8
416,144,72027,6,0,B|416:88|352:72,1,100,4|0
96,144,72456,2,0,B|96:88|160:72,1,100,8|0
256,32,72885,1,0
256,80,72992,1,0
256,128,73099,1,0
256,176,73206,1,0
256,224,73313,1,8
256,376,73527,1,0
256,376,73635,1,0
304,368,73742,6,0,B|352:384|416:352,1,100
208,368,74170,2,0,B|152:384|96:352,1,100,8|0
344,304,74599,2,0,B|393:278|441:294,1,100
168,304,75027,2,0,B|118:278|70:294,1,100,8|0
376,120,75456,6,0,B|472:88,1,100
376,264,75885,2,0,B|472:296,1,100,8|0
304,192,76313,1,0
256,192,76420,1,0
208,192,76527,1,0
160,192,76635,1,0
112,192,76742,1,8
0,192,76956,1,0
0,192,77063,1,0
8,152,77170,6,0,B|24:80|112:56,1,150
160,48,77599,2,0,B|208:32|264:48,1,100,8|0
376,72,78027,2,0,B|464:96|480:168,1,150
488,216,78456,2,0,B|488:320,1,100,8|8
256,192,78885,5,4
145,127,79099,1,0
256,192,79313,1,8
192,81,79527,1,0
256,192,79742,1,0
256,64,79956,1,0
256,192,80170,1,8
319,81,80385,1,0
256,192,80599,5,0
179,325,80813,1,0
256,192,81027,1,8
256,345,81242,1,0
256,192,81456,1,0
332,325,81670,1,0
256,192,81885,1,8
389,268,82099,1,0
384,112,82313,6,0,B|456:40,1,100
128,112,82742,2,0,B|56:40,1,100,8|0
304,96,83170,2,0,B|368:16,1,100,0|0
208,96,83599,2,0,B|144:16,1,100,8|0
384,272,84027,6,0,B|456:344,1,100
128,272,84456,2,0,B|56:344,1,100,8|0
256,348,84885,1,0
256,304,84992,1,8
256,256,85099,1,8
256,136,85313,1,8
200,32,85527,1,8
256,16,85635,1,8
312,32,85742,6,0,B|368:48,3,50,4|0|0|0
400,64,86170,2,0,B|440:104,3,50,8|0|0|0
464,136,86599,2,0,B|480:184,3,50
488,224,87027,2,0,B|488:280,2,50,8|0|0
200,352,87456,6,0,B|144:336,3,50
112,320,87885,2,0,B|72:280,3,50,8|0|0|0
48,248,88313,2,0,B|32:200,3,50
24,160,88742,2,0,B|24:104,2,50,8|0|0
288,224,89170,6,0,B|336:264,3,50
288,160,89599,2,0,B|328:112,3,50,8|0|0|0
224,160,90027,2,0,B|176:120,3,50
224,224,90456,2,0,B|184:272,3,50,8|0|0|0
164,300,90885,6,0,B|256:368|348:300,2,200,0|8|0
128,272,91849,1,8
96,240,91956,1,8
16,152,92170,1,8
96,64,92385,1,8
128,32,92492,1,8
172,32,92599,6,0,B|284:32,1,100,4|0
480,104,93027,2,0,B|380:104,1,100,8|0
172,176,93456,2,0,B|272:176,1,100
476,256,93885,2,0,B|376:256,1,100,8|0
120,368,94313,6,0,B|144:320|200:312,1,100
392,368,94742,2,0,B|368:320|312:312,1,100,8|0
256,208,95170,1,0
256,208,95277,1,0
208,96,95492,1,0
208,96,95599,2,0,B|256:120|304:96,1,100,8|0
432,48,96027,6,0,B|432:152,1,100
432,336,96456,2,0,B|432:232,1,100,8|0
304,192,96885,2,0,B|184:192,2,100,0|0|8
128,192,97527,1,0
128,72,97742,6,0,B|152:24|208:24,1,100
384,72,98170,2,0,B|360:24|302:23,1,100,8|0
256,144,98599,1,0
256,192,98706,1,8
256,240,98813,1,8
208,352,99027,2,0,B|256:376|304:352,1,100,8|8
347,339,99349,1,8
388,321,99456,5,4
427,299,99563,1,0
460,268,99670,1,0
490,235,99777,1,0
508,193,99885,2,0,B|520:169|516:136,3,50,8|0|0|0
511,99,100313,5,0
484,60,100420,1,0
447,33,100527,1,0
403,21,100635,1,0
358,14,100742,2,0,B|327:7|301:12,3,50,8|0|0|0
264,16,101170,6,0,B|216:16,3,50
212,64,101599,2,0,B|212:112,3,50,8|0|0|0
212,160,102027,2,0,B|262:160,3,50
260,208,102456,2,0,B|260:256,3,50,8|0|0|0
239,298,102885,5,0
207,329,102992,1,0
163,341,103099,1,0
118,341,103206,1,0
74,330,103313,2,0,B|47:321|34:295,3,50,8|0|0|0
19,256,103742,5,0
8,212,103849,1,0
3,167,103956,1,0
7,122,104063,1,0
19,78,104170,2,0,B|26:45|49:34,3,50,8|0|0|0
88,56,104599,6,0,B|136:72,3,50
184,72,105027,2,0,B|231:56,3,50,8|0|0|0
280,56,105456,2,0,B|328:72,3,50,0|8|8|0
376,72,105885,2,0,B|423:56,3,50,8|0|8|8
424,104,106313,6,0,B|424:208,1,100,4|0
208,312,106742,2,0,B|104:352,1,100,8|0
88,104,107170,2,0,B|88:208,1,100
304,312,107599,2,0,B|408:352,1,100,8|0
208,128,108027,6,0,B|192:72|136:64,1,100
304,128,108456,2,0,B|320:72|376:64,1,100,8|0
256,200,108885,1,0
256,200,108992,1,0
208,312,109206,1,0
208,312,109313,2,0,B|256:336|304:312,1,100,8|0
424,272,109742,6,0,B|480:272|512:232,1,100
424,112,110170,2,0,B|480:112|512:152,1,100,8|0
424,272,110599,2,0,B|320:304,1,100
424,112,111027,2,0,B|320:80,1,100,8|0
192,192,111456,6,0,B|128:248|56:160|0:192,2,200,0|8|0
224,160,112420,1,8
256,128,112527,1,8
344,32,112742,1,8
432,128,112956,1,8
464,160,113063,1,8
496,192,113170,5,0
256,368,114563,6,8,B|256:335,3,33.3333333333333
256,295,114885,6,0,B|152:231,1,100,4|0
40,119,115313,2,0,B|125:171,1,100,8|0
296,231,115742,2,0,B|192:167,2,100,0|0|8
80,55,116385,2,0,B|165:107,2,100,0|0|0
216,47,117027,5,8
248,47,117135,1,0
280,47,117242,1,0
312,47,117349,1,0
344,47,117456,5,0
376,47,117563,1,0
408,47,117670,1,0
440,47,117777,1,0
472,47,117885,6,0,B|472:247,1,200,8|4
472,360,118527,1,0
368,304,118742,2,0,B|264:304,1,100,8|0
56,248,119170,2,0,B|160:248,1,100
368,176,119599,2,0,B|264:176,1,100,8|0
228,156,119920,6,0,B|188:128|188:128|160:80|160:80,2,100,0|2|2
256,192,120563,12,8,121527
168,304,121742,6,0,B|256:352|256:352|344:304,2,200,4|8|0
128,280,122706,1,0
88,256,122813,1,0
48,232,122920,1,0
8,208,123027,2,0,B|8:104,1,100,8|0
136,24,123456,5,0
152,64,123563,2,0,B|176:104|232:120,1,100
280,119,123885,2,0,B|336:104|360:64,1,100,8|0
480,36,124313,5,0
480,148,124527,1,0
480,260,124742,1,8
480,372,124956,1,0
256,368,125170,6,0,B|152:368|152:368|56:336,2,200,4|8|0
304,360,126135,1,0
344,344,126242,1,0
376,312,126349,1,0
408,280,126456,2,0,B|432:232|432:232|432:184,1,100,8|0
256,52,126885,6,0,B|256:156,2,100,0|0|8
168,176,127527,2,0,B|256:264|344:176,1,200,0|8
256,152,128170,2,0,B|256:252,1,100,8|8
256,296,128492,1,8
296,320,128599,6,0,B|344:344|392:320,1,100,4|0
216,320,129027,2,0,B|168:344|120:320,1,100,8|0
344,264,129456,2,0,B|392:241|401:188,1,100
168,264,129885,2,0,B|120:241|111:188,1,100,8|0
352,80,130313,6,0,B|448:32,1,100
160,80,130742,2,0,B|64:32,1,100,8|0
256,16,131170,1,0
256,136,131385,1,0
256,256,131599,1,8
256,376,131813,1,0
104,316,132027,6,0,B|48:320|31:259,1,100,4|0
104,68,132456,2,0,B|47:68|31:124,1,100,8|0
160,192,132885,1,0
208,192,132992,1,0
256,192,133099,1,0
304,192,133206,1,0
352,192,133313,2,0,B|456:192,1,100,8|0
344,56,133742,6,0,B|304:4|208:4|168:56,1,200,0|8
112,128,134385,2,0,B|112:280,1,150,0|8
120,320,134813,1,8
152,352,134920,1,0
192,368,135027,1,8
320,368,135242,1,8
360,344,135349,1,8
392,312,135456,5,4
424,280,135563,1,0
456,248,135670,2,0,B|480:208|472:152,2,100,0|8|0
352,136,136313,5,0
320,96,136420,1,0
280,64,136527,1,0
232,40,136635,1,0
184,24,136742,2,0,B|136:8|80:24,1,100,8|0
96,192,137170,5,0
96,240,137277,1,0
256,216,137492,1,0
256,264,137599,1,8
416,240,137813,1,0
416,288,137920,1,0
416,336,138027,5,0
256,352,138242,1,0
96,336,138456,1,8
256,352,138670,1,0
328,168,138885,6,0,B|344:112|400:104,1,100,4|0
184,168,139313,2,0,B|168:112|112:104,1,100,8|0
256,40,139742,1,0
256,40,139849,2,0,B|256:152,1,100
256,140,140170,2,0,B|256:248,1,100,8|0
72,304,140599,6,0,B|155:359|155:359|256:360,1,200,0|8
440,304,141242,2,8,B|357:359|357:359|256:360,1,200,0|8
168,184,141885,1,8
312,130,142099,1,8
352,112,142206,1,8
392,88,142313,6,0,B|432:56|488:56,1,100,4|0
392,296,142742,2,0,B|432:328|488:328,1,100,8|0
264,280,143170,1,0
224,264,143277,1,0
184,280,143385,1,0
144,264,143492,1,0
104,248,143599,2,0,B|20:192,1,100,8|0
264,104,144027,5,0
224,120,144135,1,0
184,104,144242,1,0
144,120,144349,1,0
104,136,144456,2,0,B|20:192,1,100,8|0
72,356,144885,5,0
196,356,145099,1,0
312,356,145313,1,8
432,356,145527,1,0
384,192,145742,6,0,B|344:96,1,100,4|0
128,191,146170,2,0,B|166:99,1,100,8|0
256,16,146599,1,0
256,64,146706,1,0
256,112,146813,1,0
256,160,146920,1,0
256,208,147027,2,0,B|256:312,1,100,8|0
40,264,147456,6,0,B|96:352|208:360,1,200,0|8
472,264,148099,2,0,B|416:352|304:360,1,200,0|8
208,288,148742,2,8,B|256:264|304:288,1,100
472,120,149170,6,0,B|416:32|304:24,1,200,0|8
40,120,149813,2,0,B|96:32|208:24,1,200,0|8
304,96,150456,2,8,B|256:120|208:96,1,100
256,192,150885,1,0
256,192,150938,12,0,155170
