osu file format v9

[General]
AudioFilename: youwillbeperfect.mp3
AudioLeadIn: 0
PreviewTime: 18767
Countdown: 1
SampleSet: Soft
StackLeniency: 0.4
Mode: 0
LetterboxInBreaks: 1

[Editor]
Bookmarks: 22303,125160
DistanceSpacing: 1
BeatDivisor: 4
GridSize: 8

[Metadata]
Title:You Will Be Perfect
Artist:Mike Morasky
Creator:Charles445
Version:Easy
Source:Portal 2
Tags:aperture science valve gaben steam ozzyozrock

[Difficulty]
HPDrainRate:1
CircleSize:3
OverallDifficulty:2
ApproachRate:4
SliderMultiplier:1.4
SliderTickRate:2

[Events]
//Background and Video events
0,0,"supabg2.jpg"
//Break Periods
//Storyboard Layer 0 (Background)
//Storyboard Layer 1 (Fail)
//Storyboard Layer 2 (Pass)
//Storyboard Layer 3 (Foreground)
//Storyboard Sound Samples
//Background Colour Transformations
3,100,163,162,255

[TimingPoints]
18885.0447070915,428.571428571429,4,2,1,100,1,0
151196,-100,4,2,1,20,0,0
154303,-100,4,2,1,10,0,0
154946,-100,4,2,1,5,0,0

[Colours]
Combo1 : 255,156,9
Combo2 : 2,140,253
Combo3 : 250,34,3

[HitObjects]
192,328,18885,6,0,B|256:376|320:328,2,140,4|8|0
96,224,20170,1,8
160,96,20599,2,0,B|256:16|352:96,2,210,0|0|8
256,192,22313,6,0,B|256:336,2,140,4|8|0
256,48,23599,1,8
120,96,24027,2,0,B|40:192|120:288,2,210,0|0|8
256,48,25742,6,0,B|400:48,1,140,4|8
288,136,26599,2,0,B|432:136,1,140,0|8
320,224,27456,2,0,B|464:224,2,140,0|8|0
176,224,28742,1,8
72,128,29170,5,4
188,48,29599,1,8
324,48,30027,1,0
440,128,30456,1,8
352,240,30885,2,0,B|256:320|160:240,2,210,0|0|8
324,104,32599,6,0,B|256:76|188:104,1,140,4|8
56,160,33456,1,0
56,304,33885,1,8
188,360,34313,2,0,B|256:388|324:360,2,140,0|8|0
256,240,35599,1,8
392,200,36027,6,0,B|400:120|328:88,1,140,4|8
184,87,36885,2,0,B|112:120|120:200,1,140,0|8
160,336,37742,2,0,B|216:384|296:384|352:336,2,210,0|0|8
256,232,39456,6,0,B|350:129,1,140,4|8
456,40,40313,2,0,B|456:184,1,140,0|8
360,280,41170,2,0,B|265:383,2,140,0|8|0
456,180,42456,1,8
352,88,42885,6,0,B|208:88,1,140,4|8
96,168,43742,2,0,B|236:168,1,140,0|8
352,248,44599,2,0,B|256:328|160:248,2,210,0|0|8
424,128,46313,6,0,B|400:48|320:40,1,140,4|8
186,40,47170,2,0,B|112:48|88:128,1,140,0|8
184,224,48027,1,0
328,224,48456,1,8
320,360,48885,2,0,B|256:312|192:360,1,140,0|8
56,328,49742,6,0,B|56:188,1,140,4|8
56,48,50599,1,0
176,120,51027,1,8
296,48,51456,6,0,B|376:144|296:240,2,210,0|0|8
192,144,53170,2,0,B|112:240|192:336,2,210,0|0|8
296,48,54885,1,0
256,192,56385,12,4,58313
256,232,59599,5,8
192,352,60027,2,0,B|256:400|320:352,2,140,0|8|0
88,256,61313,1,8
128,120,61742,6,0,B|168:56|248:64,1,140,0|8
240,200,62599,2,0,B|280:264|360:256,1,140,0|8
336,120,63456,2,0,B|376:56|456:64,2,140,0|8|0
448,200,64742,1,8
360,304,65170,6,0,B|312:360|231:364,1,140,4|8
309,239,66027,2,0,B|248:280|169:264,1,140,0|8
273,163,66885,2,0,B|203:187|131:151,1,140,0|8
260,84,67742,2,0,B|186:89|126:36,1,140,0|8
40,144,68599,6,0,B|0:256|64:336|176:336,1,280,0|0
256,224,69885,1,8
341,335,70313,2,0,B|448:336|512:256|472:144,1,280
381,40,71599,1,8
240,40,72027,6,0,B|96:40,1,140,4|8
208,128,72885,2,0,B|348:128,1,140,0|8
240,216,73742,2,0,B|96:216,1,140,0|8
208,304,74600,2,0,B|348:304,1,140,0|8
416,184,75456,5,0
328,76,75885,1,8
184,76,76313,1,0
96,184,76742,1,8
192,288,77170,6,0,B|256:336|320:288,2,140,0|8|0
256,168,78456,1,8
320,48,78885,5,4
440,120,79313,1,8
440,264,79742,1,0
320,336,80170,1,8
192,336,80599,5,0
72,264,81027,1,8
72,120,81456,1,0
192,48,81884,1,8
328,72,82313,6,0,B|460:192|328:312,1,280
256,192,83599,1,8
182,310,84027,2,0,B|52:192|184:72,1,280
256,192,85313,1,8
312,320,85742,6,0,B|464:352,1,140,4|8
352,248,86599,2,0,B|504:280,1,140,0|8
424,152,87456,1,0
328,56,87885,1,8
184,56,88313,1,0
88,152,88742,1,8
72,288,89170,6,0,B|104:360|192:352,1,140,0|8
328,352,90027,2,0,B|409:359|441:287,1,140,0|8
320,216,90885,2,0,B|256:168|192:216,2,140,0|8|0
256,344,92170,1,8
112,344,92599,6,0,B|24:344|16:256,1,140,4|8
16,121,93456,2,0,B|24:40|112:40,1,140,0|8
120,176,94313,1,0
216,280,94742,1,8
312,176,95170,1,0
408,280,95599,1,8
504,176,96027,6,0,B|488:80|432:32|368:24|296:40,1,280
256,168,97313,1,8
210,38,97742,2,0,B|144:24|80:32|24:80|8:176,1,280
64,304,99027,1,8
192,360,99456,6,0,B|256:408|320:360,1,140,4|8
384,240,100313,2,0,B|448:191|512:239,2,140,0|8|0
320,360,101599,2,0,B|256:408|192:360,2,140,8|0|8
416,264,102885,5,0
464,136,103313,1,8
368,32,103742,2,0,B|224:32,1,140,0|8
112,104,104599,2,0,B|56:144|56:144|56:224,2,140,0|8|0
228,32,105885,1,8
352,96,106313,6,0,B|480:168,1,140,4|8
336,176,107170,2,0,B|464:248,1,140,0|8
320,256,108027,2,0,B|448:328,2,140,0|8|0
192,192,109313,1,8
72,120,109742,5,0
184,32,110170,1,8
328,32,110599,1,0
440,120,111027,1,8
328,208,111456,5,0
184,208,111885,1,8
192,344,112313,2,0,B|256:296|320:344,1,140,0|8
32,48,114885,5,4
144,136,115313,2,0,B|212:164|280:136,2,140,8|0|8
32,216,116599,2,0,B|4:284|32:352,1,140,0|8
160,288,117456,1,0
304,288,117885,1,8
424,224,118313,6,0,B|480:184|480:184|480:112,1,140,4|8
352,48,119170,2,0,B|296:88|296:88|296:160,1,140,0|8
256,192,120027,12,4,121742
256,200,123027,1,8
128,264,123456,2,0,B|200:328|312:328|384:264,1,280,0|0
488,168,124742,1,8
384,80,125170,6,0,B|328:32|256:32,1,140,4|8
208,160,126027,2,0,B|264:208|336:208,1,140,0|8
448,296,126885,2,0,B|240:296,2,210,0|0|8
408,160,128599,5,4
328,48,129027,1,8
184,48,129456,1,0
104,160,129885,1,8
192,272,130313,2,0,B|256:320|320:272,2,140,0|8|0
256,144,131599,1,8
352,48,132027,6,0,B|424:48|424:48|472:96,2,140,4|8|0
208,48,133313,1,8
80,96,133742,2,0,B|0:192|80:288,2,210,0|0|8
184,192,135456,6,0,B|328:192,1,140,4|8
208,272,136313,2,0,B|352:272,1,140,0|8
232,352,137170,2,0,B|376:352,2,140,0|8|0
88,352,138456,1,8
24,224,138885,6,0,B|-4:156|24:88,1,140,4|8
168,88,139742,2,0,B|139:156|167:224,1,140,0|8
292,156,140599,2,0,B|432:156|432:156|492:196,2,210,0|0|8
168,88,142313,6,0,B|24:88,1,140,4|8
24,224,143170,2,0,B|168:224,1,140,0|8
304,224,144027,2,0,B|376:224|376:224|432:264,2,140,0|8|0
160,224,145313,1,8
64,120,145742,5,4
184,48,146170,1,8
328,48,146599,1,0
448,120,147027,1,8
448,264,147456,6,0,B|424:336|344:368|272:336,2,210,0|0|8
320,200,149170,2,0,B|296:128|216:96|144:128,2,210,0|0|8
194,261,150885,1,0
256,192,151313,12,0,155170
