osu file format v8

[General]
AudioFilename: 01 - Team Fortress 2.mp3
AudioLeadIn: 0
PreviewTime: 8522
Countdown: 0
SampleSet: Normal
StackLeniency: 0.7
Mode: 0
LetterboxInBreaks: 1

[Editor]
DistanceSpacing: 0.800000011920929
BeatDivisor: 4
GridSize: 8

[Metadata]
Title:Team Fortress 2
Artist:Mike Morasky
Creator:Doomsday
Version:Hard
Source:Team Fortress 2
Tags:Valve Gabe Newell Orchestral Western Bassmaster Bass-Chan NoHItter crystalsuicune

[Difficulty]
HPDrainRate:5
CircleSize:4
OverallDifficulty:7
ApproachRate:7
SliderMultiplier:2.4
SliderTickRate:2

[Events]
//Background and Video events
0,0,"wallpaper_team_fortress_2.jpg"
//Break Periods
2,38667,44535
2,59259,64163
//Storyboard Layer 0 (Background)
//Storyboard Layer 1 (Fail)
//Storyboard Layer 2 (Pass)
//Storyboard Layer 3 (Foreground)
//Storyboard Sound Samples
//Background Colour Transformations
3,100,163,162,255

[TimingPoints]
8523,451.127819548872,4,2,0,60,1,0
9431.32672590567,459.066564651875,4,1,0,60,1,0
20448,456.273764258555,4,1,0,60,1,0
22230,444.444444444444,4,1,0,60,1,0
24007,459.066564651875,4,1,0,60,1,0
42639,466.019417475728,4,1,0,60,1,0
46367,461.538461538462,4,1,0,60,1,0
65063,428.571428571429,4,1,0,60,1,0

[Colours]
Combo1 : 0,121,255
Combo2 : 255,0,0

[HitObjects]
224,112,8522,1,4
296,168,8748,1,4
224,232,8974,1,4
296,288,9199,1,4
224,352,9425,6,0,B|136:376|56:312|72:208,1,240,4|8
104,120,10119,2,0,B|192:96|272:160|256:264,1,240,0|0
296,336,10808,1,8
384,344,11038,6,0,B|480:352|528:272|480:176,1,240
408,120,11726,1,8
320,72,11956,1,0
240,24,12185,1,0
304,208,12644,1,8
112,256,13103,6,0,B|144:336|224:368|320:352,1,240,0|8
408,336,13792,2,0,B|376:256|296:224|200:240,1,240
144,168,14481,1,8
149,72,14710,6,0,B|198:8|331:2|389:107,1,240
312,144,15399,1,8
320,240,15628,1,0
328,336,15858,1,0
168,216,16317,1,8
16,96,16776,6,0,B|72:24|168:24|224:104,1,240,4|8
296,160,17464,2,0,B|348:234|444:234|500:162,1,240
432,96,18153,1,8
344,48,18383,6,0,B|224:40|288:224|136:176,1,240
88,240,19071,1,8
144,320,19301,1,0
240,344,19530,1,0
280,160,19989,1,8
96,192,20448,6,0,B|40:272|120:384|264:312,1,240,0|8
302,331,21132,2,0,B|400:368|472:256|416:192,1,240
334,241,21816,1,8
328,144,22044,1,0
344,48,22230,6,0,B|216:48,1,120,4|0
168,120,22674,6,0,B|320:120,1,120,4|0
376,192,23118,6,0,B|208:192,1,120,4|0
136,264,23563,6,0,B|280:264,1,120,4|0
256,352,24007,6,0,B|352:376|432:304|360:192,1,240,4|8
256,352,24695,2,0,B|160:376|80:304|152:192,1,240,4|0
256,272,25384,5,8
194,198,25613,2,0,B|194:110|250:86|338:102|314:222,1,240
256,272,26302,1,8
160,288,26531,1,0
64,298,26761,2,0,B|0:226|0:146|65:70,1,240,0|8
256,32,27679,6,0,B|352:8|432:80|360:192,1,240,4|8
256,32,28368,2,0,B|160:8|80:80|152:192,1,240,4|0
256,112,29056,5,8
194,186,29286,2,0,B|194:274|250:298|338:282|314:162,1,240
256,112,29974,1,8
160,96,30204,1,0
64,86,30433,2,0,B|0:158|0:238|79:317,1,240,0|8
360,360,31352,6,0,B|456:392|536:280|432:184,1,240,4|8
392,280,32040,2,0,B|384:192|280:128|192:240,1,240,4|0
296,264,32729,1,8
208,304,32958,6,0,B|120:304|80:184|176:128,1,240
256,88,33647,1,8
352,96,33876,1,0
440,136,34106,2,0,B|472:216|416:304|304:264,1,240,0|8
52,214,35024,6,0,B|-16:296|64:392|152:360,1,240,4|8
120,280,35713,2,0,B|120:192|232:128|320:240,1,240,4|0
376,264,36401,1,8
448,200,36631,1,0
392,120,36860,5,4
312,64,37090,1,0
328,160,37319,5,4
216,120,37549,1,0
280,216,37778,5,4
136,208,38008,1,0
248,280,38238,5,4
88,320,38467,1,0
416,8,45435,5,4
384,96,45668,1,4
352,184,45901,1,4
312,272,46134,1,4
256,192,46367,6,0,B|240:96|128:72|64:160,1,240,4|8
73,236,47059,2,0,B|128:312|240:288|256:192,1,240
320,128,47751,1,8
400,72,47982,6,0,B|464:192|352:192|416:312,1,240
320,328,48674,1,8
224,320,48905,1,0
128,312,49136,1,0
216,144,49597,1,8
288,320,50059,6,0,B|200:344|104:288|120:160,1,240,0|8
24,224,50751,2,0,B|8:128|64:48|176:48,1,240
240,80,51443,1,8
330,111,51674,6,0,B|434:127|434:279|298:279,1,240
240,240,52367,1,8
240,144,52597,1,0
168,80,52828,1,0
64,240,53290,1,8
232,352,53751,6,0,B|360:392|328:288|440:232,1,240,4|8
421,141,54443,2,0,B|328:96|360:-8|232:32,1,240
256,128,55136,1,8
320,192,55367,1,0
280,280,55597,6,0,B|200:256|144:328,1,120
88,352,56059,2,0,B|64:280|120:224,1,120,8|0
106,145,56520,2,0,B|64:104|88:32,1,120,0|8
167,81,56982,2,0,B|200:128|280:104,1,120,8|0
360,48,57443,6,0,B|432:296,1,240,0|8
368,360,58136,2,0,B|296:112,1,240
208,96,58828,1,8
120,64,59059,1,4
256,8,65063,5,4
181,68,65277,2,0,B|109:68,2,60
256,128,65705,5,4
336,184,65920,2,0,B|398:184,2,60
256,248,66348,5,4
176,304,66563,2,0,B|104:304,2,60
256,360,66991,5,4
336,304,67205,2,0,B|408:304,2,60
256,248,67634,5,4
133,172,67848,1,4
182,36,68062,1,4
325,39,68277,1,4
378,172,68491,1,4
