osu file format v9

[General]
AudioFilename: Portal2-01-Science_is_Fun.mp3
AudioLeadIn: 0
PreviewTime: 4742
Countdown: 1
SampleSet: Normal
StackLeniency: 0.7
Mode: 0
LetterboxInBreaks: 0

[Editor]
Bookmarks: 16529,47170
DistanceSpacing: 1
BeatDivisor: 4
GridSize: 8

[Metadata]
Title:Science is Fun
Artist:Mike Morasky
Creator:jericho2442
Version:Normal
Source:Portal 2
Tags:Tenshi-nyan OST Hikato

[Difficulty]
HPDrainRate:3
CircleSize:3
OverallDifficulty:3
ApproachRate:4
SliderMultiplier:2.09999990463257
SliderTickRate:2

[Events]
//Background and Video events
0,0,"portalBG.jpg"
//Break Periods
2,42663,50573
2,70953,78864
//Storyboard Layer 0 (Background)
//Storyboard Layer 1 (Fail)
//Storyboard Layer 2 (Pass)
//Storyboard Layer 3 (Foreground)
//Storyboard Sound Samples
//Background Colour Transformations
3,100,0,0,0

[TimingPoints]
4742,589.390962671906,4,1,1,100,1,0
68396,-100,4,1,1,70,0,0
68985,-100,4,1,1,50,0,0
69575,-100,4,1,1,30,0,0
70164,-100,4,1,1,10,0,0
80184,-100,4,1,1,100,0,0
99044,-100,4,1,1,100,0,1
117905,-100,4,1,1,100,0,0
137354,-100,4,1,1,90,0,0
137944,-100,4,1,1,80,0,0
138533,-100,4,1,1,70,0,0
139123,-100,4,1,1,60,0,0
139712,-100,4,1,1,50,0,0
140301,-100,4,1,1,40,0,0
140891,-100,4,1,1,30,0,0
141480,-100,4,1,1,20,0,0
142070,-100,4,1,1,10,0,0
142659,-100,4,1,1,5,0,0

[Colours]
Combo1 : 236,77,0
Combo2 : 2,105,232

[HitObjects]
40,192,4742,2,0,B|32:48|176:56,1,209.999990463257,2|0
144,160,5626,1,8
144,264,5920,2,0,B|224:264|243:191|272:264|368:264,1,209.999990463257,2|0
344,160,6804,1,8
344,56,7099,2,0,B|400:56|432:104,2,104.999995231629,2|0|8
136,56,8278,1,2
32,56,8573,2,2,B|32:128|96:152,1,104.999995231629
184,144,9162,1,8
288,144,9457,6,0,B|288:201|244:255|192:264|116:229,1,209.999990463257,2|0
184,336,10341,1,8
288,352,10635,2,0,B|336:312|440:312|488:352,1,209.999990463257,2|0
464,248,11519,1,8
456,144,11814,2,0,B|428:92|456:45,2,104.999995231629,2|0|8
272,48,12993,1,2
272,152,13288,2,2,B|280:224|216:240,1,104.999995231629
120,240,13877,1,8
184,320,14172,6,0,B|224:360|280:368|336:360|376:320,1,209.999990463257,2|8
480,144,15351,2,0,B|440:104|384:96|328:104|288:144,1,209.999990463257,2|0
184,144,16235,1,8
80,144,16529,6,0,B|40:184|32:240|40:296|80:336,1,209.999990463257,2|8
288,336,17708,2,0,B|328:296|336:240|328:184|288:144,1,209.999990463257,2|0
184,144,18592,1,8
80,144,18887,6,0,B|80:88|128:56,2,104.999995231629,2|0|8
128,352,20066,1,2
232,352,20360,2,0,B|280:320|336:352,2,104.999995231629,0|0|8
176,264,21244,6,0,B|168:200|104:200,2,104.999995231629,2|0|8
376,200,22423,1,2
480,200,22718,2,0,B|480:136|416:104,2,104.999995231629,0|0|8
432,288,23602,5,2
336,336,23897,1,0
248,288,24191,2,0,B|128:336|160:264|16:304,1,209.999990463257,8|2
40,192,25075,1,0
80,96,25370,1,8
176,48,25665,1,0
272,96,25960,5,2
312,192,26255,1,0
416,192,26549,2,0,B|416:248|376:296|304:312|259:281,1,209.999990463257,8|2
176,344,27433,1,0
72,344,27728,1,8
120,256,28022,1,0
88,152,28317,6,0,B|48:96|80:56|80:56|128:88|192:40,1,209.999990463257,2|8
360,152,29496,2,0,B|400:96|368:56|368:56|320:88|256:40,1,209.999990463257,2|0
224,144,30380,1,8
224,248,30675,6,0,B|224:304|272:344,1,104.999995231629,2|0
320,248,31264,2,0,B|368:288|424:272,1,104.999995231629,8|0
392,168,31853,2,0,B|344:128|279:147|279:147|279:46,1,209.999990463257,2|0
176,40,32738,1,8
88,96,33032,6,0,B|48:152|48:232|88:296,1,209.999990463257,2|8
296,296,34211,2,0,B|336:240|336:160|296:96,1,209.999990463257,2|0
192,96,35095,1,8
192,200,35390,5,2
400,200,35979,1,8
296,16,36569,2,0,B|296:240,1,209.999990463257,2|0
296,328,37453,1,8
192,328,37747,6,0,B|72:328,1,104.999995231629,2|0
152,248,38337,2,2,B|56:200,1,104.999995231629,8|0
152,160,38926,2,0,B|112:56,1,104.999995231629,2|0
216,32,39516,1,8
320,32,39810,1,0
368,120,40105,6,0,B|472:168,1,104.999995231629,2|0
368,208,40694,2,2,B|256:256,1,104.999995231629,8|0
368,296,41284,2,0,B|472:344,1,104.999995231629,2|0
360,376,41873,1,8
256,376,42168,1,0
160,344,42463,1,4
32,32,51893,5,4
72,240,52482,1,8
256,344,53072,2,0,B|320:344|352:272,2,104.999995231629,2|2|2
256,240,53956,2,2,B|192:240|168:288,1,104.999995231629,8|2
256,96,54840,5,8
448,184,55429,2,0,B|448:120|376:88,2,104.999995231629,2|2|2
344,184,56313,2,2,B|344:248|392:272,1,104.999995231629,8|2
200,184,57197,5,8
48,336,57787,2,0,B|160:336,2,104.999995231629,2|2|2
48,232,58671,2,2,B|160:232,1,104.999995231629,8|2
256,48,59555,5,8
464,48,60144,2,0,B|464:160,2,104.999995231629,2|2|2
360,48,61028,2,2,B|360:160,1,104.999995231629,8|2
312,248,61618,5,0
224,312,61912,2,0,B|168:360|88:360|31:312,1,209.999990463257,8|2
32,208,62797,1,2
64,112,63091,1,2
160,80,63386,1,8
264,80,63681,5,2
360,48,63975,1,0
464,80,64270,2,0,B|488:144|432:184|432:184|432:240|496:256,1,209.999990463257,8|2
416,328,65154,1,2
312,360,65449,1,2
216,328,65743,1,8
112,360,66038,6,0,B|24:280|64:144,1,209.999990463257,2|8
256,96,67217,2,0,B|344:176|304:312,1,209.999990463257,2|8
256,192,68396,12,4,70753
40,56,80184,6,0,B|96:32|146:58,1,104.999995231629,2|0
92,148,80773,2,2,B|148:172|198:146,1,104.999995231629,8|0
296,144,81362,2,0,B|352:120|402:146,1,104.999995231629,2|0
348,236,81952,2,2,B|404:260|454:234,1,104.999995231629,8|0
400,328,82541,6,0,B|296:368|192:328,1,209.999990463257,2|8
120,256,83425,1,0
120,152,83720,2,0,B|120:80|168:48|168:48|208:88|280:48,1,209.999990463257,2|8
360,64,84604,1,0
360,168,84899,6,0,B|360:224|416:256,1,104.999995231629,2|0
368,352,85488,2,2,B|256:352,1,104.999995231629,8|0
160,352,86077,2,0,B|88:360|72:288,1,104.999995231629,2|0
80,200,86667,1,8
216,40,87256,6,0,B|240:160|392:168,1,209.999990463257,2|8
416,256,88140,1,0
328,312,88435,2,0,B|232:368|122:309,1,209.999990463257,2|8
40,40,89614,6,0,B|120:112,1,104.999995231629,2|0
112,216,90203,1,8
304,304,90793,2,2,B|224:232,1,104.999995231629,2|0
232,128,91382,1,8
440,128,91971,6,0,B|320:128,1,104.999995231629,2|0
280,40,92561,1,8
120,176,93150,2,2,B|240:176,1,104.999995231629,2|0
280,264,93740,1,8
88,344,94329,5,2
40,144,94918,1,8
224,40,95508,2,2,B|288:40|304:104,1,104.999995231629,2|0
208,136,96097,1,8
424,344,96686,5,2
472,144,97275,1,8
288,40,97865,2,2,B|224:40|208:104,1,104.999995231629,2|0
304,136,98454,1,8
256,344,99044,6,0,B|320:344|352:288,2,104.999995231629,2|2|8
152,344,99928,1,0
64,280,100223,1,2
64,72,100812,1,8
152,136,101107,1,0
232,72,101402,6,0,B|304:72|328:24,2,104.999995231629,2|2|8
264,176,102286,1,0
368,176,102580,1,2
488,344,103170,1,8
384,344,103464,1,0
280,344,103759,6,0,B|200:344|184:272,1,104.999995231629,2|2
280,240,104349,2,0,B|248:184|176:192,1,104.999995231629,8|0
88,192,104938,1,2
256,64,105527,1,8
360,64,105822,1,0
416,152,106117,6,0,B|416:232|344:248,1,104.999995231629,2|2
312,152,106707,2,0,B|256:184|264:256,1,104.999995231629,8|0
264,344,107296,1,2
56,344,107885,1,8
56,240,108180,1,0
104,152,108474,5,2
280,32,109064,1,8
448,160,109653,1,2
280,288,110242,1,8
80,352,110832,6,2,B|88:288|24:264,1,104.999995231629,2|2
32,160,111421,2,0,B|64:104|24:56,1,104.999995231629,8|0
128,40,112011,1,2
336,40,112600,1,8
256,192,113189,12,4,116726
256,352,117905,6,0,B|117:338|56:224|88:88|192:48,1,419.999980926514,2|2
224,152,119379,1,2
224,256,119673,1,8
312,200,119968,1,0
416,200,120262,2,0,B|416:80|296:48,2,209.999990463257,2|8|4
48,192,122620,6,0,B|40:56|144:24|144:24|240:112|336:32,1,419.999980926514,2|2
440,40,124094,1,2
496,128,124388,1,8
440,216,124683,1,0
384,304,124977,2,0,B|288:352|176:304,2,209.999990463257,2|8|4
40,32,127335,6,0,B|152:80|202:197|146:321|24:360,1,419.999980926514,2|8
256,192,129103,1,0
472,32,129692,2,0,B|360:80|310:197|366:321|488:360,1,419.999980926514,2|8
256,336,131461,1,0
144,160,132050,6,0,B|136:288|0:288,2,209.999990463257,2|0|8
256,336,133818,1,0
376,160,134408,2,0,B|384:32|520:32,2,209.999990463257,2|0|8
256,336,136176,1,0
256,192,136765,12,0,143248
