osu file format v9

[General]
AudioFilename: Portal2-01-Science_is_Fun.mp3
AudioLeadIn: 0
PreviewTime: 4742
Countdown: 1
SampleSet: Normal
StackLeniency: 0.7
Mode: 0
LetterboxInBreaks: 0

[Editor]
Bookmarks: 47170
DistanceSpacing: 1.2
BeatDivisor: 8
GridSize: 8

[Metadata]
Title:Science is Fun
Artist:Mike Morasky
Creator:jericho2442
Version:Insane
Source:Portal 2
Tags:Tenshi-nyan OST Hikato

[Difficulty]
HPDrainRate:7
CircleSize:4
OverallDifficulty:8
ApproachRate:8
SliderMultiplier:3.59999990463257
SliderTickRate:2

[Events]
//Background and Video events
0,0,"portalBG.jpg"
//Break Periods
2,70953,79434
//Storyboard Layer 0 (Background)
//Storyboard Layer 1 (Fail)
//Storyboard Layer 2 (Pass)
//Storyboard Layer 3 (Foreground)
//Storyboard Sound Samples
//Background Colour Transformations
3,100,0,0,0

[TimingPoints]
4742,589.390962671906,4,1,1,100,1,0
68396,-100,4,1,1,70,0,0
68985,-100,4,1,1,50,0,0
69575,-100,4,1,1,30,0,0
70164,-100,4,1,1,10,0,0
80184,-100,4,1,1,100,0,0
99044,-100,4,1,1,100,0,1
117905,-100,4,1,1,100,0,0
137354,-100,4,1,1,90,0,0
137944,-100,4,1,1,80,0,0
138533,-100,4,1,1,70,0,0
139123,-100,4,1,1,60,0,0
139712,-100,4,1,1,50,0,0
140301,-100,4,1,1,40,0,0
140891,-100,4,1,1,30,0,0
141480,-100,4,1,1,20,0,0
142070,-100,4,1,1,10,0,0
142659,-100,4,1,1,5,0,0

[Colours]
Combo1 : 236,77,0
Combo2 : 2,105,232

[HitObjects]
32,32,4742,2,0,B|104:96,1,89.9999976158143,2|0
48,184,5036,2,0,B|48:280,1,89.9999976158143,8|0
152,248,5331,2,0,B|208:352,1,89.9999976158143
264,240,5626,2,0,B|368:288,1,89.9999976158143,8|8
344,168,5920,6,0,B|408:168|408:96,1,89.9999976158143,2|0
304,72,6215,2,0,B|256:40|200:80,1,89.9999976158143,8|0
168,168,6510,2,0,B|104:168|104:96,1,89.9999976158143
32,192,6804,2,0,B|32:304,1,89.9999976158143,8|8
120,352,7099,5,2
216,304,7246,1,0
312,352,7394,2,2,B|352:328|400:352,1,89.9999976158143,8|0
464,264,7688,2,0,B|424:232|440:176,1,89.9999976158143
320,232,7983,2,8,B|240:176,1,89.9999976158143
64,56,8278,6,0,B|144:112,1,89.9999976158143,2|0
64,192,8573,2,2,B|48:248|88:288,1,89.9999976158143,8|0
168,336,8867,2,0,B|208:312|256:336,1,89.9999976158143
472,336,9162,2,8,B|432:312|384:336,1,89.9999976158143
320,248,9457,6,2,B|352:192|352:128|320:72,1,179.999995231629,2|8
224,32,9899,1,0
224,136,10046,2,0,B|224:192|168:208,1,89.9999976158143
72,208,10341,2,8,B|40:248|64:296,1,89.9999976158143
296,352,10635,6,0,B|384:352,1,89.9999976158143,2|0
344,248,10930,2,2,B|432:192,1,89.9999976158143,8|0
328,136,11225,2,0,B|360:40,1,89.9999976158143
248,72,11519,2,8,B|168:16,1,89.9999976158143
80,72,11814,5,2
32,168,11962,1,0
48,272,12109,2,2,B|72:328|136:328,1,89.9999976158143,8|0
208,272,12404,1,0
304,328,12551,1,0
392,272,12698,2,8,B|456:272|456:200,1,89.9999976158143
360,176,12993,6,0,B|304:176|288:104,1,89.9999976158143,2|0
184,128,13288,2,2,B|184:24,1,89.9999976158143,8|0
184,256,13582,2,0,B|184:360,1,89.9999976158143
293,259,13877,2,8,B|304:208|360:208,1,89.9999976158143
368,312,14172,5,2
472,344,14319,1,0
440,240,14466,2,2,B|440:192|512:160|448:112|448:64,1,179.999995231629,8|0
368,144,14908,1,0
256,144,15056,1,8
176,72,15203,1,8
96,144,15351,6,0,B|72:192|96:240,1,89.9999976158143,2|0
200,232,15645,2,2,B|200:328,1,89.9999976158143,8|0
256,184,15940,2,0,B|256:96,1,89.9999976158143
312,232,16235,2,8,B|312:320,1,89.9999976158143
416,320,16529,5,2
464,224,16677,1,0
408,136,16824,2,2,B|296:144|280:24,1,179.999995231629,8|0
176,40,17266,1,0
72,40,17413,2,8,B|72:96|120:128,1,89.9999976158143
112,224,17708,6,0,B|112:328,1,89.9999976158143,2|0
216,352,18003,2,2,B|256:328|304:352,1,89.9999976158143,8|0
400,312,18297,2,0,B|400:216,1,89.9999976158143
296,184,18592,2,8,B|256:208|208:184,1,89.9999976158143
120,128,18887,5,2
200,48,19034,1,0
312,48,19182,1,8
384,128,19329,1,0
384,232,19476,1,0
312,312,19624,1,0
200,312,19771,1,8
120,232,19918,1,8
216,184,20066,6,0,B|272:184|288:128,1,89.9999976158143,2|0
368,64,20360,2,2,B|424:48|472:104,1,89.9999976158143,8|0
504,176,20655,2,0,B|480:224|504:272,1,89.9999976158143
440,352,20950,1,8
336,352,21097,1,8
232,352,21244,5,2
144,288,21392,1,0
144,184,21539,1,8
232,120,21686,1,0
312,192,21834,1,0
392,120,21981,1,0
312,48,22129,1,8
232,120,22276,1,8
128,80,22423,6,0,B|48:32,1,89.9999976158143,2|0
56,144,22718,2,2,B|-16:200,1,89.9999976158143,8|0
88,240,23013,2,0,B|88:336,1,89.9999976158143
184,280,23307,2,8,B|264:344,1,89.9999976158143
360,336,23602,6,0,B|424:336|432:272,1,89.9999976158143,2|0
424,184,23897,2,2,B|424:96,1,89.9999976158143,8|0
320,96,24191,2,0,B|320:192,1,89.9999976158143
208,192,24486,2,0,B|208:96,1,89.9999976158143,8|8
112,144,24781,5,2
24,208,24928,1,0
128,240,25075,1,8
40,304,25223,1,0
144,336,25370,1,0
248,360,25518,1,0
352,336,25665,1,8
456,360,25812,1,8
456,248,25960,6,0,B|472:200|448:160,1,89.9999976158143,2|0
384,72,26254,2,2,B|361:26|316:15,1,89.9999976158143,8|0
208,16,26549,2,0,B|164:26|141:72,1,89.9999976158143,0|0
76,161,26844,2,8,B|52:199|68:247,1,89.9999976158143
152,320,27138,5,2
248,360,27286,1,0
352,360,27433,1,8
448,312,27580,1,0
448,200,27728,1,0
352,240,27875,1,0
248,240,28022,1,8
152,192,28170,1,8
48,216,28317,6,2,B|40:144|82:86|152:88,1,179.999995231629,2|8
240,32,28759,1,0
336,88,28907,2,0,B|384:88|416:136,1,89.9999976158143
328,192,29201,2,8,B|272:280,1,89.9999976158143
168,272,29496,6,0,B|96:208,1,89.9999976158143,2|0
88,320,29791,2,2,B|8:240,1,89.9999976158143,8|0
248,272,30085,2,0,B|320:208,1,89.9999976158143
328,320,30380,2,8,B|408:240,1,89.9999976158143
208,184,30675,6,2,B|200:112|242:54|312:56,1,179.999995231629,2|8
312,160,31117,1,0
416,160,31264,2,0,B|416:208|376:248,1,89.9999976158143
488,232,31559,2,8,B|488:328,1,89.9999976158143
384,352,31853,6,0,B|288:352,1,89.9999976158143,2|0
160,280,32148,2,2,B|248:280,1,89.9999976158143,8|0
112,352,32443,2,0,B|16:352,1,89.9999976158143
24,208,32738,2,8,B|128:208,1,89.9999976158143
224,208,33032,5,2
272,112,33180,1,0
328,24,33327,2,2,B|416:64|424:184,1,179.999995231629,8|0
328,224,33769,1,0
224,208,33916,2,2,B|136:248|128:368,1,179.999995231629,8|2
24,352,34358,6,0,B|24:256,1,89.9999976158143,0|0
32,152,34653,2,8,B|80:72,1,89.9999976158143,0|8
176,32,34948,2,2,B|272:32,1,89.9999976158143,8|0
368,72,35242,1,0
480,72,35390,5,2
424,160,35537,1,0
312,160,35685,2,2,B|256:160|224:80|200:160|120:160,1,179.999995231629,8|0
40,192,36127,1,0
144,224,36274,2,2,B|200:224|232:304|256:224|336:224,1,179.999995231629,8|2
424,224,36716,6,0,B|480:224|488:288,1,89.9999976158143,0|0
408,352,37011,2,0,B|360:320|312:360,1,89.9999976158143,0|8
216,352,37305,2,2,B|168:320|120:360,1,89.9999976158143,8|0
48,280,37600,1,0
48,176,37747,5,2
80,72,37895,1,0
184,32,38042,1,8
288,32,38189,1,0
232,128,38337,1,0
336,128,38484,1,0
424,184,38631,1,8
440,288,38779,1,8
336,248,38926,6,0,B|256:336,1,89.9999976158143,2|0
240,208,39221,2,2,B|160:152,1,89.9999976158143,8|0
160,264,39516,2,0,B|96:336,1,89.9999976158143
80,224,39810,2,8,B|0:168,1,89.9999976158143
24,64,40105,5,2
128,24,40252,1,0
224,64,40400,1,8
328,24,40547,1,0
424,64,40694,1,0
328,120,40842,1,0
424,168,40989,1,8
328,224,41136,1,8
216,224,41284,6,0,B|216:272|256:312,1,89.9999976158143,2|0
152,352,41578,2,2,B|64:352,1,89.9999976158143,8|0
24,248,41873,2,0,B|24:152,1,89.9999976158143
136,160,42168,2,8,B|200:160|200:88,1,89.9999976158143
280,32,42463,6,0,B|376:48|448:136|440:248|352:320,1,359.999990463257,2|8
48,352,43347,1,0
32,32,43641,2,0,B|88:32|104:80,1,89.9999976158143,2|0
112,120,43936,2,0,B|112:168|184:184,1,89.9999976158143,8|0
208,176,44231,1,2
480,352,44525,1,8
112,264,44820,6,0,B|147:341|256:396|356:349|406:257,1,359.999990463257,2|8
256,32,45704,1,0
32,192,45999,2,0,B|88:192|112:136,1,89.9999976158143,2|0
112,104,46294,2,0,B|128:56|184:56,1,89.9999976158143,8|0
215,85,46588,1,2
480,272,46883,1,8
168,352,47178,6,0,B|72:336|0:248|8:136|96:64,1,359.999990463257,2|8
256,352,48062,1,0
480,192,48356,2,0,B|392:192,1,89.9999976158143,2|0
344,192,48651,2,0,B|248:192,1,89.9999976158143,8|0
208,192,48946,1,2
32,32,49241,1,8
352,32,49535,6,0,B|275:67|220:176|267:276|359:326,1,359.999990463257,2|8
72,168,50419,1,0
256,352,50714,2,0,B|160:352,1,89.9999976158143,2|0
120,352,51009,2,0,B|48:288,1,89.9999976158143,8|0
48,248,51303,2,0,B|48:64,1,179.999995231629,2|8
368,32,51893,6,0,B|296:32|296:80|296:80|296:104|296:104|349:128|349:128|296:144|296:144|296:168|296:168|296:221|375:221,1,359.999990463257,2|8
48,120,52777,1,0
256,352,53072,2,0,B|264:296|320:296,1,89.9999976158143,2|0
360,296,53366,2,0,B|456:296,1,89.9999976158143,8|0
450,251,53661,2,0,B|442:195|386:195|386:195|338:195|330:131,1,179.999995231629,2|8
8,96,54250,6,0,B|8:24|56:24|56:24|80:24|80:24|104:77|104:77|120:24|120:24|144:24|144:24|197:24|197:103,1,359.999990463257,2|8
104,352,55134,1,0
432,344,55429,2,0,B|408:320|408:320|352:320,1,89.9999976158143,2|0
307,327,55724,2,0,B|283:351|283:351|227:351,1,89.9999976158143,8|0
191,323,56019,2,0,B|175:283|175:283|175:227|175:227|191:195|191:195|191:147,1,179.999995231629,2|8
480,32,56608,6,0,B|448:88|448:88|384:40|320:88|320:88|280:32|280:32|184:32,1,359.999990463257,2|8
32,192,57492,1,0
191,352,57787,2,0,B|248:352|264:312,1,89.9999976158143,2|0
306,297,58081,2,0,B|338:265|338:265|378:305,1,89.9999976158143,8|0
416,296,58376,2,0,B|480:224|416:128,1,179.999995231629,2|8
32,352,58965,6,0,B|64:296|64:296|128:344|192:296|192:296|232:352|232:352|328:352,1,359.999990463257,2|8
32,192,59850,1,0
320,32,60144,2,0,B|368:32|368:32|400:72,1,89.9999976158143,2|0
392,112,60439,2,0,B|360:152|392:200,1,89.9999976158143,8|0
392,240,60734,2,0,B|312:304|224:240,1,179.999995231629,2|8
32,32,61323,6,0,B|136:32|168:144,2,179.999995231629,2|0|8
32,176,62207,1,0
32,320,62502,2,0,B|136:320|168:208,1,179.999995231629,2|8
240,216,62944,1,0
312,216,63091,1,2
368,264,63239,1,0
368,336,63386,1,8
480,32,63681,6,0,B|472:136|368:160,2,179.999995231629,2|0|8
336,24,64565,1,0
192,32,64859,2,0,B|80:32|64:144,1,179.999995231629,2|8
48,208,65301,1,0
64,280,65449,1,2
112,336,65596,1,0
184,344,65743,1,8
480,352,66038,6,0,B|432:352|416:320|416:320|384:320|384:320|368:352|320:352,2,179.999995231629,2|0|8
400,232,66922,1,0
480,112,67217,2,0,B|432:112|416:144|416:144|384:144|384:144|368:112|320:112,1,179.999995231629,2|8
248,112,67659,1,0
176,104,67806,1,2
112,64,67954,1,0
48,104,68101,1,8
256,192,68396,12,0,70753
32,352,80184,6,0,B|96:352|104:296,1,89.9999976158143,2|0
32,224,80478,2,2,B|40:168|96:160,1,89.9999976158143,8|0
200,160,80773,2,0,B|247:174|255:222,1,89.9999976158143
186,305,81068,2,8,B|199:349|255:349,1,89.9999976158143
368,352,81362,5,2
472,320,81510,1,0
488,216,81657,1,8
472,112,81804,1,0
368,72,81952,1,0
264,112,82099,1,0
248,216,82246,1,8
264,320,82394,1,8
160,352,82541,6,0,B|96:352|72:288,1,89.9999976158143,2|0
24,224,82836,2,2,B|8:176|24:112,1,89.9999976158143,8|0
128,136,83130,2,0,B|144:184|128:248,1,89.9999976158143
240,224,83425,2,8,B|224:176|240:112,1,89.9999976158143
232,24,83720,5,2
320,88,83867,1,0
432,88,84015,2,2,B|432:144|400:168,1,89.9999976158143,8|0
320,240,84309,1,0
376,336,84457,1,0
272,336,84604,2,8,B|232:320|184:336,1,89.9999976158143
32,192,84899,6,0,B|32:104,1,89.9999976158143,2|0
128,144,85193,2,2,B|192:80,1,89.9999976158143,8|0
224,184,85488,2,0,B|192:224|224:280,1,89.9999976158143
312,224,85783,2,8,B|328:168|304:128,1,89.9999976158143
304,32,86077,5,2
408,56,86225,1,0
464,144,86372,1,8
464,248,86519,1,0
408,328,86667,1,0
304,352,86814,1,0
200,328,86962,1,8
144,248,87109,1,8
144,144,87256,5,2
200,56,87404,1,0
304,32,87551,1,8
408,56,87698,1,0
464,144,87846,1,0
464,248,87993,1,0
408,328,88140,1,8
304,352,88288,1,8
200,352,88435,6,0,B|104:352,1,89.9999976158143,2|0
152,256,88730,2,2,B|64:200,1,89.9999976158143,8|0
168,152,89024,2,0,B|128:72,1,89.9999976158143
240,72,89319,1,8
312,152,89466,1,8
240,240,89614,5,2
312,320,89761,1,0
384,240,89908,2,2,B|432:208|432:128|384:72,1,179.999995231629,8|0
288,32,90351,1,0
184,32,90498,1,8
96,88,90645,1,8
48,184,90793,6,0,B|8:216|16:280,1,89.9999976158143,2|0
120,240,91087,2,2,B|120:296|152:328,1,89.9999976158143,8|0
224,248,91382,2,0,B|256:304|312:304,1,89.9999976158143
320,200,91677,2,8,B|376:208|408:176,1,89.9999976158143
256,32,91971,6,0,B|192:32|184:104,1,89.9999976158143,2|0
80,88,92266,2,2,B|24:168|80:264,1,179.999995231629,8|0
160,328,92708,1,0
256,280,92855,1,8
352,328,93003,1,8
440,264,93150,6,0,B|440:208|496:192,1,89.9999976158143,2|0
488,88,93445,2,2,B|432:88|400:128,1,89.9999976158143,8|0
296,120,93740,2,0,B|240:120|216:64,1,89.9999976158143
112,80,94034,2,8,B|112:168,1,89.9999976158143
192,240,94329,5,2
192,344,94476,1,0
288,296,94624,2,2,B|288:192,1,89.9999976158143,8|0
376,136,94918,1,0
376,248,95066,1,0
464,192,95213,2,8,B|464:88,1,89.9999976158143
376,40,95508,6,0,B|320:24|280:48,3,89.9999976158143,2|0|8|0
184,40,96097,2,0,B|128:24|88:48,3,89.9999976158143,2|0|10|8
144,136,96686,5,2
144,248,96834,1,0
232,192,96981,2,2,B|232:296,1,89.9999976158143,8|0
328,240,97276,1,0
328,344,97423,1,0
424,296,97571,2,8,B|424:384,1,89.9999976158143
424,192,97865,6,0,B|424:104,3,89.9999976158143,2|0|8|0
328,48,98455,2,0,B|224:8,3,89.9999976158143,2|0|10|8
136,24,99044,6,0,B|72:24|56:88,1,89.9999976158143,2|0
56,176,99339,2,2,B|32:216|56:272,2,89.9999976158143,8|0|0
152,216,99781,2,0,B|168:160|144:128,2,89.9999976158143,0|8|8
152,328,100223,5,2
259,317,100370,1,0
336,240,100518,1,8
336,136,100665,1,0
384,40,100812,1,0
432,136,100960,1,0
440,240,101107,1,8
392,336,101254,1,8
296,288,101402,6,0,B|272:240|216:240,1,89.9999976158143,2|0
120,240,101696,2,2,B|64:240|48:192,2,89.9999976158143,8|0|0
128,128,102138,2,0,B|88:80|32:96,2,89.9999976158143,0|8|8
240,128,102580,6,0,B|296:128|304:64,1,89.9999976158143,2|0
296,184,102875,2,2,B|352:184|360:120,1,89.9999976158143,8|0
352,240,103170,2,0,B|408:240|416:176,1,89.9999976158143
408,296,103464,2,8,B|464:296|472:232,1,89.9999976158143,0|0
328,312,103759,6,0,B|321:365|265:365,1,89.9999976158143,2|0
272,256,104054,2,2,B|257:309|209:309,1,89.9999976158143,8|0
216,200,104349,2,0,B|209:253|153:253,1,89.9999976158143,0|0
160,144,104643,2,8,B|153:197|97:197,1,89.9999976158143
32,32,104938,5,2
136,32,105085,1,0
232,88,105233,1,8
328,32,105380,1,0
432,32,105527,1,0
384,128,105675,1,0
488,128,105822,2,10,B|488:184|448:216,1,89.9999976158143,0|0
256,208,106117,5,2
256,312,106264,1,0
160,256,106411,1,8
160,144,106559,1,0
256,104,106706,1,0
352,144,106853,1,0
352,256,107001,1,8
256,312,107148,1,8
152,344,107296,6,0,B|88:344|88:272,1,89.9999976158143,2|0
24,136,107590,2,2,B|88:136|88:208,1,89.9999976158143,8|0
240,344,107885,2,0,B|304:344|304:272,1,89.9999976158143
368,136,108180,2,8,B|304:136|304:208,1,89.9999976158143,0|0
200,256,108474,5,2
168,152,108622,1,0
232,64,108769,2,2,B|320:8|432:56,1,179.999995231629,8|0
480,120,109211,1,0
472,224,109358,1,8
448,328,109506,1,8
344,360,109653,6,0,B|288:360|280:304,1,89.9999976158143,2|0
176,312,109948,2,2,B|120:312|104:368,1,89.9999976158143,8|0
120,136,110242,2,0,B|176:136|184:192,1,89.9999976158143
288,192,110537,2,8,B|344:192|360:136,1,89.9999976158143
416,48,110832,5,2
312,24,110979,1,0
208,48,111127,2,2,B|168:80|72:80|32:48,1,179.999995231629,8|0
48,160,111569,1,0
104,248,111716,1,8
48,344,111863,1,8
160,352,112011,6,0,B|216:272,1,89.9999976158143,2|0
288,352,112305,2,2,B|344:272,1,89.9999976158143,8|0
416,352,112600,2,0,B|472:272,1,89.9999976158143,0|0
472,168,112895,2,8,B|416:88,1,89.9999976158143,0|0
312,96,113189,5,2
200,96,113337,1,0
112,32,113484,1,8
112,32,113631,1,8
32,104,113779,1,0
112,176,113926,1,0
32,248,114074,1,8
32,248,114221,1,8
112,320,114368,5,2
192,248,114516,1,0
272,320,114663,1,8
272,320,114810,1,8
352,248,114958,1,0
272,176,115105,1,0
272,72,115252,1,8
272,72,115400,1,8
256,192,115547,12,8,117610
96,192,117905,6,0,B|168:160|232:192|232:192|256:160|256:160|280:192|280:192|344:160|416:192,2,359.999990463257,2|8|2
152,288,119231,1,0
256,264,119378,1,8
360,288,119525,1,0
440,360,119673,2,0,B|472:304|472:232|408:192,1,179.999995231629,2|8
32,32,120262,6,0,B|104:64|168:32|168:32|192:64|192:64|216:32|216:32|280:64|352:32,2,359.999990463257,2|8|2
96,120,121588,1,0
192,168,121736,1,8
288,120,121883,1,0
392,120,122030,2,0,B|392:176|336:240|256:224,1,179.999995231629,2|8
88,344,122620,6,0,B|120:304|120:304|152:344|152:344|224:320|200:232|200:232|232:208|232:208|200:192|200:192|200:136,2,359.999990463257,2|8|2
24,256,123946,1,0
120,216,124093,1,8
24,168,124241,1,0
120,128,124388,2,0,B|104:72|44:62|44:62|112:16,1,179.999995231629,2|8
424,344,124977,6,0,B|392:304|392:304|360:344|360:344|288:320|312:232|312:232|280:208|280:208|312:192|312:192|312:136,2,359.999990463257,2|8|2
488,256,126303,1,0
392,216,126451,1,8
488,168,126598,1,0
392,128,126745,2,0,B|408:72|468:62|468:62|400:16,1,179.999995231629,2|8
192,24,127335,6,0,B|-8:64|24:296,2,359.999990463257,2|8|2
256,192,129103,1,8
320,360,129692,6,0,B|520:320|488:88,2,359.999990463257,2|8|2
256,192,131461,1,8
112,120,132050,6,0,B|147:43|256:-12|356:35|406:127,2,359.999990463257,2|8|2
256,192,133818,1,8
112,264,134408,6,0,B|147:341|256:396|356:349|406:257,2,359.999990463257,2|8|2
256,192,136176,1,8
256,192,136765,12,0,143248
