osu file format v9

[General]
AudioFilename: Portal2-01-Science_is_Fun.mp3
AudioLeadIn: 0
PreviewTime: 4742
Countdown: 1
SampleSet: Normal
StackLeniency: 0.7
Mode: 0
LetterboxInBreaks: 0

[Editor]
DistanceSpacing: 1
BeatDivisor: 4
GridSize: 8

[Metadata]
Title:Science is Fun
Artist:Mike Morasky
Creator:jericho2442
Version:Easy
Source:Portal 2
Tags:Tenshi-nyan OST Hikato

[Difficulty]
HPDrainRate:2
CircleSize:3
OverallDifficulty:3
ApproachRate:3
SliderMultiplier:1.49999990463257
SliderTickRate:2

[Events]
//Background and Video events
0,0,"portalBG.jpg"
//Break Periods
2,42663,50453
2,70953,78744
//Storyboard Layer 0 (Background)
//Storyboard Layer 1 (Fail)
//Storyboard Layer 2 (Pass)
//Storyboard Layer 3 (Foreground)
//Storyboard Sound Samples
//Background Colour Transformations
3,100,0,0,0

[TimingPoints]
4742,589.390962671906,4,1,1,100,1,0
68396,-100,4,1,1,70,0,0
68985,-100,4,1,1,50,0,0
69575,-100,4,1,1,30,0,0
70164,-100,4,1,1,10,0,0
80184,-100,4,1,1,100,0,0
99044,-100,4,1,1,100,0,1
117905,-100,4,1,1,100,0,0
137354,-100,4,1,1,90,0,0
137944,-100,4,1,1,80,0,0
138533,-100,4,1,1,70,0,0
139123,-100,4,1,1,60,0,0
139712,-100,4,1,1,50,0,0
140301,-100,4,1,1,40,0,0
140891,-100,4,1,1,30,0,0
141480,-100,4,1,1,20,0,0
142070,-100,4,1,1,10,0,0
142659,-100,4,1,1,5,0,0

[Colours]
Combo1 : 236,77,0
Combo2 : 2,105,232

[HitObjects]
32,352,4742,6,0,B|128:360|128:112|24:120,1,299.999980926514,2|8
152,32,6510,1,0
272,120,7099,2,0,B|176:112|176:360|280:352,1,299.999980926514,2|8
368,240,8867,1,0
512,192,9457,6,0,B|432:72|255:-3|72:72|0:192,1,599.999961853028,2|2
0,344,12404,1,8
152,352,12993,2,0,B|208:280|153:214,1,149.999990463257,2|8
0,192,14172,6,0,B|80:72|257:-3|440:72|512:192,1,599.999961853028,2|2
512,344,17119,1,8
360,352,17708,2,0,B|288:312|208:352,1,149.999990463257,2|8
64,344,18887,5,2
144,216,19476,1,8
256,120,20066,1,2
368,216,20655,1,8
448,344,21244,5,2
304,296,21834,1,0
160,344,22423,1,2
40,248,23013,1,8
160,160,23602,6,0,B|96:80|208:-24|320:80|256:160,1,299.999980926514,2|8
208,304,25370,1,0
344,240,25960,2,0,B|280:320|392:424|504:320|440:240,1,299.999980926514,2|8
392,96,27728,1,0
248,48,28317,6,0,B|168:-16|64:96|168:208|248:144,2,299.999980926514,2|8|2
392,96,31264,1,8
392,248,31853,2,0,B|384:344|288:336,1,149.999990463257,2|8
144,336,33032,6,0,B|64:336|24:288|24:224|24:224|24:104,1,299.999980926514,2|8
176,104,34800,1,0
328,112,35390,2,0,B|328:227|328:227|328:291|288:339|208:339,1,299.999980926514,2|8
176,192,37158,1,0
176,40,37747,5,2
304,120,38337,1,8
304,272,38926,1,2
176,352,39516,1,8
256,192,40105,12,4,42463
40,32,51893,6,0,B|128:40|128:136,2,149.999990463257,2|8|2
40,184,53661,1,2
40,336,54250,2,0,B|120:296|192:344,3,149.999990463257,2|8|2|2
336,344,56608,6,0,B|336:256|432:256,2,149.999990463257,2|8|2
280,200,58376,1,2
128,200,58965,2,0,B|32:200|32:104,3,149.999990463257,2|8|2|2
168,56,61323,5,2
320,56,61912,2,0,B|320:136|248:192,1,149.999990463257,8|2
256,336,63091,1,2
408,336,63681,2,0,B|432:256|376:256|408:176,3,149.999990463257,2|8|2|2
256,192,66038,5,2
104,192,66628,2,0,B|104:104|160:48|248:8|344:64,1,299.999980926514,8|2
256,192,68396,12,4,70753
32,192,80184,5,6
112,320,80773,1,8
256,368,81362,1,2
400,320,81952,1,8
480,192,82541,5,2
400,64,83130,1,8
256,16,83720,1,2
112,64,84309,1,8
32,192,84899,6,0,B|96:288|224:288|288:192,1,299.999980926514,2|2
432,160,86667,1,8
288,120,87256,6,0,B|224:24|96:24|32:120,1,299.999980926514,2|2
160,192,89024,1,8
256,312,89614,6,0,B|336:360|400:312,1,149.999990463257,2|8
400,168,90793,2,0,B|320:120|256:168,1,149.999990463257,2|8
184,312,91971,6,0,B|104:360|40:312,1,149.999990463257,2|8
40,168,93150,2,0,B|120:120|184:168,1,149.999990463257,2|8
312,240,94329,5,2
456,200,94918,1,8
312,144,95508,1,2
456,104,96097,1,8
312,48,96686,5,2
168,96,97276,1,8
312,144,97866,1,2
168,192,98455,1,8
168,344,99044,6,0,B|232:360|272:304|328:352,2,149.999990463257,4|0|0
80,224,100812,2,0,B|69:158|128:123|85:63,2,149.999990463257,8|2|0
24,360,102580,2,0,B|152:264,1,149.999990463257,0|8
272,200,103759,6,0,B|368:200|376:96,2,149.999990463257,2|0|0
312,56,105527,2,0,B|216:56|208:160,2,149.999990463257,8|2|0
464,56,107296,2,0,B|496:128|472:216,1,149.999990463257,0|8
416,344,108474,5,2
272,296,109064,1,0
128,344,109653,2,0,B|32:344|24:240,1,149.999990463257,0|8
32,104,110832,1,2
176,152,111422,1,0
320,104,112011,2,0,B|416:104|424:208,1,149.999990463257,0|8
256,192,113189,12,4,116726
168,344,117905,6,0,B|80:344|16:272|24:192,1,224.999985694886,4|8
24,128,119084,2,0,B|96:80|168:80|240:128,1,224.999985694886,2|8
288,176,120263,2,0,B|368:112|472:224|368:336|288:272,1,299.999980926514,2|4
256,32,122620,6,0,B|264:120|192:184|80:160,1,224.999985694886,2|8
112,240,123799,2,0,B|112:328|176:352|216:352|216:352|272:352,1,224.999985694886,2|8
344,352,124978,2,0,B|424:416|528:304|424:192|344:256,1,299.999980926514,2|4
52,191,127335,6,0,B|148:191|172:95|180:33|180:33|331:33|331:33|340:95|364:191|474:191,2,599.999961853028,2|2|2
256,352,133229,5,8
184,64,134408,2,0,B|240:144|184:208|120:280|184:368,1,299.999980926514,2|8
256,192,136765,12,0,143248
