osu file format v14

[General]
AudioFilename: billnyethechineseguy.mp3
AudioLeadIn: 0
PreviewTime: 431
Countdown: 1
SampleSet: Soft
StackLeniency: 0.7
Mode: 0
LetterboxInBreaks: 1
WidescreenStoryboard: 0

[Editor]
Bookmarks: 30275
DistanceSpacing: 1
BeatDivisor: 4
GridSize: 4
TimelineZoom: 2.6

[Metadata]
Title:Bill Nye the Science Guy Theme Song (Chinese Intro)
TitleUnicode:Bill Nye the Science Guy Theme Song (Chinese Intro)
Artist:Mike Greene
ArtistUnicode:Mike Greene
Creator:Monstrata
Version:Saccharomyces cerevisiae
Source:Bill Nye the Science Guy
Tags:Disney beer 比尔教科学 Irreversible
BeatmapID:932223
BeatmapSetID:432314

[Difficulty]
HPDrainRate:6
CircleSize:5
OverallDifficulty:8
ApproachRate:8
SliderMultiplier:1.9
SliderTickRate:1

[Events]
//Background and Video events
0,0,"billnyethechineseguy.jpg",0,0
//Break Periods
//Storyboard Layer 0 (Background)
//Storyboard Layer 1 (Fail)
//Storyboard Layer 2 (Pass)
//Storyboard Layer 3 (Foreground)
//Storyboard Sound Samples

[TimingPoints]
431,468.75,4,2,0,40,1,0
2306,-100,4,2,0,45,0,0
21993,-100,4,3,0,40,0,0
22931,-100,4,2,0,45,0,0
28087,-100,4,1,0,50,0,0
28556,-100,4,2,0,45,0,0
30079,-100,4,1,0,30,0,0
30196,-100,4,1,0,20,0,0
30313,-100,4,1,0,10,0,0
30431,-100,4,2,0,5,0,0

[Colours]
Combo1 : 15,237,255
Combo2 : 0,155,78
Combo3 : 255,149,98
Combo4 : 245,90,114

[HitObjects]
76,68,431,6,0,P|110:96|161:104,1,95,2|0,0:0|2:0,0:0:0:0:
246,63,782,2,0,L|232:157,1,95,2|0,0:0|2:0,0:0:0:0:
144,194,1134,1,2,0:0:0:0:
320,119,1368,1,2,3:2:0:0:
167,4,1602,1,2,3:2:0:0:
269,244,1837,1,6,0:0:0:0:
269,244,2306,6,0,B|363:283|363:212|456:255,1,190,2|8,0:0|0:0,0:0:0:0:
320,155,3009,1,0,0:0:0:0:
402,342,3243,2,0,P|475:353|520:329,1,95
458,162,3712,2,0,P|447:235|471:280,1,95,8|0,0:0|0:0,0:0:0:0:
509,73,4181,6,0,P|436:62|391:86,1,95,2|0,0:0|0:0,0:0:0:0:
328,35,4532,1,0,0:0:0:0:
328,35,4649,2,0,P|339:108|315:153,1,95,8|0,0:0|0:0,0:0:0:0:
232,255,5118,1,0,0:0:0:0:
408,185,5352,5,2,0:0:0:0:
157,197,5587,1,8,0:0:0:0:
307,313,5821,5,2,0:0:0:0:
245,162,6056,1,0,0:0:0:0:
131,383,6290,5,2,0:0:0:0:
320,220,6524,1,8,0:0:0:0:
69,232,6759,5,2,0:0:0:0:
307,313,6993,1,0,0:0:0:0:
170,103,7227,5,2,0:0:0:0:
219,348,7462,1,8,0:0:0:0:
333,127,7696,5,2,0:0:0:0:
140,286,7931,2,0,P|121:330|123:377,1,95,2|0,0:0|0:0,0:0:0:0:
219,348,8282,1,0,0:0:0:0:
219,348,8399,2,0,P|237:304|235:257,1,95,8|0,0:0|0:0,0:0:0:0:
170,103,8868,1,2,3:2:0:0:
68,231,9102,1,2,3:2:0:0:
333,127,9337,2,0,L|487:149,1,142.5,8|0,0:0|0:0,0:0:0:0:
436,72,9806,6,0,B|406:136|406:136|415:207,1,142.5,4|0,0:2|0:0,0:0:0:0:
426,301,10274,2,0,P|392:267|347:256,1,95,8|0,0:0|0:0,0:0:0:0:
179,363,10743,1,2,3:2:0:0:
346,354,10977,1,2,3:2:0:0:
166,267,11212,2,0,P|122:283|92:320,1,95,8|0,0:0|0:0,0:0:0:0:
260,311,11681,6,0,L|250:168,1,142.5,2|0,0:0|2:0,0:0:0:0:
246,74,12149,2,0,P|173:115|160:193,1,142.5,8|0,0:0|2:0,0:0:0:0:
64,187,12618,2,0,P|100:218|115:263,1,95,2|0,0:2|2:0,0:0:0:0:
78,350,12970,1,0,0:0:0:0:
78,350,13087,2,0,L|205:339,1,95,8|0,0:0|0:0,0:0:0:0:
434,350,13556,6,0,L|307:339,1,95,2|0,0:0|0:0,0:0:0:0:
311,89,14024,1,8,3:2:0:0:
393,263,14259,1,2,3:2:0:0:
363,9,14493,2,0,P|318:-6|272:2,1,95,2|0,0:0|0:0,0:0:0:0:
201,247,14962,1,8,3:2:0:0:
311,89,15196,1,2,3:2:0:0:
104,240,15431,6,0,P|124:307|184:343,2,142.5,2|2|2,0:0|0:0|0:0,0:0:0:0:
120,74,16368,1,2,3:2:0:0:
8,230,16602,1,2,3:2:0:0:
201,247,16837,2,0,L|314:254,1,95,8|0,0:0|0:0,0:0:0:0:
399,93,17306,6,0,L|347:172,1,95
432,342,17774,2,0,L|389:256,1,95,8|0,0:0|0:0,0:0:0:0:
251,372,18243,2,0,P|297:364|334:334,1,95
263,180,18712,2,0,P|216:188|180:218,1,95,8|0,0:0|0:0,0:0:0:0:
343,234,19181,6,0,P|359:166|325:105,1,142.5,2|0,0:0|2:0,0:0:0:0:
256,46,19649,2,0,B|235:100|235:100|262:179,1,142.5,10|0,0:0|2:0,0:0:0:0:
184,260,20118,2,0,B|205:206|205:206|177:126,1,142.5,2|0,0:0|2:0,0:0:0:0:
92,72,20587,2,0,L|143:219,1,142.5,10|0,0:0|0:0,0:0:0:0:
57,241,21056,6,0,P|124:224|184:260,1,142.5,2|0,0:0|0:0,0:0:0:0:
268,303,21524,2,0,P|335:320|395:284,1,142.5,8|0,0:0|2:0,0:0:0:0:
448,201,21993,6,0,L|349:202,1,95,0|0,3:0|0:0,0:0:0:0:
180,37,22462,2,0,L|228:126,1,95,8|0,3:1|0:0,0:0:0:0:
172,352,22931,5,0,0:0:0:0:
269,201,23165,1,2,0:2:0:0:
269,201,23282,1,2,0:2:0:0:
269,201,23399,1,8,0:0:0:0:
145,228,23634,1,0,0:0:0:0:
296,325,23868,1,0,0:0:0:0:
318,126,24102,5,2,0:0:0:0:
220,276,24337,1,8,0:0:0:0:
448,209,24571,5,2,0:0:0:0:
229,122,24806,1,0,0:0:0:0:
263,355,25040,5,2,0:0:0:0:
318,126,25274,1,8,0:0:0:0:
93,193,25509,5,2,0:0:0:0:
309,278,25743,1,0,0:0:0:0:
276,46,25977,5,2,0:0:0:0:
220,276,26212,1,8,0:0:0:0:
407,130,26446,5,2,0:0:0:0:
140,118,26681,1,0,0:0:0:0:
351,356,26915,5,2,0:0:0:0:
318,126,27149,1,8,0:0:0:0:
87,344,27384,5,2,0:0:0:0:
398,280,27618,1,0,0:0:0:0:
51,114,27852,5,2,0:0:0:0:
220,276,28087,1,0,3:0:0:0:
243,275,28204,1,0,3:0:0:0:
266,269,28321,1,0,3:0:0:0:
287,257,28438,1,0,3:0:0:0:
303,240,28556,6,0,L|290:387,2,142.5,2|2|2,0:0|0:0|0:0,0:0:0:0:
178,13,29493,1,2,3:2:0:0:
232,187,29727,1,2,3:2:0:0:
355,52,29962,2,0,P|303:122|369:176,1,190,10|0,0:0|2:0,0:0:0:0:
