osu file format v12

[General]
AudioFilename: Triangle Beat.mp3
AudioLeadIn: 0
PreviewTime: 54863
Countdown: 0
SampleSet: None
StackLeniency: 0.7
Mode: 1
LetterboxInBreaks: 0
WidescreenStoryboard: 0

[Editor]
DistanceSpacing: 1.2
BeatDivisor: 4
GridSize: 32

[Metadata]
Title:Triangle Beat
TitleUnicode:Triangle Beat
Artist:Mikaze Ai & Shinomiya Natsuki & Kurusu Sho
ArtistUnicode:美風藍&四ノ宮那月&来栖翔
Creator:shikyu
Version:Oni
Source:
Tags:Uta no Prince sama Debut Unit Drama CD Ai & Natsuki & Sho うたの☆プリンスさまっ♪ Debut ユニットドラマCD 藍&那月&翔 Aoi Shouta 蒼井翔太 Taniyama Kisho 谷山紀章 Shimono Hiro 下野紘
BeatmapID:371997
BeatmapSetID:150832

[Difficulty]
HPDrainRate:6
CircleSize:5
OverallDifficulty:6
ApproachRate:5
SliderMultiplier:1.4
SliderTickRate:1

[Events]
//Background and Video events
0,0,"tri.jpg",0,30
//Break Periods
//Storyboard Layer 0 (Background)
//Storyboard Layer 1 (Fail)
//Storyboard Layer 2 (Pass)
//Storyboard Layer 3 (Foreground)
//Storyboard Sound Samples
//Background Colour Transformations
3,100,163,162,255

[TimingPoints]
733,434.782608695652,4,1,0,90,1,0
54646,-100,4,1,0,90,0,1
68559,-100,4,1,0,90,0,0
115515,-100,4,1,0,90,0,1
129428,-100,4,1,0,90,0,0
161167,-100,4,1,0,90,0,1
167689,-100,4,1,0,90,0,0

[HitObjects]
256,192,733,1,8,0:0:0:0:
256,192,1059,1,0,0:0:0:0:
256,192,1385,1,0,0:0:0:0:
256,192,1602,1,8,0:0:0:0:
256,192,1928,1,0,0:0:0:0:
256,192,2254,1,0,0:0:0:0:
256,192,2689,1,0,0:0:0:0:
256,192,2906,1,0,0:0:0:0:
256,192,3341,1,8,0:0:0:0:
256,192,3667,1,8,0:0:0:0:
256,192,3993,1,0,0:0:0:0:
256,192,4428,1,0,0:0:0:0:
256,192,4646,1,8,0:0:0:0:
256,192,4863,1,8,0:0:0:0:
256,192,5080,1,0,0:0:0:0:
256,192,5298,1,0,0:0:0:0:
256,192,5515,1,8,0:0:0:0:
256,192,5732,1,0,0:0:0:0:
256,192,6167,1,0,0:0:0:0:
256,192,6385,1,8,0:0:0:0:
256,192,6602,1,8,0:0:0:0:
256,192,7037,1,8,0:0:0:0:
256,192,7254,1,0,0:0:0:0:
256,192,7472,1,8,0:0:0:0:
256,192,7906,1,8,0:0:0:0:
256,192,8015,1,8,0:0:0:0:
256,192,8124,1,0,0:0:0:0:
256,192,8341,1,8,0:0:0:0:
256,192,8559,1,0,0:0:0:0:
256,192,8776,1,0,0:0:0:0:
256,192,8993,1,8,0:0:0:0:
256,192,9211,12,0,10732,0:0:0:0:
256,192,10950,5,4,0:0:0:0:
256,192,11385,1,0,0:0:0:0:
256,192,11602,1,8,0:0:0:0:
256,192,11819,1,0,0:0:0:0:
256,192,11928,1,0,0:0:0:0:
256,192,12254,1,0,0:0:0:0:
256,192,12363,1,0,0:0:0:0:
256,192,12472,1,8,0:0:0:0:
256,192,12689,1,8,0:0:0:0:
256,192,12906,1,4,0:0:0:0:
256,192,13124,1,0,0:0:0:0:
256,192,13232,1,0,0:0:0:0:
256,192,13341,1,8,0:0:0:0:
256,192,13559,1,0,0:0:0:0:
256,192,13993,1,0,0:0:0:0:
256,192,14211,1,0,0:0:0:0:
256,192,14428,1,8,0:0:0:0:
256,192,14863,1,0,0:0:0:0:
256,192,15080,1,8,0:0:0:0:
256,192,15189,1,0,0:0:0:0:
256,192,15406,1,8,0:0:0:0:
256,192,15732,1,0,0:0:0:0:
256,192,15950,1,8,0:0:0:0:
256,192,16167,1,0,0:0:0:0:
256,192,16276,1,0,0:0:0:0:
256,192,16385,1,0,0:0:0:0:
256,192,16602,1,0,0:0:0:0:
256,192,16819,1,8,0:0:0:0:
256,192,17037,1,0,0:0:0:0:
256,192,17472,1,0,0:0:0:0:
256,192,17689,1,8,0:0:0:0:
256,192,17906,1,8,0:0:0:0:
256,192,18341,1,8,0:0:0:0:
256,192,18559,1,8,0:0:0:0:
256,192,18776,1,0,0:0:0:0:
256,192,18993,1,0,0:0:0:0:
256,192,19211,1,0,0:0:0:0:
256,192,19319,1,0,0:0:0:0:
256,192,19428,1,8,0:0:0:0:
256,192,19646,1,8,0:0:0:0:
256,192,20080,1,0,0:0:0:0:
256,192,20298,1,8,0:0:0:0:
256,192,20624,1,0,0:0:0:0:
256,192,20732,1,8,0:0:0:0:
256,192,20841,1,0,0:0:0:0:
256,192,20950,1,0,0:0:0:0:
256,192,21167,1,0,0:0:0:0:
256,192,21240,1,0,0:0:0:0:
256,192,21312,1,0,0:0:0:0:
256,192,21385,1,0,0:0:0:0:
256,192,21457,1,0,0:0:0:0:
256,192,21530,1,0,0:0:0:0:
256,192,21602,1,0,0:0:0:0:
256,192,21819,1,12,0:0:0:0:
256,192,22146,1,12,0:0:0:0:
256,192,22472,1,12,0:0:0:0:
256,192,23341,1,4,0:0:0:0:
256,192,23559,1,0,0:0:0:0:
256,192,23776,1,0,0:0:0:0:
256,192,23885,1,8,0:0:0:0:
256,192,24102,1,0,0:0:0:0:
256,192,24428,1,0,0:0:0:0:
256,192,24646,1,8,0:0:0:0:
256,192,24863,1,0,0:0:0:0:
256,192,25080,1,0,0:0:0:0:
256,192,25515,1,8,0:0:0:0:
256,192,25732,1,0,0:0:0:0:
256,192,25950,1,0,0:0:0:0:
256,192,26167,1,0,0:0:0:0:
256,192,26385,1,8,0:0:0:0:
256,192,26493,1,8,0:0:0:0:
256,192,26711,1,8,0:0:0:0:
256,192,26819,1,0,0:0:0:0:
256,192,27037,1,0,0:0:0:0:
256,192,27254,1,8,0:0:0:0:
256,192,27472,1,0,0:0:0:0:
256,192,27689,1,0,0:0:0:0:
256,192,28015,1,0,0:0:0:0:
256,192,28341,1,0,0:0:0:0:
256,192,28559,1,8,0:0:0:0:
256,192,28776,1,0,0:0:0:0:
256,192,28993,1,8,0:0:0:0:
256,192,29428,1,8,0:0:0:0:
256,192,29646,1,0,0:0:0:0:
256,192,29863,1,8,0:0:0:0:
256,192,30080,1,8,0:0:0:0:
256,192,30189,1,8,0:0:0:0:
256,192,30298,1,0,0:0:0:0:
256,192,30515,1,0,0:0:0:0:
256,192,30732,1,8,0:0:0:0:
256,192,30950,1,0,0:0:0:0:
256,192,31167,1,0,0:0:0:0:
256,192,31493,1,0,0:0:0:0:
256,192,31819,1,8,0:0:0:0:
256,192,32037,1,0,0:0:0:0:
256,192,32254,1,0,0:0:0:0:
256,192,32363,1,8,0:0:0:0:
256,192,32472,1,8,0:0:0:0:
256,192,32689,1,8,0:0:0:0:
256,192,32906,1,0,0:0:0:0:
256,192,33232,1,0,0:0:0:0:
256,192,33559,1,8,0:0:0:0:
256,192,33776,1,4,0:0:0:0:
256,192,34646,1,4,0:0:0:0:
256,192,34972,1,4,0:0:0:0:
256,192,35298,1,12,0:0:0:0:
256,192,35732,1,0,0:0:0:0:
256,192,35950,1,8,0:0:0:0:
256,192,36167,1,0,0:0:0:0:
256,192,36276,1,8,0:0:0:0:
256,192,36602,1,0,0:0:0:0:
256,192,36819,1,8,0:0:0:0:
256,192,36928,1,0,0:0:0:0:
256,192,37037,1,0,0:0:0:0:
256,192,37146,1,0,0:0:0:0:
256,192,37254,1,0,0:0:0:0:
256,192,37472,1,0,0:0:0:0:
256,192,37689,1,8,0:0:0:0:
256,192,37906,1,0,0:0:0:0:
256,192,38015,1,0,0:0:0:0:
256,192,38232,1,8,0:0:0:0:
256,192,38341,1,0,0:0:0:0:
256,192,38559,1,8,0:0:0:0:
256,192,38776,1,0,0:0:0:0:
256,192,38993,1,0,0:0:0:0:
256,192,39211,1,0,0:0:0:0:
256,192,39428,1,8,0:0:0:0:
256,192,39646,1,0,0:0:0:0:
256,192,39754,1,0,0:0:0:0:
256,192,39972,1,8,0:0:0:0:
256,192,40080,1,0,0:0:0:0:
256,192,40298,1,8,0:0:0:0:
256,192,40515,1,0,0:0:0:0:
256,192,40624,1,0,0:0:0:0:
256,192,40732,1,0,0:0:0:0:
256,192,40950,1,0,0:0:0:0:
256,192,41167,1,8,0:0:0:0:
256,192,41385,1,0,0:0:0:0:
256,192,41602,1,8,0:0:0:0:
256,192,41711,1,0,0:0:0:0:
256,192,41928,1,0,0:0:0:0:
256,192,42037,1,8,0:0:0:0:
256,192,42254,1,8,0:0:0:0:
256,192,42472,1,0,0:0:0:0:
256,192,42689,1,0,0:0:0:0:
256,192,42798,1,0,0:0:0:0:
256,192,42906,1,8,0:0:0:0:
256,192,43124,1,0,0:0:0:0:
256,192,43341,1,8,0:0:0:0:
256,192,43450,1,0,0:0:0:0:
256,192,43559,1,0,0:0:0:0:
256,192,43667,1,8,0:0:0:0:
256,192,43776,1,8,0:0:0:0:
256,192,43885,1,0,0:0:0:0:
256,192,43993,1,0,0:0:0:0:
256,192,44102,1,8,0:0:0:0:
256,192,44211,1,0,0:0:0:0:
256,192,44428,1,0,0:0:0:0:
256,192,44646,1,8,0:0:0:0:
256,192,44863,1,0,0:0:0:0:
256,192,44972,1,0,0:0:0:0:
256,192,45189,1,8,0:0:0:0:
256,192,45298,1,0,0:0:0:0:
256,192,45515,1,8,0:0:0:0:
256,192,45732,1,8,0:0:0:0:
256,192,45841,1,8,0:0:0:0:
256,192,45950,1,0,0:0:0:0:
256,192,46167,1,0,0:0:0:0:
256,192,46385,1,8,0:0:0:0:
256,192,46602,1,0,0:0:0:0:
256,192,46711,1,0,0:0:0:0:
256,192,47037,1,0,0:0:0:0:
256,192,47109,1,0,0:0:0:0:
256,192,47182,1,0,0:0:0:0:
256,192,47254,1,0,0:0:0:0:
256,192,47472,1,0,0:0:0:0:
256,192,47689,1,4,0:0:0:0:
256,192,48015,1,0,0:0:0:0:
256,192,48341,1,0,0:0:0:0:
256,192,48559,1,4,0:0:0:0:
256,192,48885,1,0,0:0:0:0:
256,192,49211,1,0,0:0:0:0:
256,192,49428,1,4,0:0:0:0:
256,192,49863,1,8,0:0:0:0:
256,192,50189,1,0,0:0:0:0:
256,192,50515,1,0,0:0:0:0:
256,192,50732,1,8,0:0:0:0:
256,192,51167,1,4,0:0:0:0:
256,192,51819,1,0,0:0:0:0:
256,192,52472,1,0,0:0:0:0:
256,192,52906,1,8,0:0:0:0:
256,192,53124,1,0,0:0:0:0:
256,192,53341,1,8,0:0:0:0:
256,192,53450,1,8,0:0:0:0:
256,192,53559,1,0,0:0:0:0:
256,192,53667,1,8,0:0:0:0:
256,192,53993,1,8,0:0:0:0:
256,192,54102,1,0,0:0:0:0:
256,192,54211,1,8,0:0:0:0:
256,192,54428,1,8,0:0:0:0:
256,192,54646,1,4,0:0:0:0:
256,192,54863,1,0,0:0:0:0:
256,192,55080,1,8,0:0:0:0:
256,192,55298,1,0,0:0:0:0:
256,192,55406,1,8,0:0:0:0:
256,192,55624,1,8,0:0:0:0:
256,192,55732,1,0,0:0:0:0:
256,192,55950,1,8,0:0:0:0:
256,192,56167,1,0,0:0:0:0:
256,192,56276,1,0,0:0:0:0:
256,192,56385,1,8,0:0:0:0:
256,192,56602,1,0,0:0:0:0:
256,192,56819,1,8,0:0:0:0:
256,192,57037,1,8,0:0:0:0:
256,192,57146,1,0,0:0:0:0:
256,192,57363,1,0,0:0:0:0:
256,192,57472,1,8,0:0:0:0:
256,192,57689,1,8,0:0:0:0:
256,192,57798,1,0,0:0:0:0:
256,192,57906,1,8,0:0:0:0:
256,192,58015,1,8,0:0:0:0:
256,192,58124,1,0,0:0:0:0:
256,192,58341,1,0,0:0:0:0:
256,192,58559,1,8,0:0:0:0:
256,192,58776,1,0,0:0:0:0:
256,192,58993,1,8,0:0:0:0:
256,192,59102,1,8,0:0:0:0:
256,192,59319,1,8,0:0:0:0:
256,192,59428,1,0,0:0:0:0:
256,192,59646,1,0,0:0:0:0:
256,192,59754,1,0,0:0:0:0:
256,192,59863,1,8,0:0:0:0:
256,192,60080,1,0,0:0:0:0:
256,192,60298,1,8,0:0:0:0:
256,192,60515,1,0,0:0:0:0:
256,192,60624,1,8,0:0:0:0:
256,192,60841,1,0,0:0:0:0:
256,192,60950,1,0,0:0:0:0:
256,192,61167,1,8,0:0:0:0:
256,192,61276,1,0,0:0:0:0:
256,192,61385,1,0,0:0:0:0:
256,192,61493,1,0,0:0:0:0:
256,192,61602,1,0,0:0:0:0:
256,192,61819,1,0,0:0:0:0:
256,192,62037,1,8,0:0:0:0:
256,192,62254,1,0,0:0:0:0:
256,192,62363,1,8,0:0:0:0:
256,192,62580,1,8,0:0:0:0:
256,192,62689,1,0,0:0:0:0:
256,192,62906,1,8,0:0:0:0:
256,192,63124,1,0,0:0:0:0:
256,192,63232,1,0,0:0:0:0:
256,192,63341,1,8,0:0:0:0:
256,192,63559,1,0,0:0:0:0:
256,192,63776,1,8,0:0:0:0:
256,192,63993,1,0,0:0:0:0:
256,192,64102,1,8,0:0:0:0:
256,192,64319,1,8,0:0:0:0:
256,192,64428,1,0,0:0:0:0:
256,192,64646,1,8,0:0:0:0:
256,192,64754,1,0,0:0:0:0:
256,192,64863,1,0,0:0:0:0:
256,192,65080,1,4,0:0:0:0:
256,192,65406,1,4,0:0:0:0:
256,192,65732,1,4,0:0:0:0:
256,192,66167,1,0,0:0:0:0:
256,192,66385,1,8,0:0:0:0:
256,192,66602,1,0,0:0:0:0:
256,192,66819,1,4,0:0:0:0:
256,192,67146,1,4,0:0:0:0:
256,192,67472,1,4,0:0:0:0:
256,192,67689,1,0,0:0:0:0:
256,192,67906,1,0,0:0:0:0:
256,192,68015,1,0,0:0:0:0:
256,192,68124,1,8,0:0:0:0:
256,192,68341,1,8,0:0:0:0:
256,192,68450,1,8,0:0:0:0:
256,192,68559,1,0,0:0:0:0:
256,192,69428,1,0,0:0:0:0:
256,192,70298,1,8,0:0:0:0:
256,192,70515,1,0,0:0:0:0:
256,192,70732,1,8,0:0:0:0:
256,192,71059,1,0,0:0:0:0:
256,192,71385,1,0,0:0:0:0:
256,192,71493,1,0,0:0:0:0:
256,192,71602,1,8,0:0:0:0:
256,192,71819,1,0,0:0:0:0:
256,192,72037,1,8,0:0:0:0:
256,192,72363,1,0,0:0:0:0:
256,192,72689,1,0,0:0:0:0:
256,192,72906,1,8,0:0:0:0:
256,192,73232,1,0,0:0:0:0:
256,192,73559,1,0,0:0:0:0:
256,192,73993,1,0,0:0:0:0:
256,192,74211,1,0,0:0:0:0:
256,192,74646,1,8,0:0:0:0:
256,192,74972,1,8,0:0:0:0:
256,192,75298,1,0,0:0:0:0:
256,192,75732,1,0,0:0:0:0:
256,192,75950,1,8,0:0:0:0:
256,192,76167,1,8,0:0:0:0:
256,192,76385,1,0,0:0:0:0:
256,192,76602,1,0,0:0:0:0:
256,192,76819,1,8,0:0:0:0:
256,192,77037,1,0,0:0:0:0:
256,192,77472,1,0,0:0:0:0:
256,192,77689,1,8,0:0:0:0:
256,192,77906,1,8,0:0:0:0:
256,192,78341,1,8,0:0:0:0:
256,192,78559,1,0,0:0:0:0:
256,192,78776,1,8,0:0:0:0:
256,192,78993,1,0,0:0:0:0:
256,192,79211,1,8,0:0:0:0:
256,192,79319,1,8,0:0:0:0:
256,192,79428,1,0,0:0:0:0:
256,192,79646,1,8,0:0:0:0:
256,192,79863,1,0,0:0:0:0:
256,192,80080,1,0,0:0:0:0:
256,192,80298,1,8,0:0:0:0:
256,192,80515,12,0,82037,0:0:0:0:
256,192,82254,5,4,0:0:0:0:
256,192,82689,1,0,0:0:0:0:
256,192,82906,1,8,0:0:0:0:
256,192,83015,1,0,0:0:0:0:
256,192,83232,1,8,0:0:0:0:
256,192,83559,1,0,0:0:0:0:
256,192,83667,1,0,0:0:0:0:
256,192,83776,1,8,0:0:0:0:
256,192,83993,1,8,0:0:0:0:
256,192,84211,1,4,0:0:0:0:
256,192,84428,1,0,0:0:0:0:
256,192,84646,1,8,0:0:0:0:
256,192,84754,1,0,0:0:0:0:
256,192,84972,1,0,0:0:0:0:
256,192,85298,1,0,0:0:0:0:
256,192,85515,1,8,0:0:0:0:
256,192,85732,1,0,0:0:0:0:
256,192,85950,1,0,0:0:0:0:
256,192,86167,1,0,0:0:0:0:
256,192,86276,1,0,0:0:0:0:
256,192,86385,1,8,0:0:0:0:
256,192,86602,1,0,0:0:0:0:
256,192,86819,1,0,0:0:0:0:
256,192,87037,1,0,0:0:0:0:
256,192,87254,1,8,0:0:0:0:
256,192,87363,1,0,0:0:0:0:
256,192,87472,1,8,0:0:0:0:
256,192,87580,1,8,0:0:0:0:
256,192,87906,1,0,0:0:0:0:
256,192,88124,1,8,0:0:0:0:
256,192,88341,1,0,0:0:0:0:
256,192,88450,1,0,0:0:0:0:
256,192,88559,1,8,0:0:0:0:
256,192,88885,1,0,0:0:0:0:
256,192,89211,1,0,0:0:0:0:
256,192,89428,1,8,0:0:0:0:
256,192,89646,1,0,0:0:0:0:
256,192,89754,1,0,0:0:0:0:
256,192,89863,1,8,0:0:0:0:
256,192,90080,1,0,0:0:0:0:
256,192,90298,1,8,0:0:0:0:
256,192,90515,1,0,0:0:0:0:
256,192,90624,1,0,0:0:0:0:
256,192,90732,1,8,0:0:0:0:
256,192,90950,1,0,0:0:0:0:
256,192,91059,1,0,0:0:0:0:
256,192,91385,5,12,0:0:0:0:
256,192,92037,1,0,0:0:0:0:
256,192,92906,1,0,0:0:0:0:
256,192,93776,1,0,0:0:0:0:
256,192,94102,1,8,0:0:0:0:
256,192,94428,1,8,0:0:0:0:
256,192,94646,1,0,0:0:0:0:
256,192,94863,1,0,0:0:0:0:
256,192,95080,1,8,0:0:0:0:
256,192,95515,1,0,0:0:0:0:
256,192,95841,1,8,0:0:0:0:
256,192,96167,1,0,0:0:0:0:
256,192,96602,1,0,0:0:0:0:
256,192,96819,1,8,0:0:0:0:
256,192,96928,1,0,0:0:0:0:
256,192,97146,1,8,0:0:0:0:
256,192,97472,1,0,0:0:0:0:
256,192,97689,1,8,0:0:0:0:
256,192,97798,1,0,0:0:0:0:
256,192,97906,1,0,0:0:0:0:
256,192,98124,1,4,0:0:0:0:
256,192,98341,1,0,0:0:0:0:
256,192,98559,1,8,0:0:0:0:
256,192,98776,1,0,0:0:0:0:
256,192,98885,1,0,0:0:0:0:
256,192,99102,1,8,0:0:0:0:
256,192,99211,1,0,0:0:0:0:
256,192,99428,1,8,0:0:0:0:
256,192,99646,1,8,0:0:0:0:
256,192,99754,1,8,0:0:0:0:
256,192,99863,1,0,0:0:0:0:
256,192,100080,1,0,0:0:0:0:
256,192,100298,1,8,0:0:0:0:
256,192,100515,1,0,0:0:0:0:
256,192,100624,1,8,0:0:0:0:
256,192,100841,1,8,0:0:0:0:
256,192,100950,1,0,0:0:0:0:
256,192,101167,1,8,0:0:0:0:
256,192,101276,1,8,0:0:0:0:
256,192,101385,1,0,0:0:0:0:
256,192,101493,1,0,0:0:0:0:
256,192,101602,1,0,0:0:0:0:
256,192,101819,1,0,0:0:0:0:
256,192,102037,1,8,0:0:0:0:
256,192,102254,1,0,0:0:0:0:
256,192,102472,1,8,0:0:0:0:
256,192,102580,1,8,0:0:0:0:
256,192,102798,1,0,0:0:0:0:
256,192,102906,1,8,0:0:0:0:
256,192,103124,1,8,0:0:0:0:
256,192,103341,1,0,0:0:0:0:
256,192,103559,1,0,0:0:0:0:
256,192,103667,1,0,0:0:0:0:
256,192,103776,1,8,0:0:0:0:
256,192,103993,1,0,0:0:0:0:
256,192,104211,1,0,0:0:0:0:
256,192,104319,1,8,0:0:0:0:
256,192,104428,1,8,0:0:0:0:
256,192,104537,1,0,0:0:0:0:
256,192,104646,1,8,0:0:0:0:
256,192,104754,1,0,0:0:0:0:
256,192,104863,1,8,0:0:0:0:
256,192,105080,1,4,0:0:0:0:
256,192,105298,1,0,0:0:0:0:
256,192,105515,1,8,0:0:0:0:
256,192,105732,1,0,0:0:0:0:
256,192,105841,1,0,0:0:0:0:
256,192,106059,1,8,0:0:0:0:
256,192,106167,1,0,0:0:0:0:
256,192,106385,1,8,0:0:0:0:
256,192,106602,1,8,0:0:0:0:
256,192,106819,1,4,0:0:0:0:
256,192,107254,1,12,0:0:0:0:
256,192,107580,1,0,0:0:0:0:
256,192,107906,1,0,0:0:0:0:
256,192,107979,1,0,0:0:0:0:
256,192,108051,1,0,0:0:0:0:
256,192,108124,1,8,0:0:0:0:
256,192,108341,1,0,0:0:0:0:
256,192,108559,1,4,0:0:0:0:
256,192,108885,1,0,0:0:0:0:
256,192,109211,1,0,0:0:0:0:
256,192,109428,1,4,0:0:0:0:
256,192,109754,1,0,0:0:0:0:
256,192,110080,1,0,0:0:0:0:
256,192,110298,1,4,0:0:0:0:
256,192,110732,1,8,0:0:0:0:
256,192,111059,1,8,0:0:0:0:
256,192,111385,1,0,0:0:0:0:
256,192,111602,1,8,0:0:0:0:
256,192,112037,1,4,0:0:0:0:
256,192,112689,1,0,0:0:0:0:
256,192,113341,1,0,0:0:0:0:
256,192,113559,1,0,0:0:0:0:
256,192,113776,1,8,0:0:0:0:
256,192,113993,1,0,0:0:0:0:
256,192,114211,1,8,0:0:0:0:
256,192,114319,1,8,0:0:0:0:
256,192,114428,1,0,0:0:0:0:
256,192,114537,1,8,0:0:0:0:
256,192,114863,1,8,0:0:0:0:
256,192,114972,1,0,0:0:0:0:
256,192,115080,1,8,0:0:0:0:
256,192,115298,1,8,0:0:0:0:
256,192,115515,1,4,0:0:0:0:
256,192,115732,1,0,0:0:0:0:
256,192,115950,1,8,0:0:0:0:
256,192,116167,1,8,0:0:0:0:
256,192,116276,1,0,0:0:0:0:
256,192,116493,1,0,0:0:0:0:
256,192,116602,1,8,0:0:0:0:
256,192,116819,1,8,0:0:0:0:
256,192,117037,1,8,0:0:0:0:
256,192,117146,1,8,0:0:0:0:
256,192,117254,1,0,0:0:0:0:
256,192,117472,1,0,0:0:0:0:
256,192,117580,1,0,0:0:0:0:
256,192,117689,1,8,0:0:0:0:
256,192,117906,1,0,0:0:0:0:
256,192,118015,1,8,0:0:0:0:
256,192,118232,1,8,0:0:0:0:
256,192,118341,1,0,0:0:0:0:
256,192,118559,1,8,0:0:0:0:
256,192,118667,1,8,0:0:0:0:
256,192,118776,1,0,0:0:0:0:
256,192,118885,1,8,0:0:0:0:
256,192,118993,1,0,0:0:0:0:
256,192,119211,1,0,0:0:0:0:
256,192,119428,1,8,0:0:0:0:
256,192,119646,1,0,0:0:0:0:
256,192,119863,1,8,0:0:0:0:
256,192,119972,1,8,0:0:0:0:
256,192,120189,1,8,0:0:0:0:
256,192,120298,1,0,0:0:0:0:
256,192,120515,1,0,0:0:0:0:
256,192,120624,1,0,0:0:0:0:
256,192,120732,1,8,0:0:0:0:
256,192,120950,1,0,0:0:0:0:
256,192,121167,1,8,0:0:0:0:
256,192,121385,1,0,0:0:0:0:
256,192,121493,1,8,0:0:0:0:
256,192,121711,1,0,0:0:0:0:
256,192,121819,1,0,0:0:0:0:
256,192,122037,1,8,0:0:0:0:
256,192,122146,1,0,0:0:0:0:
256,192,122254,1,0,0:0:0:0:
256,192,122363,1,8,0:0:0:0:
256,192,122472,1,0,0:0:0:0:
256,192,122689,1,0,0:0:0:0:
256,192,122906,1,8,0:0:0:0:
256,192,123124,1,8,0:0:0:0:
256,192,123232,1,0,0:0:0:0:
256,192,123450,1,8,0:0:0:0:
256,192,123559,1,0,0:0:0:0:
256,192,123776,1,8,0:0:0:0:
256,192,123993,1,0,0:0:0:0:
256,192,124102,1,0,0:0:0:0:
256,192,124211,1,8,0:0:0:0:
256,192,124428,1,0,0:0:0:0:
256,192,124646,1,8,0:0:0:0:
256,192,124863,1,0,0:0:0:0:
256,192,124972,1,8,0:0:0:0:
256,192,125189,1,8,0:0:0:0:
256,192,125298,1,0,0:0:0:0:
256,192,125515,1,8,0:0:0:0:
256,192,125624,1,0,0:0:0:0:
256,192,125732,1,0,0:0:0:0:
256,192,125950,5,4,0:0:0:0:
256,192,126276,1,4,0:0:0:0:
256,192,126602,1,4,0:0:0:0:
256,192,127037,1,0,0:0:0:0:
256,192,127254,1,8,0:0:0:0:
256,192,127472,1,8,0:0:0:0:
256,192,127689,1,4,0:0:0:0:
256,192,128015,1,4,0:0:0:0:
256,192,128341,1,4,0:0:0:0:
256,192,128559,1,0,0:0:0:0:
256,192,128776,1,0,0:0:0:0:
256,192,128885,1,0,0:0:0:0:
256,192,128993,1,8,0:0:0:0:
256,192,129211,1,8,0:0:0:0:
256,192,129319,1,8,0:0:0:0:
256,192,129428,5,0,0:0:0:0:
256,192,130298,1,0,0:0:0:0:
256,192,131167,5,0,0:0:0:0:
256,192,131602,1,8,0:0:0:0:
256,192,131928,1,0,0:0:0:0:
256,192,132254,1,0,0:0:0:0:
256,192,132472,1,0,0:0:0:0:
256,192,132689,1,8,0:0:0:0:
256,192,133124,5,0,0:0:0:0:
256,192,133341,1,12,0:0:0:0:
256,192,133667,1,0,0:0:0:0:
256,192,133776,1,0,0:0:0:0:
256,192,134102,1,0,0:0:0:0:
256,192,134428,1,8,0:0:0:0:
256,192,134863,1,0,0:0:0:0:
256,192,135080,1,0,0:0:0:0:
256,192,135298,1,8,0:0:0:0:
256,192,135515,1,0,0:0:0:0:
256,192,135841,1,8,0:0:0:0:
256,192,136167,1,8,0:0:0:0:
256,192,136602,1,0,0:0:0:0:
256,192,136819,1,12,0:0:0:0:
256,192,137037,1,0,0:0:0:0:
256,192,137146,1,8,0:0:0:0:
256,192,137254,1,0,0:0:0:0:
256,192,137580,1,0,0:0:0:0:
256,192,137689,1,8,0:0:0:0:
256,192,137906,1,12,0:0:0:0:
256,192,138341,1,0,0:0:0:0:
256,192,138559,1,8,0:0:0:0:
256,192,138667,1,0,0:0:0:0:
256,192,138776,1,8,0:0:0:0:
256,192,138885,1,8,0:0:0:0:
256,192,138993,1,0,0:0:0:0:
256,192,139319,1,0,0:0:0:0:
256,192,139428,1,0,0:0:0:0:
256,192,139646,1,0,0:0:0:0:
256,192,139863,1,0,0:0:0:0:
256,192,140189,1,8,0:0:0:0:
256,192,140515,1,8,0:0:0:0:
256,192,140732,1,0,0:0:0:0:
256,192,141059,1,8,0:0:0:0:
256,192,141385,1,8,0:0:0:0:
256,192,141602,1,0,0:0:0:0:
256,192,141819,1,0,0:0:0:0:
256,192,141928,1,0,0:0:0:0:
256,192,142037,1,8,0:0:0:0:
256,192,142254,1,8,0:0:0:0:
256,192,142472,1,0,0:0:0:0:
256,192,142689,1,0,0:0:0:0:
256,192,142798,1,8,0:0:0:0:
256,192,142906,1,8,0:0:0:0:
256,192,143124,1,8,0:0:0:0:
256,192,143559,1,8,0:0:0:0:
256,192,143993,1,0,0:0:0:0:
256,192,144428,1,8,0:0:0:0:
256,192,144537,1,0,0:0:0:0:
256,192,144646,1,8,0:0:0:0:
256,192,144863,1,8,0:0:0:0:
256,192,145080,1,0,0:0:0:0:
256,192,145406,1,12,0:0:0:0:
256,192,145732,1,12,0:0:0:0:
256,192,145950,1,0,0:0:0:0:
256,192,146276,1,12,0:0:0:0:
256,192,146602,1,12,0:0:0:0:
256,192,146819,1,0,0:0:0:0:
256,192,147254,1,8,0:0:0:0:
256,192,147580,1,0,0:0:0:0:
256,192,147906,1,0,0:0:0:0:
256,192,148124,1,8,0:0:0:0:
256,192,148341,1,0,0:0:0:0:
256,192,148559,1,4,0:0:0:0:
256,192,148776,1,0,0:0:0:0:
256,192,148885,1,0,0:0:0:0:
256,192,148993,1,8,0:0:0:0:
256,192,149211,1,0,0:0:0:0:
256,192,149319,1,8,0:0:0:0:
256,192,149428,1,8,0:0:0:0:
256,192,149537,1,0,0:0:0:0:
256,192,149646,1,8,0:0:0:0:
256,192,149754,1,0,0:0:0:0:
256,192,149863,1,0,0:0:0:0:
256,192,149972,1,0,0:0:0:0:
256,192,150080,1,8,0:0:0:0:
256,192,150298,1,0,0:0:0:0:
256,192,150515,1,0,0:0:0:0:
256,192,150732,1,8,0:0:0:0:
256,192,150841,1,8,0:0:0:0:
256,192,150950,1,0,0:0:0:0:
256,192,151059,1,8,0:0:0:0:
256,192,151385,1,8,0:0:0:0:
256,192,151493,1,0,0:0:0:0:
256,192,151602,1,8,0:0:0:0:
256,192,151819,1,8,0:0:0:0:
256,192,152146,1,0,0:0:0:0:
256,192,152363,1,8,0:0:0:0:
256,192,152472,1,8,0:0:0:0:
256,192,152798,1,0,0:0:0:0:
256,192,153124,1,8,0:0:0:0:
256,192,153776,1,4,0:0:0:0:
256,192,154646,1,8,0:0:0:0:
256,192,155515,1,0,0:0:0:0:
256,192,156385,1,0,0:0:0:0:
256,192,156819,1,0,0:0:0:0:
256,192,157254,1,8,0:0:0:0:
256,192,158124,1,0,0:0:0:0:
256,192,158993,1,0,0:0:0:0:
256,192,159428,1,8,0:0:0:0:
256,192,159646,1,0,0:0:0:0:
256,192,159754,1,0,0:0:0:0:
256,192,160080,1,8,0:0:0:0:
256,192,160189,1,0,0:0:0:0:
256,192,160298,1,8,0:0:0:0:
256,192,160515,1,8,0:0:0:0:
256,192,160732,1,0,0:0:0:0:
256,192,160950,1,8,0:0:0:0:
256,192,161167,1,4,0:0:0:0:
256,192,161385,1,8,0:0:0:0:
256,192,161493,1,0,0:0:0:0:
256,192,161711,1,0,0:0:0:0:
256,192,161819,1,8,0:0:0:0:
256,192,162037,1,8,0:0:0:0:
256,192,162254,1,0,0:0:0:0:
256,192,162363,1,0,0:0:0:0:
256,192,162472,1,8,0:0:0:0:
256,192,162689,1,0,0:0:0:0:
256,192,162906,1,8,0:0:0:0:
256,192,163124,1,8,0:0:0:0:
256,192,163232,1,0,0:0:0:0:
256,192,163450,1,0,0:0:0:0:
256,192,163559,1,8,0:0:0:0:
256,192,163776,1,0,0:0:0:0:
256,192,163885,1,0,0:0:0:0:
256,192,163993,1,8,0:0:0:0:
256,192,164211,1,4,0:0:0:0:
256,192,164537,1,4,0:0:0:0:
256,192,164863,1,4,0:0:0:0:
256,192,165298,1,0,0:0:0:0:
256,192,165515,1,8,0:0:0:0:
256,192,165732,1,0,0:0:0:0:
256,192,165950,1,4,0:0:0:0:
256,192,166276,1,4,0:0:0:0:
256,192,166602,1,4,0:0:0:0:
256,192,166819,1,0,0:0:0:0:
256,192,167037,1,0,0:0:0:0:
256,192,167146,1,0,0:0:0:0:
256,192,167254,1,8,0:0:0:0:
256,192,167472,1,0,0:0:0:0:
256,192,167689,1,4,0:0:0:0:
256,192,168559,1,4,0:0:0:0:
256,192,169428,1,0,0:0:0:0:
256,192,169863,1,8,0:0:0:0:
256,192,170189,1,0,0:0:0:0:
256,192,170515,1,0,0:0:0:0:
256,192,170624,1,0,0:0:0:0:
256,192,170732,1,8,0:0:0:0:
256,192,170950,1,0,0:0:0:0:
256,192,171167,1,8,0:0:0:0:
256,192,171493,1,0,0:0:0:0:
256,192,171819,1,0,0:0:0:0:
256,192,172037,1,8,0:0:0:0:
256,192,172363,1,0,0:0:0:0:
256,192,172689,1,0,0:0:0:0:
256,192,172906,1,8,0:0:0:0:
256,192,173124,1,0,0:0:0:0:
256,192,173232,1,0,0:0:0:0:
256,192,173341,1,8,0:0:0:0:
256,192,173450,1,8,0:0:0:0:
256,192,173559,1,0,0:0:0:0:
256,192,173667,1,0,0:0:0:0:
256,192,173776,1,8,0:0:0:0:
256,192,173993,1,0,0:0:0:0:
256,192,174102,1,8,0:0:0:0:
256,192,174428,1,4,0:0:0:0:
