osu file format v9

[General]
AudioFilename: Watashi, shuyaku no Akaza Akari desu.mp3
AudioLeadIn: 0
PreviewTime: 55304
Countdown: 0
SampleSet: Soft
StackLeniency: 0.7
Mode: 0
LetterboxInBreaks: 1

[Editor]
DistanceSpacing: 0.8
BeatDivisor: 4
GridSize: 8

[Metadata]
Title:Watashi, shuyaku no Akaza Akari desu
Artist:Mikami Shiori
Creator:eg91022a71w
Version:Easy
Source:Yuru Yuri
Tags:yryr akaza akari

[Difficulty]
HPDrainRate:1
CircleSize:3
OverallDifficulty:1
ApproachRate:3
SliderMultiplier:0.7
SliderTickRate:1

[Events]
//Background and Video events
0,0,"akari.png"
//Break Periods
2,10188,14232
2,81557,92548
2,149768,150653
//Storyboard Layer 0 (Background)
//Storyboard Layer 1 (Fail)
//Storyboard Layer 2 (Pass)
//Storyboard Layer 3 (Foreground)
//Storyboard Sound Samples
//Background Colour Transformations
3,100,163,162,255

[TimingPoints]
515,315.789473684211,4,2,0,81,1,0
55067,-100,4,2,0,81,0,1
83883,-100,4,2,0,81,0,0
123041,-100,4,2,0,81,0,1
152093,-100,4,2,0,81,0,0

[Colours]
Combo1 : 64,0,0
Combo2 : 255,0,128
Combo3 : 140,73,207
Combo4 : 255,128,255

[HitObjects]
192,128,5567,2,0,B|256:88|328:128,1,140,0|2
328,240,6830,2,0,B|259:278|195:238,1,140,0|2
160,136,8093,1,2
256,72,8724,1,2
344,136,9357,2,2,B|392:136|424:112,2,70
384,280,15672,6,0,B|384:192|336:144,1,140,0|2
240,104,16936,2,0,B|240:32,2,70,0|0|2
128,104,18199,6,0,B|128:192|176:240,1,140,0|2
272,280,19463,2,0,B|272:352,4,70,0|0|0|0|4
256,112,21672,6,0,B|296:144|296:176,1,70
296,224,22304,2,0,B|295:247|335:279,2,70
256,192,23251,12,4,25146
128,280,25778,6,0,B|128:192|176:144,1,140,0|2
272,104,27042,2,0,B|272:32,2,70,0|0|2
384,104,28305,6,0,B|384:192|336:240,1,140,0|2
240,280,29567,2,0,B|240:352,4,70
256,112,31778,6,0,B|216:144|216:176,1,70
216,224,32410,2,0,B|216:247|176:279,2,70
256,192,33357,12,4,34620
192,56,35883,6,0,B|256:8|328:56,1,140
368,80,36830,1,2
408,120,37146,2,0,B|456:184|408:256,1,140
384,296,38093,1,2
336,320,38409,2,0,B|272:368|200:320,1,140
160,296,39356,1,2
120,256,39672,2,0,B|72:192|120:120,1,140
152,80,40619,1,2
200,48,40936,6,0,B|264:0|336:48,1,140
376,72,41883,1,2
416,112,42199,2,0,B|464:176|416:248,1,140
392,288,43146,1,2
256,192,43462,12,4,45357
104,112,45988,6,0,B|152:64|208:64,1,105
248,64,46778,2,2,B|288:64,1,35
336,72,47251,2,0,B|384:120|384:176,1,105
384,216,48041,2,2,B|384:256,1,35
336,288,48515,6,0,B|272:336|208:288,3,140
256,192,51041,12,4,54830
360,128,56093,6,0,B|448:144|464:224,1,140,0|2
360,264,57357,1,2
280,264,57830,2,2,B|232:264,1,35
136,264,58620,6,0,B|48:248|32:168,1,140,0|2
136,128,59884,1,2
216,128,60357,2,2,B|264:128,1,35
256,240,61146,6,0,B|328:272|392:240,1,140,0|2
328,152,62409,2,0,B|256:120|192:152,1,140,0|2
256,192,63672,12,4,64936
360,128,66199,6,0,B|448:144|464:224,1,140,0|2
360,264,67463,1,2
280,264,67936,2,2,B|232:264,1,35
136,264,68726,6,0,B|48:248|32:168,1,140,0|2
120,168,69830,2,0,B|160:112|216:112,1,105
264,112,70620,2,0,B|312:112|328:80,1,70
360,40,71251,6,0,B|392:16|472:24|512:104|472:168|432:208|400:208,2,280,2|0|2
248,40,74409,1,2
248,152,75041,1,2
360,152,75672,1,2
472,152,76304,6,2,B|472:224,1,70
472,280,76936,2,2,B|400:280,1,70
344,280,77567,2,2,B|344:208,1,70
344,152,78199,2,2,B|416:152,1,70
256,192,78830,12,6,81357
416,136,93988,6,0,B|368:96|352:96,2,70
360,232,95251,2,0,B|408:272|424:272,2,70
288,152,96515,2,0,B|256:128|224:152,1,70
176,176,97146,2,0,B|144:200|112:176,1,70
72,136,97778,2,0,B|32:88|32:72,2,70
96,248,99041,6,0,B|144:288|160:288,2,70
152,152,100304,2,0,B|104:112|88:112,2,70
224,232,101568,2,0,B|256:256|288:232,1,70
336,208,102199,2,0,B|368:184|400:208,1,70
440,248,102831,2,0,B|480:296|480:312,2,70
416,136,104093,6,0,B|368:96|352:96,2,70
360,232,105356,2,0,B|408:272|424:272,2,70
288,152,106620,2,0,B|256:128|224:152,1,70
176,176,107251,2,0,B|144:200|112:176,1,70
72,136,107883,2,0,B|32:88|32:72,2,70
64,248,109146,6,0,B|136:216|200:248,1,140
312,248,110409,2,0,B|384:216|448:248,1,140
448,136,111672,2,0,B|376:168|312:136,1,140
200,136,112935,2,0,B|128:168|64:136,2,140
256,232,114830,5,4
256,120,115462,1,0
256,232,116093,1,4
256,120,116725,1,0
256,120,117041,1,0
256,120,117357,1,0
256,120,117672,1,0
256,120,117988,1,4
256,192,121778,12,4,123041
360,128,124304,6,0,B|448:144|464:224,1,140,0|2
360,264,125568,1,2
280,264,126041,2,2,B|232:264,1,35
136,264,126831,6,0,B|48:248|32:168,1,140,0|2
136,128,128093,1,2
216,128,128568,2,2,B|264:128,1,35
256,240,129357,6,0,B|328:272|392:240,1,140,0|2
328,152,130620,2,0,B|256:120|192:152,1,140,0|2
256,192,131883,12,4,133778
360,128,134410,6,0,B|448:144|464:224,1,140,0|2
360,264,135672,1,2
280,264,136147,2,2,B|232:264,1,35
136,264,136937,6,0,B|48:248|32:168,1,140,0|2
120,168,138041,2,0,B|160:112|216:112,1,105
264,112,138831,2,0,B|312:112|328:80,1,70
360,40,139462,6,0,B|392:16|472:24|512:104|472:168|432:208|400:208,2,280,2|0|2
248,40,142620,1,2
248,152,143252,1,2
360,152,143883,1,2
472,152,144515,6,2,B|472:224,1,70
472,280,145147,2,2,B|400:280,1,70
344,280,145778,2,2,B|344:208,1,70
344,152,146410,2,2,B|416:152,1,70
256,192,147041,12,6,149568
320,128,152093,6,0,B|256:88|184:128,1,140,0|2
184,240,153356,2,0,B|253:278|317:238,1,140,0|2
352,136,154619,1,2
256,72,155250,1,2
168,136,155883,2,2,B|120:136|88:112,2,70
168,248,157146,2,2,B|120:248|88:224,2,70
256,192,158093,12,4,161251
