osu file format v9

[General]
AudioFilename: Onna to Onna no Yuri-Game.mp3
AudioLeadIn: 0
PreviewTime: 85797
Countdown: 0
SampleSet: Normal
StackLeniency: 0.7
Mode: 0
LetterboxInBreaks: 0

[Editor]
Bookmarks: 60341
DistanceSpacing: 1.2
BeatDivisor: 2
GridSize: 4

[Metadata]
Title:Onna to Onna no Yuri-Game
Artist:Mikami Shiori & Ookubo Rumi
Creator:eg91022a71w
Version:Normal
Source:Yuru Yuri
Tags:Yoshikawa Chinatsu Akaza Akari yryr

[Difficulty]
HPDrainRate:3
CircleSize:3
OverallDifficulty:3
ApproachRate:5
SliderMultiplier:1
SliderTickRate:2

[Events]
//Background and Video events
0,0,"bg.jpg"
//Break Periods
2,47470,52355
2,81041,82540
//Storyboard Layer 0 (Background)
//Storyboard Layer 1 (Fail)
//Storyboard Layer 2 (Pass)
//Storyboard Layer 3 (Foreground)
//Storyboard Sound Samples
//Background Colour Transformations
3,100,163,162,255

[TimingPoints]
528,342.857142857143,4,1,1,70,1,0
44413,571.428571428571,4,1,1,70,1,0
51270,285.714285714286,4,1,1,70,1,0
52412,-133.333333333333,4,1,1,70,0,0
71698,-100,4,1,1,70,0,0
83740,342.857142857143,4,1,1,70,1,0
86482,-100,4,1,1,70,0,1
110825,-100,4,1,1,70,0,0
112540,-133.333333333333,4,1,1,70,0,1
118025,-100,4,1,1,70,0,1
120768,-100,4,1,1,70,0,0

[Colours]
Combo1 : 255,0,255
Combo2 : 215,6,80
Combo3 : 255,140,198
Combo4 : 255,0,0

[HitObjects]
256,124,6013,2,0,B|328:108|404:124,1,150
404,124,6699,1,0
332,192,7042,1,8
256,260,7385,2,0,B|184:276|108:260,1,150
107,260,8071,1,0
180,192,8414,1,8
256,128,8756,5,2
332,192,9099,1,2
256,260,9442,1,2
180,192,9785,1,2
180,92,10128,1,0
256,28,10470,1,0
332,92,10813,2,0,B|356:76|364:48,2,50
392,188,11499,6,0,B|392:236|416:284,1,100,6|0
316,288,12185,2,0,B|316:336,2,50,2|0|0
256,208,12870,2,0,B|256:108,2,100,2|0|2
256,208,13728,1,0
256,208,13899,1,0
180,272,14242,6,0,B|144:236|144:180,1,100,6|0
52,220,14928,2,0,B|20:164,1,50,2|0
36,128,15270,2,0,B|68:88,1,50
112,68,15613,2,0,B|160:64,4,50,2|0|0|0|0
128,168,16642,1,0
220,128,16985,6,0,B|264:104|316:108,1,100,6|0
312,208,17670,2,0,B|368:208,2,50,2|0|0
216,240,18356,2,0,B|196:288|144:304,2,100,2|0|2
216,240,19213,1,0
216,240,19385,1,0
128,192,19728,5,2
64,268,20070,1,0
112,356,20413,1,2
212,356,20756,1,0
256,268,21099,2,0,B|256:196,4,50,2|0|0|0|0
444,332,22470,6,0,B|484:296|480:244,1,100,4|0
380,256,23156,1,0
420,164,23499,1,0
340,104,23842,2,0,B|372:64|428:64,2,100
300,196,24870,1,0
220,136,25213,6,0,B|220:80,2,50
120,124,25899,2,0,B|72:148|52:200,1,100
152,212,26585,2,0,B|200:236|216:288,2,100
220,140,27613,6,0,B|244:188|296:204,2,100,0|4|0
316,108,28642,1,0
416,116,28985,1,0
460,204,29328,2,0,B|404:220|396:272,1,100
296,288,30013,2,0,B|296:336,2,50
200,312,30699,5,0
112,192,31213,1,0
112,192,31385,2,0,B|192:132|312:132,1,200
299,132,32242,2,0,B|300:68,2,50
400,136,32928,1,2
400,136,33099,1,2
364,228,33442,6,0,B|412:248|428:300,1,100,4|0
328,288,34128,2,0,B|308:336|252:344,1,100
152,340,34813,2,0,B|84:296|64:248|80:168,1,200
144,92,35842,1,0
212,164,36185,5,0
284,96,36528,1,0
384,104,36870,1,0
452,180,37213,1,0
380,248,37556,2,0,B|336:224|284:220,1,100
184,224,38242,1,0
156,320,38585,6,0,B|116:352|60:348,1,100,0|4
80,248,39270,1,0
84,148,39613,2,0,B|56:96,4,50
172,196,40642,2,0,B|216:164|212:108,2,100
256,252,41670,6,0,B|320:168|424:144,2,200
348,292,43385,2,0,B|368:264|404:260,2,50
256,336,44070,1,0
256,192,44413,12,0,47270
476,52,53555,6,0,B|443:45|403:64,1,74.9999977648259
332,92,54127,2,0,B|306:113|262:117,1,74.9999977648259
188,104,54698,2,0,B|164:60,2,37.4999988824129
148,168,55270,2,0,B|104:156,2,37.4999988824129
216,196,55841,5,4
200,268,56127,1,0
240,332,56412,2,0,B|268:364|308:364,1,74.9999977648259
308,288,56984,2,0,B|308:240,2,37.4999988824129
380,304,57555,2,0,B|420:308|448:276,1,74.9999977648259
388,232,58127,6,0,B|392:192|364:164,1,74.9999977648259,4|0
292,140,58698,2,0,B|292:100,2,37.4999988824129
220,168,59270,2,0,B|192:196|152:188,2,74.9999977648259
220,132,59984,2,0,B|220:92,2,37.4999988824129
216,244,60698,5,0
236,316,60984,2,0,B|272:344|312:324,1,74.9999977648259
372,288,61555,2,0,B|352:252|316:236,2,74.9999977648259
436,328,62412,1,4
476,264,62698,6,0,B|485:225|463:193,1,74.9999977648259,0|0
392,164,63270,2,0,B|348:152|328:124,1,74.9999977648259
292,60,63841,2,0,B|292:8,2,37.4999988824129
220,84,64412,2,0,B|184:104|148:104,1,74.9999977648259
112,100,64841,1,0
196,176,65270,5,0
124,196,65555,2,0,B|84:204|60:236,1,74.9999977648259
68,308,66127,2,0,B|44:336,2,37.4999988824129
140,292,66698,2,0,B|172:272|216:272,1,74.9999977648259
268,324,67270,6,0,B|304:348|340:336,2,74.9999977648259,4|0|0
316,268,68127,1,0
392,268,68412,2,0,B|392:228|352:204,1,74.9999977648259
280,208,68984,2,0,B|284:164|312:144,2,74.9999977648259,0|0|2
208,232,69841,6,0,B|208:280,2,37.4999988824129
188,160,70412,1,0
128,204,70698,2,0,B|108:168|116:132,2,74.9999977648259
156,276,71555,1,0
256,280,71841,6,0,B|256:180,2,100,2|0|0
356,284,72698,1,4
356,184,72984,2,0,B|456:184,2,100,0|0|0
356,84,73841,1,4
256,84,74127,6,0,B|156:84,1,100
156,184,74698,2,0,B|56:184,1,100
56,284,75270,2,0,B|56:384,2,100
156,284,76127,1,4
256,284,76412,6,0,B|360:284,2,100,2|0|0
256,184,77270,1,4
356,184,77555,2,0,B|356:80,2,100
356,284,78412,1,4
456,284,78698,6,0,B|456:180,1,100
456,84,79270,2,0,B|352:84,1,100
256,84,79841,2,0,B|208:84,7,50,0|0|0|0|0|0|4|0
256,68,83740,5,0
352,244,84425,1,0
256,276,84768,1,0
160,244,85111,2,2,B|160:316,2,50
76,192,85797,6,2,B|72:140|104:96,1,100
180,160,86482,2,0,B|236:168|280:124,1,100,4|8
312,100,86997,2,0,B|352:72|408:84,1,100
456,104,87511,1,8
408,192,87854,6,0,B|352:204|328:248,1,100,0|8
312,292,88368,2,0,B|292:344|240:352,1,100
188,352,88882,1,8
124,272,89225,6,2,B|152:168|244:120,2,200
264,216,91111,2,0,B|224:252,2,50,0|2|0
304,188,91625,6,0,B|348:160|400:168,2,100,8|4|8
368,264,92654,1,0
284,320,92997,2,0,B|320:360|376:364,2,100,8|4|8
220,244,94025,1,0
120,224,94368,5,8
148,128,94711,2,0,B|204:144|240:104,1,100,0|8
272,68,95225,2,0,B|312:28|372:52,1,100
408,72,95740,2,0,B|468:104,2,50,8|0|0
340,148,96425,5,0
376,240,96768,2,2,B|392:292|356:336,1,100
280,272,97454,1,4
60,316,97968,2,0,B|36:268|56:220,1,100
76,172,98482,1,0
140,96,98825,5,4
364,100,99340,2,0,B|416:116|432:168,1,100
440,216,99854,1,0
372,292,100197,5,0
76,328,100882,2,0,B|120:296|120:240,1,100
60,160,101568,1,0
124,84,101911,1,0
176,168,102254,2,0,B|216:192|256:180,2,75
200,124,102940,6,0,B|236:88|292:88,1,100,4|8
340,176,103625,1,0
376,268,103968,2,0,B|432:272|464:232,2,100,8|0|8
288,316,104997,1,0
200,264,105340,6,0,B|160:296,2,50,8|0|0
144,184,106025,1,8
160,136,106197,2,0,B|180:88|236:72,1,100
280,60,106711,2,0,B|336:52|360:8,2,100,8|0|8
340,140,107740,2,0,B|384:112,2,50
312,236,108425,6,0,B|312:288|276:328,1,100,4|0
216,248,109111,2,0,B|216:200,2,50,4|0|0
156,328,109797,2,0,B|120:288|120:236,1,100,4|0
156,144,110482,2,0,B|156:96,2,50,4|0|0
264,200,111168,5,2
356,276,111511,1,2
432,184,111854,1,2
348,100,112197,1,2
256,32,112540,6,0,B|200:48|144:24,2,112.499996647239
348,100,113911,2,0,B|400:100,2,37.4999988824129,2|0|0
280,192,114597,1,0
192,260,114940,1,0
276,332,115282,6,0,B|340:332|336:252|396:252,2,149.999995529652,0|0|4
100,284,117340,1,4
136,108,118025,6,0,B|176:144|228:136,1,100,4|0
252,40,118711,2,0,B|304:31|344:67,1,100,0|0
344,168,119397,1,0
340,268,119740,1,0
244,288,120082,2,0,B|192:296|192:296|176:216|100:192,1,200
256,192,120854,12,4,123511
