osu file format v12

[General]
AudioFilename: Mikakunin de Shinkoukei Ending - (TV - English & Romaji subs).mp3
AudioLeadIn: 0
PreviewTime: -1
Countdown: 0
SampleSet: Soft
StackLeniency: 0.7
Mode: 0
LetterboxInBreaks: 1
WidescreenStoryboard: 0

[Editor]
DistanceSpacing: 1.3
BeatDivisor: 4
GridSize: 32
TimelineZoom: 1

[Metadata]
Title:Mashiro World
TitleUnicode:Mashiro World
Artist:Mikakuning
ArtistUnicode:Mikakuning
Creator:Chippy
Version:Insane
Source:Mikakunin de Shinkoukei
Tags:Mashiro Mikakunin Engaged to the unidentified
BeatmapID:393654
BeatmapSetID:161268

[Difficulty]
HPDrainRate:7
CircleSize:4
OverallDifficulty:8
ApproachRate:9
SliderMultiplier:1.7
SliderTickRate:1

[Events]
//Background and Video events
//Break Periods
2,10699,24525
//Storyboard Layer 0 (Background)
//Storyboard Layer 1 (Fail)
//Storyboard Layer 2 (Pass)
//Storyboard Layer 3 (Foreground)
//Storyboard Sound Samples
//Background Colour Transformations
3,100,163,162,255

[TimingPoints]
0,375,4,2,0,100,1,0

[Colours]
Combo1 : 98,255,98
Combo2 : 255,113,184
Combo3 : 240,188,81

[HitObjects]
109,176,4500,6,0,P|173:144|205:112,1,85
266,92,4875,1,0,0:0:0:0:
287,78,4968,1,0,0:0:0:0:
357,125,5156,1,0,0:0:0:0:
378,148,5250,2,0,P|391:217|392:251,1,85
332,292,5625,1,0,0:0:0:0:
306,306,5718,1,0,0:0:0:0:
276,306,5812,1,0,0:0:0:0:
170,271,6000,5,0,0:0:0:0:
151,248,6093,1,0,0:0:0:0:
136,221,6187,1,0,0:0:0:0:
130,191,6281,1,0,0:0:0:0:
131,161,6375,1,0,0:0:0:0:
136,131,6468,1,0,0:0:0:0:
147,103,6562,1,0,0:0:0:0:
167,81,6656,1,0,0:0:0:0:
190,62,6750,2,0,P|265:35|287:36,1,85
368,84,7125,2,0,P|330:103|288:111,1,85
375,180,7500,5,0,0:0:0:0:
375,180,7593,1,0,0:0:0:0:
375,180,7687,1,0,0:0:0:0:
280,237,7875,1,0,0:0:0:0:
280,237,7968,1,0,0:0:0:0:
280,237,8062,1,0,0:0:0:0:
180,187,8250,2,0,P|125:143|113:122,1,85
227,118,8625,2,0,P|253:84|289:62,1,85
398,82,9000,5,0,0:0:0:0:
409,109,9093,1,0,0:0:0:0:
416,137,9187,1,0,0:0:0:0:
411,195,9375,1,0,0:0:0:0:
398,221,9468,1,0,0:0:0:0:
381,245,9562,1,0,0:0:0:0:
376,302,9750,1,0,0:0:0:0:
368,330,9843,1,0,0:0:0:0:
346,351,9937,1,0,0:0:0:0:
316,356,10031,1,0,0:0:0:0:
286,356,10125,1,0,0:0:0:0:
261,339,10218,1,0,0:0:0:0:
235,323,10312,2,0,P|188:291|126:275,1,85
92,162,25125,6,0,P|148:97|190:65,1,127.5
209,63,25500,1,0,0:0:0:0:
237,56,25593,1,0,0:0:0:0:
265,48,25687,1,0,0:0:0:0:
294,54,25781,1,0,0:0:0:0:
318,71,25875,1,0,0:0:0:0:
340,89,25968,1,0,0:0:0:0:
356,114,26062,1,0,0:0:0:0:
366,141,26156,1,0,0:0:0:0:
372,170,26250,2,0,P|371:242|366:261,1,85
264,293,26625,2,0,P|216:273|202:259,2,42.5
175,226,27000,6,0,P|138:149|139:124,1,85
171,45,27375,2,0,P|207:97|208:108,1,42.5
207,98,27562,1,0,0:0:0:0:
216,126,27656,1,0,0:0:0:0:
279,132,27750,2,0,P|349:124|356:127,3,42.5
367,160,28125,2,0,L|352:214,1,42.5
409,213,28312,2,0,L|394:263,1,42.5
317,286,28500,6,0,P|206:289|198:285,1,85
87,211,28875,2,0,P|198:214|206:210,1,85
310,126,29250,2,0,P|199:129|191:125,1,85
77,57,29625,2,0,P|188:60|196:56,1,85
329,55,30000,5,0,0:0:0:0:
349,76,30093,1,0,0:0:0:0:
364,101,30187,1,0,0:0:0:0:
370,129,30281,1,0,0:0:0:0:
373,158,30375,1,0,0:0:0:0:
234,223,30562,1,0,0:0:0:0:
159,141,30750,2,0,P|114:103|106:99,2,42.5
245,71,31125,2,0,P|349:99|363:105,1,85
430,131,31500,5,0,0:0:0:0:
441,158,31593,1,0,0:0:0:0:
441,187,31687,1,0,0:0:0:0:
433,215,31781,1,0,0:0:0:0:
408,231,31875,2,0,L|368:248,3,42.5
339,252,32250,2,0,L|296:223,1,42.5
297,257,32437,2,0,L|254:228,1,42.5
257,263,32625,2,0,L|214:234,1,42.5
174,210,32812,1,0,0:0:0:0:
123,83,33000,6,0,L|195:46,1,42.5
164,101,33187,2,0,L|92:138,1,42.5
137,158,33375,2,0,L|209:121,1,42.5
186,175,33562,2,0,L|114:212,1,42.5
150,233,33750,1,0,0:0:0:0:
159,269,33843,1,0,0:0:0:0:
187,295,33937,1,0,0:0:0:0:
222,308,34031,1,0,0:0:0:0:
259,314,34125,1,0,0:0:0:0:
368,300,34312,1,0,0:0:0:0:
394,286,34406,1,0,0:0:0:0:
414,264,34500,2,0,P|451:183|451:155,1,85
423,81,34875,2,0,P|386:162|386:190,1,85
