osu file format v12

[General]
AudioFilename: song.mp3
AudioLeadIn: 0
PreviewTime: 61622
Countdown: 0
SampleSet: Soft
StackLeniency: 0.7
Mode: 0
LetterboxInBreaks: 0
WidescreenStoryboard: 0

[Editor]
Bookmarks: 11891
DistanceSpacing: 1
BeatDivisor: 4
GridSize: 4
TimelineZoom: 1

[Metadata]
Title:Tomadoi Recipe
TitleUnicode:とまどい→レシピ
Artist:Mikakuning!
ArtistUnicode:みかくにんぐッ!
Creator:TaMul
Version:Hard
Source:Mikakunin DE Sinkoukei
Tags:TKSalt Junky Terui Haruka Matsui Eriko Yoshida Yu-ri op opening tv size 未確認で進行形 natsu 0gre
BeatmapID:373317
BeatmapSetID:151269

[Difficulty]
HPDrainRate:6
CircleSize:4
OverallDifficulty:5
ApproachRate:7
SliderMultiplier:1.7
SliderTickRate:2

[Events]
//Background and Video events
0,0,"mikakunin.jpg",0,0
Video,0,"mikakunin.flv"
//Break Periods
//Storyboard Layer 0 (Background)
//Storyboard Layer 1 (Fail)
//Storyboard Layer 2 (Pass)
//Storyboard Layer 3 (Foreground)
//Storyboard Sound Samples
//Background Colour Transformations
3,100,163,162,255

[TimingPoints]
597,352.941176470588,4,2,1,40,1,0
11185,-100,4,2,0,40,0,0
11891,-100,4,2,1,60,0,0
23185,-100,4,2,1,40,0,0
28126,-100,4,2,1,60,0,0
33067,-100,4,2,0,40,0,0
34126,-100,4,2,1,60,0,0
62714,-100,4,2,1,60,0,1
72067,-100,4,2,2,60,0,1
72244,-100,4,2,1,60,0,1
73655,-100,4,2,1,60,0,0
74008,-100,4,2,1,60,0,1
78420,-100,4,2,3,60,0,1
78596,-100,4,2,1,60,0,1
78949,-100,4,2,3,60,0,1
79126,-100,4,2,1,60,0,1
84067,-100,4,2,3,60,0,1
84244,-100,4,2,1,60,0,1
85302,-100,4,2,1,60,0,0

[Colours]
Combo1 : 255,128,0
Combo2 : 128,0,255
Combo3 : 128,64,0
Combo4 : 32,143,255
Combo5 : 255,128,128

[HitObjects]
136,88,597,2,0,L|116:172,1,85
200,168,949,2,0,L|219:85,1,85
68,28,1302,2,0,L|24:200,1,170
60,272,1832,1,0,0:0:0:0:
60,272,2185,2,0,B|100:308|188:240|228:280,1,170
256,356,2714,6,0,P|296:328|308:292,1,85,0|0,0:0|3:0,0:0:0:0:
288,212,3067,2,0,P|340:212|368:232,1,85,0|0,0:0|3:0,0:0:0:0:
444,192,3420,6,0,P|416:156|300:120,2,170
436,276,4302,1,0,0:0:0:0:
512,316,4479,1,0,0:0:0:0:
444,192,4655,2,0,P|396:196|356:304,1,170
288,352,5185,2,0,P|244:332|208:336,1,85
184,204,5538,6,0,P|228:224|264:220,1,85,0|0,0:0|3:0,0:0:0:0:
152,284,5891,1,0,0:0:0:0:
240,140,6067,1,0,3:0:0:0:
68,140,6244,6,0,P|80:204|4:172,1,170
0,112,6773,1,0,0:0:0:0:
0,112,6949,2,0,P|68:68|136:112,1,170
148,196,7479,2,0,B|188:180|188:180|232:184,1,85
296,128,7832,1,0,0:0:0:0:
368,168,8008,1,0,0:0:0:0:
340,248,8185,1,0,0:0:0:0:
256,264,8361,6,0,P|280:312|316:328,1,85,0|0,0:0|3:0,0:0:0:0:
392,320,8714,2,0,P|432:288|472:292,1,85,0|0,0:0|3:0,0:0:0:0:
512,220,9067,6,0,B|472:204|432:208|432:208|456:160|428:120,1,170
279,53,9773,2,0,P|293:133|367:168,1,170
360,84,10302,6,0,P|368:40|352:4,1,85
279,53,10655,1,0,0:0:0:0:
207,103,10832,2,0,P|191:65|200:24,1,85
224,184,11185,6,0,P|180:184|144:152,1,85,2|0,0:0|3:0,0:0:0:0:
296,228,11538,2,0,P|256:264|224:268,1,85,2|0,0:0|3:0,0:0:0:0:
160,320,11891,6,0,P|152:264|52:228,1,170,4|8,0:0|0:0,0:0:0:0:
72,312,12420,1,0,0:0:0:0:
72,312,12508,1,0,0:0:0:0:
72,312,12596,1,0,0:0:0:0:
244,296,12773,2,0,P|284:316|332:304,2,85,0|8|0,0:0|0:0|0:0,0:0:0:0:
296,228,13302,5,0,0:0:0:0:
260,152,13479,1,0,0:0:0:0:
176,160,13655,1,8,0:0:0:0:
296,228,13832,1,0,0:0:0:0:
392,128,14008,6,0,P|400:176|428:204,1,85
476,132,14361,2,0,P|468:84|440:56,1,85,12|0,0:0|0:0,0:0:0:0:
320,88,14714,6,0,P|316:168|356:248,1,170,4|8,0:0|0:0,0:0:0:0:
436,276,15244,1,0,0:0:0:0:
436,276,15332,1,0,0:0:0:0:
436,276,15420,2,0,P|412:316|372:332,1,85
296,312,15773,2,0,B|256:296|256:296|216:312,1,85,8|0,0:0|0:0,0:0:0:0:
133,331,16126,5,2,0:0:0:0:
133,331,16302,2,0,P|96:312|76:276,1,85,8|2,0:0|0:0,0:0:0:0:
156,252,16655,1,2,0:0:0:0:
236,228,16832,2,0,P|215:191|178:172,1,85,8|2,0:0|0:0,0:0:0:0:
96,188,17185,2,0,P|48:188|64:88,1,170,8|6,0:0|0:0,0:0:0:0:
132,112,17714,5,0,0:0:0:0:
216,92,17891,2,0,P|256:104|300:92,1,85,8|0,0:0|0:0,0:0:0:0:
344,24,18244,1,2,0:0:0:0:
380,100,18420,1,0,0:0:0:0:
380,100,18508,1,0,0:0:0:0:
379,100,18596,2,0,P|415:78|428:38,1,85,8|0,0:0|0:0,0:0:0:0:
336,172,18949,2,0,P|376:188|416:180,1,85,2|0,0:0|0:0,0:0:0:0:
296,96,19302,2,0,P|260:128|264:216,1,127.5,8|0,0:0|0:0,0:0:0:0:
288,232,19655,6,0,L|200:224,1,85,8|0,0:0|0:0,0:0:0:0:
164,244,19920,1,0,0:0:0:0:
124,260,20008,2,0,L|36:252,1,85,8|0,0:0|0:0,0:0:0:0:
72,172,20361,5,2,0:0:0:0:
36,92,20538,1,2,0:0:0:0:
120,104,20714,2,0,P|164:128|200:124,1,85,8|8,0:0|0:0,0:0:0:0:
256,64,21067,1,2,0:0:0:0:
256,64,21244,1,2,0:0:0:0:
314,124,21420,2,0,P|356:126|392:104,1,85,8|2,0:0|0:0,0:0:0:0:
476,92,21773,5,2,0:0:0:0:
420,28,21949,1,2,0:0:0:0:
448,172,22126,1,8,0:0:0:0:
420,28,22302,1,2,0:0:0:0:
448,172,22479,2,0,L|456:260,1,85,8|2,0:0|3:0,0:0:0:0:
455,256,23185,6,0,B|412:240|380:260|380:260|371:249|371:249|332:264|296:244,1,170,4|2,0:0|3:0,0:0:0:0:
336,168,23714,1,0,0:0:0:0:
202,231,23891,2,0,P|219:311|296:340,1,170,0|2,0:0|3:0,0:0:0:0:
252,160,24420,2,0,L|100:256,1,170
108,336,24949,1,2,3:0:0:0:
32,300,25126,1,0,0:0:0:0:
32,216,25302,2,0,P|56:176|52:136,1,85
44,56,25655,2,0,L|8:32,3,42.5,2|0|0|0,3:0|3:0|3:0|3:0,0:0:0:0:
44,56,26008,6,0,B|128:80|112:28|216:56,1,170,0|2,0:0|3:0,0:0:0:0:
260,124,26538,1,0,0:0:0:0:
260,124,26714,2,0,P|292:84|292:48,1,85,0|0,0:0|3:0,0:0:0:0:
176,132,27067,2,0,P|192:184|232:204,1,85,2|0,3:0|3:0,0:0:0:0:
300,204,27420,6,0,L|472:164,2,170,0|2|8,0:0|3:0|0:0,0:0:0:0:
252,276,28302,1,2,0:0:0:0:
252,276,28479,1,8,0:0:0:0:
252,276,28655,6,0,P|216:240|248:136,1,170,4|0,0:0|0:0,0:0:0:0:
332,128,29185,1,8,0:0:0:0:
384,192,29361,1,0,0:0:0:0:
348,268,29538,2,0,P|396:280|432:264,1,85,0|0,0:0|0:0,0:0:0:0:
439,119,29891,2,0,P|467:150|472:191,1,85,8|0,0:0|0:0,0:0:0:0:
384,192,30244,6,0,P|316:184|264:264,1,170,0|8,0:0|0:0,0:0:0:0:
296,340,30773,1,0,0:0:0:0:
175,255,30949,2,0,L|91:251,1,85
120,332,31302,2,0,L|204:336,1,85,8|0,0:0|0:0,0:0:0:0:
232,180,31655,6,0,L|60:172,1,170,0|8,0:0|0:0,0:0:0:0:
91,251,32185,1,0,0:0:0:0:
91,251,32361,2,0,P|144:196|124:112,1,170,0|8,0:0|0:0,0:0:0:0:
44,88,32891,1,0,0:0:0:0:
62,172,33067,1,0,0:0:0:0:
108,32,33244,5,2,0:0:0:0:
108,32,33420,2,0,P|152:48|196:40,1,85,2|0,0:0|0:0,0:0:0:0:
256,96,33773,1,2,0:0:0:0:
256,96,33949,1,0,0:0:0:0:
322,42,34126,2,0,P|344:80|312:160,1,127.5,10|0,0:0|0:0,0:0:0:0:
318,154,34479,6,0,P|368:152|400:172,1,85,4|0,0:0|0:0,0:0:0:0:
340,232,34832,1,8,0:0:0:0:
420,256,35008,1,0,0:0:0:0:
488,204,35185,2,0,P|504:280|440:340,1,170,0|8,0:0|0:0,0:0:0:0:
360,320,35714,2,0,B|328:356|236:280|196:324,1,170
128,272,36244,1,8,0:0:0:0:
116,356,36420,1,0,0:0:0:0:
48,304,36596,2,0,L|0:308,2,42.5,0|8|0,0:0|0:0|0:0,0:0:0:0:
56,220,36949,2,0,P|88:184|128:176,1,85,8|2,0:0|3:0,0:0:0:0:
164,188,37214,1,0,0:0:0:0:
196,216,37302,6,0,L|180:44,1,170,2|8,0:0|0:0,0:0:0:0:
331,46,37832,2,0,L|316:216,1,170,0|2,0:0|3:0,0:0:0:0:
256,276,38361,1,8,0:0:0:0:
196,216,38538,1,0,0:0:0:0:
196,216,38626,1,0,0:0:0:0:
196,216,38714,6,0,P|156:240|120:236,1,85,2|8,0:0|0:0,0:0:0:0:
146,73,39067,1,8,0:0:0:0:
146,73,39244,2,0,P|135:114|144:156,1,85,2|8,0:0|0:0,0:0:0:0:
220,116,39596,2,0,L|268:108,2,42.5,2|0|8,0:0|0:0|0:0,0:0:0:0:
60,68,39949,6,0,B|40:120|61:188|61:188|32:240,1,170,4|2,0:0|0:0,0:0:0:0:
84,300,40479,2,0,L|128:228,1,85,8|0,0:0|0:0,0:0:0:0:
200,276,40832,2,0,B|228:228|228:228|256:236|256:236|284:228|284:228|312:280,1,170,2|8,0:0|0:0,0:0:0:0:
428,300,41361,2,0,L|384:228,1,85,8|2,0:0|0:0,0:0:0:0:
464,196,41714,1,8,0:0:0:0:
400,140,41891,1,8,0:0:0:0:
480,112,42067,1,8,0:0:0:0:
328,100,42244,6,0,P|316:144|328:184,1,85,2|8,0:0|0:0,0:0:0:0:
404,56,42596,2,0,P|376:24|336:12,1,85,2|8,0:0|0:0,0:0:0:0:
256,44,42949,5,6,0:0:0:0:
175,12,43126,2,0,P|135:24|108:56,1,85,0|8,0:0|0:0,0:0:0:0:
132,136,43479,1,0,0:0:0:0:
68,192,43655,2,0,P|88:240|80:272,1,85,8|0,0:0|0:0,0:0:0:0:
124,276,43920,2,0,L|168:280,1,42.5,8|8,0:0|0:0,0:0:0:0:
192,196,44185,2,0,L|226:220,1,42.5,2|2,0:0|0:0,0:0:0:0:
248,288,44361,6,0,P|288:260|296:224,1,85,2|8,0:0|3:0,0:0:0:0:
272,144,44714,1,4,3:0:0:0:
352,168,44891,1,8,3:0:0:0:
352,168,44979,1,0,0:0:0:0:
352,168,45067,2,0,P|400:176|436:160,1,85,2|2,0:0|0:0,0:0:0:0:
384,92,45420,6,0,L|400:264,2,170,8|4|2,0:0|0:0|3:0,0:0:0:0:
300,100,46302,1,0,0:0:0:0:
300,100,46479,6,0,P|264:128|256:48,1,170,0|2,0:0|3:0,0:0:0:0:
280,204,47008,1,0,0:0:0:0:
280,204,47185,2,0,L|292:300,1,85
208,272,47538,2,0,L|197:187,1,85,2|0,3:0|0:0,0:0:0:0:
352,164,47891,5,0,0:0:0:0:
432,196,48067,1,2,0:0:0:0:
432,196,48155,1,2,0:0:0:0:
432,196,48244,2,0,P|440:152|424:112,1,85,2|2,0:0|0:0,0:0:0:0:
352,72,48596,6,0,P|308:92|264:84,1,85,2|0,0:0|0:0,0:0:0:0:
188,100,48949,2,0,P|160:68|116:60,1,85,2|0,3:0|0:0,0:0:0:0:
116,144,49302,2,0,P|128:192|56:156,1,170,0|2,0:0|3:0,0:0:0:0:
119,59,49832,5,0,0:0:0:0:
119,59,50008,2,0,P|160:68|188:100,1,85,0|0,3:0|0:0,0:0:0:0:
204,140,50273,2,0,P|192:184|204:224,1,85,0|0,3:0|0:0,0:0:0:0:
236,244,50538,2,0,L|144:264,1,85,0|8,3:0|0:0,0:0:0:0:
136,344,50891,6,0,L|219:325,1,85,2|8,0:0|0:0,0:0:0:0:
300,304,51244,1,2,0:0:0:0:
300,304,51420,6,0,P|340:332|436:280,1,170,6|2,0:0|3:0,0:0:0:0:
364,236,51949,1,0,0:0:0:0:
364,236,52126,2,0,B|340:200|356:156|356:156|348:152|348:152|364:112|340:72,1,170,0|2,0:0|3:0,0:0:0:0:
268,120,52655,1,0,0:0:0:0:
432,192,52832,6,0,P|476:200|512:180,1,85
460,112,53185,2,0,P|476:72|464:28,1,85,2|0,3:0|0:0,0:0:0:0:
388,68,53538,1,2,0:0:0:0:
316,112,53714,1,8,3:0:0:0:
316,112,53891,2,0,P|300:73|309:32,1,85,4|2,3:0|0:0,0:0:0:0:
348,188,54244,6,0,L|176:208,1,170,6|8,0:0|0:0,0:0:0:0:
147,131,54773,1,2,0:0:0:0:
147,131,54949,2,0,L|316:112,1,170,2|8,0:0|0:0,0:0:0:0:
344,268,55479,1,2,0:0:0:0:
344,268,55655,2,0,L|175:287,2,170,2|2|2,0:0|3:0|0:0,0:0:0:0:
424,240,56538,5,2,0:0:0:0:
444,156,56714,1,12,0:0:0:0:
420,76,56891,1,0,0:0:0:0:
348,32,57067,6,0,P|308:56|264:56,1,85,4|2,0:0|3:0,0:0:0:0:
110,53,57420,2,0,P|146:30|188:28,1,85,0|2,0:0|3:0,0:0:0:0:
288,135,57773,2,0,P|246:135|212:112,1,85,0|2,0:0|3:0,0:0:0:0:
84,144,58126,2,0,P|128:144|160:167,1,85,0|2,0:0|3:0,0:0:0:0:
100,228,58479,5,0,0:0:0:0:
148,296,58655,1,2,3:0:0:0:
232,276,58832,1,0,0:0:0:0:
248,192,59008,2,0,P|304:220|300:328,1,170,2|2,3:0|3:0,0:0:0:0:
308,318,59449,1,0,0:0:0:0:
308,318,59538,6,0,L|396:304,1,85,0|2,0:0|3:0,0:0:0:0:
416,148,59891,2,0,L|332:161,1,85,0|8,0:0|0:0,0:0:0:0:
336,237,60244,2,0,L|420:224,1,85,8|8,0:0|0:0,0:0:0:0:
420,224,60508,1,0,0:0:0:0:
420,224,60596,1,2,0:0:0:0:
344,84,60773,1,8,0:0:0:0:
256,216,60949,2,0,L|212:232,3,42.5,8|0|0|0,0:0|3:0|3:0|3:0,0:0:0:0:
256,216,61302,5,6,0:0:0:0:
256,216,62361,1,12,0:0:0:0:
112,304,62714,6,0,P|96:264|104:220,1,85,4|0,0:0|0:0,0:0:0:0:
144,148,63067,2,0,P|172:104|168:68,1,85,8|0,0:0|0:0,0:0:0:0:
86,81,63420,2,0,P|55:156|102:223,1,170,0|8,0:0|0:0,0:0:0:0:
188,224,63949,1,0,0:0:0:0:
188,224,64126,6,0,B|232:268|308:180|348:220,1,170,0|8,0:0|0:0,0:0:0:0:
428,192,64655,1,0,3:0:0:0:
428,192,64744,1,0,3:0:0:0:
428,192,64832,2,0,L|412:108,1,85
333,135,65185,2,0,L|347:219,1,85,12|0,0:0|0:0,0:0:0:0:
512,200,65538,6,0,L|484:28,1,170,4|8,0:0|0:0,0:0:0:0:
400,32,66067,1,0,0:0:0:0:
400,32,66244,2,0,P|348:48|312:40,1,85
256,100,66596,1,8,0:0:0:0:
193,42,66773,1,0,0:0:0:0:
172,124,66949,6,0,P|164:168|112:108,1,170,12|2,0:0|0:0,0:0:0:0:
244,176,67479,2,0,P|224:216|112:252,1,170,8|2,0:0|0:0,0:0:0:0:
176,364,68008,2,0,P|216:328|256:324,1,85,12|0,0:0|0:0,0:0:0:0:
324,352,68361,5,4,0:0:0:0:
372,280,68538,2,0,P|404:312|408:360,2,85,0|8|0,0:0|0:0|0:0,0:0:0:0:
288,276,69067,1,0,0:0:0:0:
336,204,69244,2,0,P|384:196|424:216,2,85,0|8|0,0:0|0:0|0:0,0:0:0:0:
252,196,69773,6,0,P|204:216|84:192,1,170,0|8,0:0|0:0,0:0:0:0:
128,120,70302,2,0,P|164:152|144:264,1,170
44,128,70832,2,0,P|48:84|80:52,1,85,8|0,0:0|0:0,0:0:0:0:
160,40,71185,6,0,P|196:64|184:184,1,170,0|8,0:0|0:0,0:0:0:0:
256,236,71714,1,0,0:0:0:0:
321,178,71891,2,0,P|297:100|352:40,1,170,0|8,0:0|0:0,0:0:0:0:
383,120,72420,6,0,P|420:132|468:120,1,85,2|2,0:0|0:0,0:0:0:0:
456,208,72773,1,8,0:0:0:0:
456,208,72949,2,0,P|440:268|452:296,1,85,8|0,0:0|0:0,0:0:0:0:
392,352,73302,2,0,P|340:328|308:332,1,85,2|8,0:0|0:0,0:0:0:0:
236,360,73655,6,0,L|256:192,1,170,8|4,0:0|0:0,0:0:0:0:
172,212,74185,2,0,P|129:211|93:190,2,85,0|8|0,0:0|0:0|0:0,0:0:0:0:
256,191,74714,2,0,P|292:168|336:168,1,85
416,192,75067,1,8,0:0:0:0:
356,252,75244,1,0,0:0:0:0:
440,272,75420,6,0,P|488:236|472:128,1,170,0|8,0:0|0:0,0:0:0:0:
400,104,75949,2,0,L|412:60,2,42.5,0|0|0,3:0|3:0|3:0,0:0:0:0:
316,92,76302,2,0,L|340:8,2,85,0|8|0,0:0|0:0|3:0,0:0:0:0:
232,116,76832,6,0,P|192:104|148:116,1,85
120,192,77185,2,0,P|80:164|68:128,1,85,8|0,0:0|0:0,0:0:0:0:
204,192,77538,2,0,B|208:240|168:264|168:264|184:312|152:344,1,170,0|8,0:0|0:0,0:0:0:0:
84,292,78067,1,0,0:0:0:0:
244,292,78244,6,0,L|416:284,1,170,8|2,0:0|0:0,0:0:0:0:
488,128,78773,2,0,L|318:135,1,170,8|2,0:0|0:0,0:0:0:0:
356,212,79302,2,0,L|448:208,1,85,8|0,0:0|0:0,0:0:0:0:
440,52,79655,6,0,L|355:55,1,85,4|0,0:0|0:0,0:0:0:0:
272,64,80008,2,0,P|228:36|188:36,1,85,8|0,0:0|0:0,0:0:0:0:
204,120,80361,2,0,P|156:128|128:152,1,85
196,204,80714,2,0,P|168:244|168:288,1,85,8|0,0:0|0:0,0:0:0:0:
252,272,81067,6,0,P|292:260|376:296,1,127.5
369,288,81420,2,0,P|356:240|368:204,1,85,8|0,0:0|0:0,0:0:0:0:
444,244,81773,2,0,P|457:292|445:328,1,85,8|2,0:0|0:0,0:0:0:0:
380,372,82126,2,0,P|336:372|300:340,1,85,8|2,0:0|0:0,0:0:0:0:
220,356,82479,5,8,0:0:0:0:
220,356,82655,1,2,0:0:0:0:
168,288,82832,1,8,0:0:0:0:
168,288,83008,1,2,0:0:0:0:
84,304,83185,6,0,P|100:348|140:368,1,85,8|2,0:0|0:0,0:0:0:0:
252,272,83538,2,0,P|236:228|196:208,1,85,8|2,0:0|0:0,0:0:0:0:
120,216,83891,6,0,L|152:48,1,170,8|2,0:0|0:0,0:0:0:0:
228,88,84420,2,0,P|280:64|396:64,1,170,8|0,0:0|3:0,0:0:0:0:
391,62,84861,1,0,3:0:0:0:
391,62,84949,1,2,3:0:0:0:
391,62,85302,6,0,P|376:120|384:144,1,85,8|2,0:0|0:0,0:0:0:0:
451,196,85655,2,0,P|468:157|465:115,1,85,2|8,0:0|0:0,0:0:0:0:
372,224,86008,1,2,0:0:0:0:
436,280,86185,1,2,0:0:0:0:
356,304,86361,1,8,0:0:0:0:
288,252,86538,6,0,B|248:232|208:256|208:256|212:244|212:244|176:264|140:252,1,170,8|8,0:0|0:0,0:0:0:0:
141,252,86979,1,0,3:0:0:0:
141,252,87067,1,0,3:0:0:0:
168,172,87244,1,8,0:0:0:0:
116,103,87420,6,0,P|88:135|84:176,1,85,0|0,0:0|3:0,0:0:0:0:
249,157,87773,2,0,P|235:117|200:96,1,85,0|0,0:0|3:0,0:0:0:0:
168,172,88126,1,4,0:0:0:0:
