osu file format v12

[General]
AudioFilename: song.mp3
AudioLeadIn: 0
PreviewTime: 61622
Countdown: 0
SampleSet: Soft
StackLeniency: 0.7
Mode: 0
LetterboxInBreaks: 0
WidescreenStoryboard: 0

[Editor]
Bookmarks: 11891
DistanceSpacing: 1
BeatDivisor: 4
GridSize: 4
TimelineZoom: 1

[Metadata]
Title:Tomadoi Recipe
TitleUnicode:とまどい→レシピ
Artist:Mikakuning!
ArtistUnicode:みかくにんぐッ!
Creator:TaMul
Version:Easy
Source:Mikakunin DE Sinkoukei
Tags:TKSalt Junky Terui Haruka Matsui Eriko Yoshida Yu-ri op opening tv size 未確認で進行形 natsu 0gre
BeatmapID:372923
BeatmapSetID:151269

[Difficulty]
HPDrainRate:2
CircleSize:3
OverallDifficulty:2
ApproachRate:3
SliderMultiplier:0.899999999999999
SliderTickRate:2

[Events]
//Background and Video events
0,0,"mikakunin.jpg",0,0
Video,0,"mikakunin.flv"
//Break Periods
//Storyboard Layer 0 (Background)
//Storyboard Layer 1 (Fail)
//Storyboard Layer 2 (Pass)
//Storyboard Layer 3 (Foreground)
//Storyboard Sound Samples
//Background Colour Transformations
3,100,163,162,255

[TimingPoints]
597,352.941176470588,4,2,1,40,1,0
11185,-100,4,2,0,40,0,0
11891,-100,4,2,1,60,0,0
14361,-100,4,2,2,60,0,0
14538,-100,4,2,1,60,0,0
16302,-100,4,2,2,60,0,0
16479,-100,4,2,3,60,0,0
16832,-100,4,2,1,60,0,0
20891,-100,4,2,2,60,0,0
21067,-100,4,2,1,60,0,0
23185,-100,4,2,1,40,0,0
28126,-100,4,2,1,60,0,0
28302,-100,4,2,3,60,0,0
28479,-100,4,2,2,60,0,0
28655,-100,4,2,1,60,0,0
30596,-100,4,2,2,60,0,0
30773,-100,4,2,1,60,0,0
32008,-100,4,2,2,60,0,0
32185,-100,4,2,1,60,0,0
32714,-100,4,2,2,60,0,0
32891,-100,4,2,1,60,0,0
34832,-100,4,2,2,60,0,0
35008,-100,4,2,1,60,0,0
36244,-100,4,2,2,60,0,0
36420,-100,4,2,1,60,0,0
39773,-100,4,2,2,60,0,0
39949,-100,4,2,1,60,0,0
41891,-100,4,2,3,60,0,0
42067,-100,4,2,1,60,0,0
42773,-100,4,2,2,60,0,0
42949,-100,4,2,1,60,0,0
48067,-100,4,2,3,60,0,0
48596,-100,4,2,1,60,0,0
50891,-100,4,2,3,60,0,0
51067,-100,4,2,1,60,0,0
57420,-100,4,2,2,60,0,0
57596,-100,4,2,1,60,0,0
58832,-100,4,2,2,60,0,0
59008,-100,4,2,1,60,0,0
62714,-100,4,2,1,60,0,1
63773,-100,4,2,2,60,0,1
63949,-100,4,2,1,60,0,1
64479,-100,4,2,2,60,0,1
64655,-100,4,2,1,60,0,1
65891,-100,4,2,2,60,0,1
66067,-100,4,2,1,60,0,1
73655,-100,4,2,1,60,0,0
74008,-100,4,2,1,60,0,1
74361,-100,4,2,2,60,0,1
74538,-100,4,2,1,60,0,1
76479,-100,4,2,2,60,0,1
76655,-100,4,2,1,60,0,1
78420,-100,4,2,3,60,0,1
78773,-100,4,2,1,60,0,1
78949,-100,4,2,3,60,0,1
79302,-100,4,2,1,60,0,1
81420,-100,4,2,2,60,0,1
81596,-100,4,2,1,60,0,1
82832,-100,4,2,2,60,0,1
83008,-100,4,2,1,60,0,1
84067,-100,4,2,3,60,0,1
84244,-100,4,2,1,60,0,1
85302,-100,4,2,1,60,0,0

[Colours]
Combo1 : 255,128,0
Combo2 : 128,0,255
Combo3 : 128,64,0
Combo4 : 32,143,255
Combo5 : 255,128,128

[HitObjects]
172,100,597,6,0,B|220:112|256:80|256:80|292:112|340:100,2,180
152,188,2361,1,0,0:0:0:0:
75,135,2714,2,0,P|58:176|68:220,1,89.9999999999999,0|0,3:0|0:0,0:0:0:0:
172,284,3420,6,0,B|220:272|256:304|256:304|292:272|340:284,2,180
104,340,5185,1,0,0:0:0:0:
88,252,5538,2,0,P|96:208|76:160,1,89.9999999999999,0|0,3:0|0:0,0:0:0:0:
152,108,6244,6,0,B|180:140|188:188|188:188|232:184|276:204,1,180
364,192,7302,1,0,0:0:0:0:
408,116,7655,2,0,P|368:80|364:40,1,89.9999999999999
452,36,8361,2,0,P|492:72|496:112,1,89.9999999999999,0|0,3:0|0:0,0:0:0:0:
464,192,9067,6,0,B|416:228|512:324|464:364,1,180
384,328,10126,1,0,0:0:0:0:
304,368,10479,2,0,P|296:288|380:236,2,180,0|2|4,0:0|0:0|0:0,0:0:0:0:
384,328,12244,5,8,0:0:0:0:
460,280,12596,1,0,0:0:0:0:
456,192,12949,1,8,0:0:0:0:
384,140,13302,2,0,P|352:156|296:148,1,89.9999999999999,0|8,0:0|0:0,0:0:0:0:
216,180,14008,2,0,L|240:0,1,180,0|4,0:0|0:0,0:0:0:0:
156,36,15067,6,0,P|112:28|71:45,2,89.9999999999999,8|0|8,0:0|0:0|0:0,0:0:0:0:
124,120,16126,2,0,L|100:298,1,180,2|8,0:0|0:0,0:0:0:0:
192,292,17185,1,8,0:0:0:0:
256,356,17538,6,0,P|280:324|280:272,1,89.9999999999999,4|8,0:0|0:0,0:0:0:0:
228,204,18244,2,0,P|268:184|312:192,1,89.9999999999999,0|8,0:0|0:0,0:0:0:0:
396,164,18949,2,0,P|395:208|421:244,1,89.9999999999999,0|8,0:0|0:0,0:0:0:0:
484,180,19655,1,8,0:0:0:0:
460,92,20008,1,8,0:0:0:0:
372,76,20361,6,0,P|320:88|284:76,2,89.9999999999999,2|8|2,0:0|0:0|0:0,0:0:0:0:
204,144,21773,2,0,P|180:108|184:60,2,89.9999999999999,2|8|12,0:0|0:0|0:0,0:0:0:0:
80,272,23185,6,0,B|140:312|192:244|256:276,1,180,4|0,0:0|0:0,0:0:0:0:
388,152,24596,2,0,B|325:120|273:188|213:148,1,180
44,212,26008,6,0,P|76:176|80:136,1,89.9999999999999
48,52,26714,1,0,0:0:0:0:
136,72,27067,2,0,L|236:64,2,89.9999999999999
172,152,28126,2,0,L|312:140,1,135,8|4,0:0|0:0,0:0:0:0:
396,240,29185,6,0,P|416:200|460:180,2,89.9999999999999,8|0|8,0:0|0:0|0:0,0:0:0:0:
480,272,30244,2,0,P|432:328|332:304,1,180
256,268,31302,1,8,0:0:0:0:
175,308,31655,2,0,P|92:332|32:272,2,180
256,268,33420,5,0,0:0:0:0:
212,192,33773,1,0,0:0:0:0:
256,112,34126,1,2,0:0:0:0:
348,112,34479,6,0,P|384:152|360:276,1,180
224,380,35891,2,0,P|188:340|212:216,1,180
367,268,37302,5,2,0:0:0:0:
308,336,37655,2,0,P|280:304|280:256,1,89.9999999999999,8|0,0:0|0:0,0:0:0:0:
332,184,38361,2,0,P|344:148|332:96,2,89.9999999999999,8|2|8,0:0|0:0|0:0,0:0:0:0:
252,144,39420,2,0,P|224:164|120:148,1,135,8|4,0:0|0:0,0:0:0:0:
64,276,40479,2,0,L|52:368,1,89.9999999999999,2|8,0:0|0:0,0:0:0:0:
140,348,41185,1,8,0:0:0:0:
232,360,41538,6,0,L|248:224,1,135,8|8,0:0|0:0,0:0:0:0:
196,152,42420,2,0,P|244:132|320:172,1,135,8|4,0:0|0:0,0:0:0:0:
336,252,43302,5,0,0:0:0:0:
360,340,43655,2,0,P|400:324|424:280,2,89.9999999999999,0|0|2,0:0|0:0|0:0,0:0:0:0:
128,352,45244,2,0,L|144:296,1,45,0|4,3:0|0:0,0:0:0:0:
52,328,45773,6,0,B|76:240|76:240|56:152,1,180,4|0,0:0|0:0,0:0:0:0:
144,132,46832,1,0,0:0:0:0:
88,64,47185,2,0,P|132:40|172:48,1,89.9999999999999
256,76,47891,2,0,L|256:168,2,89.9999999999999,0|0|2,0:0|0:0|0:0,0:0:0:0:
432,36,49302,6,0,L|432:220,1,180
344,244,50361,2,0,L|344:152,2,89.9999999999999,0|8|8,0:0|0:0|0:0,0:0:0:0:
412,300,51420,6,0,P|336:332|260:268,1,180,4|0,0:0|0:0,0:0:0:0:
88,316,52832,2,0,B|64:224|120:232|92:140,1,180,0|2,0:0|0:0,0:0:0:0:
256,68,54244,2,0,B|228:160|284:152|260:244,2,180,2|2|2,0:0|0:0|0:0,0:0:0:0:
176,32,56008,5,12,0:0:0:0:
112,96,56361,1,2,0:0:0:0:
152,176,56714,1,12,0:0:0:0:
240,152,57067,6,0,B|276:92|388:216|412:136,1,180,2|2,0:0|0:0,0:0:0:0:
456,324,58479,2,0,B|420:384|308:260|284:340,1,180,2|2,0:0|0:0,0:0:0:0:
128,236,59891,6,0,P|104:276|116:324,1,89.9999999999999,2|0,0:0|0:0,0:0:0:0:
36,368,60596,2,0,P|12:296|44:192,1,180,8|2,0:0|3:0,0:0:0:0:
292,292,62361,1,8,0:0:0:0:
220,348,62714,6,0,P|200:312|212:256,1,89.9999999999999,4|8,0:0|0:0,0:0:0:0:
272,204,63420,2,0,P|324:204|380:308,2,180,2|2|2,0:0|0:0|0:0,0:0:0:0:
188,176,65185,1,8,0:0:0:0:
128,244,65538,6,0,P|100:204|152:92,1,180,2|2,0:0|0:0,0:0:0:0:
236,104,66596,1,8,0:0:0:0:
280,184,66949,2,0,P|312:160|324:108,1,89.9999999999999,8|4,3:0|3:0,0:0:0:0:
392,56,67655,2,0,P|408:104|368:224,1,180,8|4,0:0|0:0,0:0:0:0:
340,308,68714,6,0,L|440:316,2,89.9999999999999,8|0|8,0:0|0:0|0:0,0:0:0:0:
256,276,69773,1,0,0:0:0:0:
172,308,70126,2,0,L|82:315,2,89.9999999999999,8|0|8,0:0|0:0|0:0,0:0:0:0:
184,220,71185,6,0,P|212:192|260:184,1,89.9999999999999,0|8,0:0|0:0,0:0:0:0:
340,224,71891,2,0,P|352:176|336:136,1,89.9999999999999,0|8,0:0|0:0,0:0:0:0:
256,100,72596,1,2,0:0:0:0:
80,136,73302,2,0,L|28:128,2,45,0|8|2,0:0|0:0|0:0,0:0:0:0:
172,136,74008,6,0,B|184:184|236:192|236:192|200:228|220:284,1,180,4|2,0:0|0:0,0:0:0:0:
304,256,75067,1,8,0:0:0:0:
392,228,75420,2,0,P|396:276|368:316,1,89.9999999999999,2|8,0:0|0:0,0:0:0:0:
452,356,76126,2,0,P|472:320|468:180,1,180,2|0,0:0|0:0,0:0:0:0:
392,140,77185,5,8,0:0:0:0:
256,256,77891,1,8,0:0:0:0:
172,224,78244,2,0,P|164:280|220:340,2,135,8|8|8,0:0|0:0|0:0,0:0:0:0:
240,168,79655,6,0,P|200:136|156:136,1,89.9999999999999,4|8,0:0|0:0,0:0:0:0:
84,176,80361,2,0,P|72:124|88:88,1,89.9999999999999,2|8,0:0|0:0,0:0:0:0:
164,48,81067,2,0,P|184:132|160:224,1,180,0|8,0:0|0:0,0:0:0:0:
256,232,82126,1,8,0:0:0:0:
350,221,82479,6,0,P|328:134|348:48,1,180,8|8,0:0|0:0,0:0:0:0:
444,200,83891,2,0,P|444:248|416:288,1,89.9999999999999,8|2,0:0|0:0,0:0:0:0:
332,296,84596,2,0,P|304:232|200:224,1,180,0|4,0:0|0:0,0:0:0:0:
184,312,85655,5,0,0:0:0:0:
116,256,86008,2,0,L|112:204,1,45,0|0,3:0|0:0,0:0:0:0:
24,192,86538,2,0,L|28:288,2,89.9999999999999
52,156,87420,6,0,L|48:52,1,89.9999999999999,0|0,3:0|0:0,0:0:0:0:
132,36,88126,1,4,0:0:0:0:
