osu file format v12

[General]
AudioFilename: 5556.mp3
AudioLeadIn: 1000
PreviewTime: 61480
Countdown: 0
SampleSet: None
StackLeniency: 0.7
Mode: 0
LetterboxInBreaks: 0
WidescreenStoryboard: 0

[Editor]
DistanceSpacing: 1.5
BeatDivisor: 4
GridSize: 4

[Metadata]
Title:Tomadoi Recipe (TV size)
TitleUnicode:とまどい→レシピ (TV size)
Artist:Mikakuning!
ArtistUnicode:みかくにんぐッ!
Creator:koreapenguin
Version:Insane
Source:未確認で進行形
Tags:Mikakunin de Shinkoukei Junky Haruka Terui Eriko Matsui Yuri Yoshida op opening Xinely laurier sonnyc
BeatmapID:366164
BeatmapSetID:147975

[Difficulty]
HPDrainRate:7
CircleSize:4
OverallDifficulty:8
ApproachRate:9
SliderMultiplier:1.7
SliderTickRate:2

[Events]
//Background and Video events
0,0,"mikakunin.jpg",0,0
Video,-186,"mikakunin.avi"
//Break Periods
//Storyboard Layer 0 (Background)
//Storyboard Layer 1 (Fail)
//Storyboard Layer 2 (Pass)
//Storyboard Layer 3 (Foreground)
//Storyboard Sound Samples
//Background Colour Transformations
3,100,163,162,255

[TimingPoints]
593,352.941176470588,4,2,1,50,1,0
593,-133.333333333333,4,2,1,50,0,0
11887,-100,4,3,1,70,0,0
23181,-125,4,2,2,70,0,0
28122,-100,4,3,1,70,0,0
33063,-100,4,2,1,70,0,0
34122,-100,4,3,1,70,0,0
44534,-100,4,3,2,70,0,0
44710,-100,4,3,1,70,0,0
44887,-100,4,3,2,70,0,0
45063,-100,4,3,1,70,0,0
45769,-125,4,3,1,50,0,0
57063,-100,4,3,1,70,0,0
61651,-166.666666666667,4,2,1,50,0,0
62710,-100,4,3,1,80,0,1
73651,-100,4,3,1,80,0,0
74004,-100,4,3,1,80,0,1
79475,-100,4,3,2,80,0,1
79651,-100,4,3,1,80,0,1
84945,-100,4,3,1,70,0,0

[Colours]
Combo1 : 255,70,163
Combo2 : 255,128,192
Combo3 : 255,128,128
Combo4 : 255,83,83

[HitObjects]
48,112,593,2,0,P|104:68|176:80,1,127.500004863739,2|2,0:0|0:0,0:0:0:0:
228,176,1298,2,0,L|216:252,2,63.7500024318696,2|0|2,0:0|0:0|0:0,0:0:0:0:
364,40,1828,2,0,L|354:102,1,63.7500024318696,2|0,0:0|0:0,0:0:0:0:
328,216,2181,1,2,0:0:0:0:
344,232,2534,5,2,0:0:0:0:
240,304,2710,2,0,P|204:300|162:273,1,63.7500024318696,2|0,0:0|0:0,0:0:0:0:
66,175,3063,2,0,P|101:178|143:205,1,63.7500024318696,2|0,0:0|0:0,0:0:0:0:
87,346,3416,5,2,0:0:0:0:
218,133,3769,1,2,0:0:0:0:
236,140,4122,2,0,L|308:120,1,63.7500024318696,2|0,0:0|0:0,0:0:0:0:
408,184,4475,1,0,0:0:0:0:
324,336,4651,1,2,0:0:0:0:
308,324,5004,1,2,0:0:0:0:
468,340,5357,5,2,0:0:0:0:
332,236,5534,2,0,L|316:160,1,63.7500024318696,2|0,0:0|0:0,0:0:0:0:
388,40,5887,2,0,L|372:116,1,63.7500024318696,2|0,0:0|0:0,0:0:0:0:
224,156,6240,6,0,P|184:124|180:28,1,127.500004863739,2|2,0:0|0:0,0:0:0:0:
104,232,6945,2,0,P|76:248|28:256,1,63.7500024318696,2|0,0:0|0:0,0:0:0:0:
44,160,7298,1,2,0:0:0:0:
158,302,7475,2,0,P|106:338|44:344,2,127.500004863739,2|2|2,0:0|0:0|0:0,0:0:0:0:
196,216,8357,5,2,0:0:0:0:
148,96,8534,1,0,0:0:0:0:
328,200,8710,1,2,0:0:0:0:
280,320,8887,1,0,0:0:0:0:
252,124,9063,6,0,P|316:92|384:108,1,127.500004863739,2|2,0:0|0:0,0:0:0:0:
444,316,9769,2,0,L|452:236,1,63.7500024318696,2|0,0:0|0:0,0:0:0:0:
512,180,10122,1,2,0:0:0:0:
328,200,10298,2,0,P|316:268|348:336,2,127.500004863739,2|2|2,0:0|0:0|0:0,0:0:0:0:
444,316,11181,6,0,P|440:348|420:388,1,63.7500024318696,2|0,0:0|0:0,0:0:0:0:
224,300,11534,2,0,P|217:268|220:237,1,63.7500024318696,2|0,0:0|0:0,0:0:0:0:
308,92,11887,5,4,0:0:0:0:
388,192,12063,1,0,0:0:0:0:
308,291,12240,2,0,P|267:303|225:299,1,85,8|0,0:0|0:0,0:0:0:0:
96,197,12592,2,0,P|137:207|172:232,1,85,2|0,0:0|0:0,0:0:0:0:
196,268,12857,1,0,0:0:0:0:
196,268,12945,1,8,0:0:0:0:
72,352,13122,5,0,0:0:0:0:
72,352,13210,1,0,0:0:0:0:
72,352,13298,1,2,0:0:0:0:
96,196,13475,2,0,P|124:162|172:142,1,85,0|8,0:0|0:0,0:0:0:0:
316,172,13828,1,0,0:0:0:0:
376,356,14004,6,0,L|390:271,1,85,2|0,0:0|0:0,0:0:0:0:
437,131,14357,2,0,L|452:216,1,85,8|0,0:0|0:0,0:0:0:0:
380,66,14710,6,0,P|417:46|460:48,1,85,6|0,0:0|0:0,0:0:0:0:
360,188,15063,2,0,P|303:213|243:196,1,127.5,8|0,0:0|0:0,0:0:0:0:
224,156,15416,2,0,P|228:196|200:252,1,85,2|0,0:0|0:0,0:0:0:0:
48,196,15769,1,8,0:0:0:0:
132,292,15945,1,0,0:0:0:0:
132,96,16122,6,0,P|213:48|301:85,1,170,0|8,0:0|0:0,0:0:0:0:
360,188,16652,1,8,0:0:0:0:
360,188,16740,1,8,0:0:0:0:
360,188,16828,2,0,P|372:144|412:108,1,85
464,272,17181,1,8,0:0:0:0:
340,304,17357,1,0,0:0:0:0:
300,288,17445,1,0,0:0:0:0:
268,259,17534,6,0,P|269:302|252:341,1,85,4|0,0:0|0:0,0:0:0:0:
208,196,17887,2,0,P|170:175|145:142,1,85,8|0,0:0|0:0,0:0:0:0:
292,176,18240,2,0,P|328:153|369:148,2,85,2|0|8,0:0|0:0|0:0,0:0:0:0:
252,340,18769,1,0,0:0:0:0:
124,336,18945,2,0,P|75:291|74:211,1,127.5,2|0,0:0|0:0,0:0:0:0:
88,196,19298,2,0,P|46:216|-13:211,1,85,8|0,0:0|0:0,0:0:0:0:
187,156,19651,6,0,P|227:164|261:190,1,85,8|0,0:0|0:0,0:0:0:0:
88,196,20004,2,0,P|79:151|96:96,1,85,8|0,0:0|0:0,0:0:0:0:
231,24,20357,5,6,0:0:0:0:
231,24,20534,1,2,0:0:0:0:
187,156,20710,1,8,0:0:0:0:
352,199,20887,1,8,0:0:0:0:
233,321,21063,1,2,0:0:0:0:
252,238,21240,1,2,0:0:0:0:
424,362,21416,1,8,0:0:0:0:
401,279,21592,5,0,0:0:0:0:
401,279,21681,1,0,0:0:0:0:
401,279,21769,1,0,0:0:0:0:
252,238,21945,1,0,0:0:0:0:
364,130,22122,1,8,0:0:0:0:
277,274,22298,1,2,0:0:0:0:
317,126,22475,1,8,0:0:0:0:
425,238,22651,1,2,0:0:0:0:
424,52,23181,6,0,P|360:20|288:48,1,136,12|0,0:0|0:0,0:0:0:0:
268,112,23710,1,2,0:0:0:0:
292,192,23887,2,0,P|292:228|280:258,2,68,2|0|8,0:0|0:0|0:0,0:0:0:0:
89,173,24416,2,0,P|144:211|212:212,1,136,2|0,0:0|0:0,0:0:0:0:
272,156,24945,1,8,0:0:0:0:
256,76,25122,1,2,0:0:0:0:
384,36,25298,2,0,L|371:102,1,68,2|0,0:0|0:0,0:0:0:0:
360,280,25651,1,8,0:0:0:0:
464,348,25828,5,2,0:0:0:0:
360,280,26004,2,0,P|288:276|224:328,1,136,2|8,0:0|0:0,0:0:0:0:
180,380,26534,1,2,0:0:0:0:
96,352,26710,2,0,P|84:320|92:264,1,68,0|2,0:0|0:0,0:0:0:0:
151,158,27063,2,0,P|151:192|140:224,1,68,8|0,0:0|0:0,0:0:0:0:
96,100,27416,6,0,P|156:76|224:124,1,136,2|8,0:0|0:0,0:0:0:0:
275,259,27945,1,0,0:0:0:0:
275,259,28034,1,0,0:0:0:0:
275,259,28122,2,0,P|247:227|238:187,1,85,8|2,0:0|0:0,0:0:0:0:
392,196,28475,1,8,0:0:0:0:
392,196,28563,1,0,0:0:0:0:
392,196,28651,6,0,P|400:280|360:372,1,170,4|0,0:0|0:0,0:0:0:0:
244,380,29181,1,8,0:0:0:0:
193,263,29357,1,0,0:0:0:0:
233,251,29445,1,0,0:0:0:0:
275,258,29534,1,2,0:0:0:0:
143,331,29710,2,0,P|102:343|54:336,2,85,0|8|0,0:0|0:0|0:0,0:0:0:0:
109,102,30240,2,0,B|73:179|73:179|95:198|104:224|98:256,1,170,0|8,0:0|0:0,0:0:0:0:
98,256,30769,5,0,0:0:0:0:
244,172,30945,2,0,P|236:127|202:90,1,85,2|0,0:0|0:0,0:0:0:0:
98,256,31298,2,0,P|140:271|189:261,1,85,8|0,0:0|0:0,0:0:0:0:
384,268,31651,6,0,P|410:186|385:94,1,170,2|8,0:0|0:0,0:0:0:0:
256,56,32181,1,0,0:0:0:0:
120,106,32357,2,0,P|101:188|128:268,1,170,2|8,0:0|0:0,0:0:0:0:
248,312,32887,1,2,0:0:0:0:
248,312,33063,1,0,0:0:0:0:
140,364,33240,5,2,0:0:0:0:
228,220,33416,1,2,0:0:0:0:
336,272,33593,5,2,0:0:0:0:
248,128,33769,1,2,0:0:0:0:
140,180,33946,5,2,0:0:0:0:
236,40,34122,2,0,P|280:44|320:76,1,85,8|0,0:0|0:0,0:0:0:0:
344,192,34475,6,0,B|392:120|392:120|440:136|492:100,1,170,4|8,0:0|0:0,0:0:0:0:
424,40,35004,1,0,0:0:0:0:
436,208,35181,1,2,0:0:0:0:
300,108,35357,1,0,0:0:0:0:
248,250,35534,2,0,P|235:210|240:168,1,85,8|0,0:0|0:0,0:0:0:0:
292,332,35887,5,2,0:0:0:0:
160,212,36063,1,0,0:0:0:0:
168,336,36240,1,8,0:0:0:0:
240,168,36416,1,0,0:0:0:0:
88,68,36592,1,2,0:0:0:0:
81,110,36681,1,8,0:0:0:0:
56,144,36769,1,0,0:0:0:0:
184,48,36945,6,0,P|224:36|272:48,1,85,8|0,0:0|0:0,0:0:0:0:
302,112,37210,1,0,0:0:0:0:
302,112,37298,2,0,P|336:133|378:132,1,85,2|0,0:0|0:0,0:0:0:0:
440,72,37651,1,8,0:0:0:0:
348,236,37828,1,0,0:0:0:0:
496,153,38004,1,2,0:0:0:0:
360,52,38181,1,12,0:0:0:0:
196,119,38357,2,0,P|214:158|256:190,1,85,8|6,0:0|0:0,0:0:0:0:
221,20,38710,6,0,P|136:27|87:98,1,170
196,120,39240,1,2,0:0:0:0:
296,164,39416,2,0,P|300:204|280:260,2,85,8|2|8,0:0|0:0|0:0,0:0:0:0:
176,284,39945,5,4,0:0:0:0:
268,372,40122,1,0,0:0:0:0:
224,196,40298,1,2,0:0:0:0:
93,323,40475,1,8,0:0:0:0:
300,272,40651,1,0,0:0:0:0:
300,272,40828,2,0,P|328:208|316:140,1,127.5,2|8,0:0|0:0,0:0:0:0:
296,116,41181,6,0,P|336:126|378:119,1,85,8|0,0:0|0:0,0:0:0:0:
412,96,41445,1,8,0:0:0:0:
412,96,41534,1,8,0:0:0:0:
504,184,41710,1,0,0:0:0:0:
504,184,41798,1,8,0:0:0:0:
504,184,41887,1,2,0:0:0:0:
432,288,42063,5,8,0:0:0:0:
496,368,42239,1,2,0:0:0:0:
352,316,42416,1,12,0:0:0:0:
372,164,42592,1,2,0:0:0:0:
288,236,42769,1,8,0:0:0:0:
288,236,42857,1,8,0:0:0:0:
288,236,42945,6,0,P|244:232|200:256,1,85,6|0,0:0|0:0,0:0:0:0:
114,379,43298,2,0,P|139:345|144:304,1,85,8|0,0:0|0:0,0:0:0:0:
82,153,43651,2,0,P|99:192|134:217,1,85,8|0,0:0|0:0,0:0:0:0:
174,225,43916,1,8,0:0:0:0:
174,225,44004,1,8,0:0:0:0:
320,136,44181,1,2,0:0:0:0:
156,92,44357,1,8,0:0:0:0:
288,236,44534,6,0,P|328:240|376:224,1,85,8|2,0:0|0:0,0:0:0:0:
404,148,44887,1,8,0:0:0:0:
480,300,45063,1,2,0:0:0:0:
370,227,45240,1,8,0:0:0:0:
316,340,45416,1,12,0:0:0:0:
236,192,45592,1,0,0:0:0:0:
160,344,45769,6,0,P|92:368|24:340,1,136,0|8,0:0|0:0,0:0:0:0:
0,272,46298,1,0,0:0:0:0:
52,208,46475,2,0,B|68:144|68:144|36:120|36:56,1,136,0|8,0:0|0:0,0:0:0:0:
80,12,47004,1,0,0:0:0:0:
160,28,47181,2,0,L|244:8,2,68,0|0|8,0:0|0:0|0:0,0:0:0:0:
140,108,47710,1,0,0:0:0:0:
208,152,47887,1,0,0:0:0:0:
168,252,48063,5,2,0:0:0:0:
168,252,48151,1,0,0:0:0:0:
168,252,48240,1,10,0:0:0:0:
240,332,48416,1,2,0:0:0:0:
240,332,48504,1,0,0:0:0:0:
240,332,48592,2,0,P|308:340|384:292,1,136,2|8,0:0|0:0,0:0:0:0:
388,232,49122,1,0,0:0:0:0:
356,156,49298,5,0,0:0:0:0:
352,116,49387,1,0,0:0:0:0:
376,84,49475,1,0,0:0:0:0:
308,224,49651,1,8,0:0:0:0:
164,160,49828,1,0,0:0:0:0:
68,284,50004,5,0,0:0:0:0:
164,160,50181,1,0,0:0:0:0:
164,160,50269,1,0,0:0:0:0:
164,160,50357,2,0,P|197:160|230:168,1,68,8|0,0:0|0:0,0:0:0:0:
328,300,50710,5,8,0:0:0:0:
328,300,50798,1,8,0:0:0:0:
328,300,50887,1,2,0:0:0:0:
417,348,51063,1,0,0:0:0:0:
509,303,51240,1,2,0:0:0:0:
412,156,51416,5,6,0:0:0:0:
412,156,51592,1,0,0:0:0:0:
328,216,51769,1,8,0:0:0:0:
256,100,51945,1,0,0:0:0:0:
136,164,52122,2,0,P|104:168|56:152,1,68
24,32,52475,2,0,P|56:28|104:44,1,68,8|0,0:0|0:0,0:0:0:0:
208,104,52828,2,0,P|241:107|274:99,2,68,0|0|8,0:0|0:0|0:0,0:0:0:0:
160,256,53357,1,8,0:0:0:0:
316,288,53534,6,0,P|340:260|352:208,1,68,2|8,0:0|0:0,0:0:0:0:
352,192,53798,1,0,0:0:0:0:
352,192,53887,1,8,0:0:0:0:
208,104,54063,1,2,0:0:0:0:
268,212,54240,1,2,0:0:0:0:
348,68,54416,1,0,0:0:0:0:
348,68,54504,1,0,0:0:0:0:
348,68,54592,6,0,P|396:72|456:36,1,102,8|0,0:0|0:0,0:0:0:0:
468,16,54945,2,0,P|464:52|476:108,1,68,2|0,0:0|0:0,0:0:0:0:
503,223,55298,2,0,P|507:189|504:156,1,68,8|2,0:0|0:0,0:0:0:0:
368,136,55651,2,0,P|360:188|372:264,1,102,2|0,0:0|0:0,0:0:0:0:
384,272,56004,2,0,P|344:264|292:276,1,68,8|2,0:0|0:0,0:0:0:0:
284,288,56269,1,8,0:0:0:0:
284,288,56357,1,2,0:0:0:0:
204,380,56534,5,0,0:0:0:0:
92,304,56710,1,12,0:0:0:0:
72,268,56798,1,0,0:0:0:0:
72,228,56887,1,0,0:0:0:0:
92,192,56975,1,0,0:0:0:0:
104,152,57063,6,0,P|100:108|60:56,1,85,2|0,0:0|0:0,0:0:0:0:
172,216,57416,2,0,P|212:234|277:225,1,85,2|0,0:0|0:0,0:0:0:0:
408,168,57769,2,0,P|365:168|327:186,1,85,2|0,0:0|0:0,0:0:0:0:
284,316,58122,1,2,0:0:0:0:
228,156,58298,1,0,0:0:0:0:
17,189,58475,6,0,P|90:230|172:216,1,170,2|2,0:0|0:0,0:0:0:0:
212,72,59004,1,0,0:0:0:0:
276,256,59181,1,2,0:0:0:0:
360,128,59357,1,8,0:0:0:0:
360,128,59445,1,8,0:0:0:0:
360,128,59534,1,12,0:0:0:0:
228,156,59710,1,0,0:0:0:0:
412,224,59887,6,0,P|448:196|464:148,1,85,2|0,0:0|0:0,0:0:0:0:
468,120,60151,1,8,0:0:0:0:
468,120,60240,1,2,0:0:0:0:
376,32,60416,1,8,0:0:0:0:
332,32,60504,1,8,0:0:0:0:
296,52,60592,2,0,P|252:72|196:64,1,85,8|8,0:0|0:0,0:0:0:0:
133,47,60946,2,0,L|117:99,1,42.5,10|8,0:0|0:0,0:0:0:0:
215,202,61122,2,0,L|202:161,1,42.5,8|10,0:0|0:0,0:0:0:0:
58,198,61298,1,2,0:0:0:0:
156,260,61651,6,0,L|141:309,1,50.9999984436036,2|0,0:0|0:0,0:0:0:0:
224,200,62004,2,0,P|180:172|116:180,1,101.999996887207,2|0,0:0|1:0,0:0:0:0:
131,173,62534,1,2,0:0:0:0:
260,308,62710,6,0,P|316:268|328:156,1,170,4|8,0:0|0:0,0:0:0:0:
272,92,63240,1,0,0:0:0:0:
336,12,63416,2,0,P|380:8|424:24,1,85,2|0,0:0|0:0,0:0:0:0:
456,116,63769,1,8,0:0:0:0:
332,172,63945,1,0,0:0:0:0:
452,268,64122,6,0,P|452:316|416:368,1,85,2|0,0:0|0:0,0:0:0:0:
276,328,64475,2,0,P|276:280|312:228,1,85,8|0,0:0|0:0,0:0:0:0:
336,220,64740,1,8,0:0:0:0:
336,220,64828,1,2,0:0:0:0:
436,348,65004,1,0,0:0:0:0:
276,328,65181,1,8,0:0:0:0:
332,172,65357,5,0,0:0:0:0:
332,172,65445,1,0,0:0:0:0:
332,172,65534,2,0,P|300:108|180:92,1,170,0|8,0:0|0:0,0:0:0:0:
124,136,66063,1,0,0:0:0:0:
24,124,66240,1,2,0:0:0:0:
72,304,66416,1,0,0:0:0:0:
66,202,66593,1,8,0:0:0:0:
176,332,66769,1,0,0:0:0:0:
268,292,66945,6,0,P|284:252|283:210,1,85,2|0,0:0|0:0,0:0:0:0:
252,169,67210,1,0,0:0:0:0:
252,169,67298,1,8,0:0:0:0:
76,104,67475,1,2,0:0:0:0:
252,168,67651,1,0,0:0:0:0:
280,176,67740,1,0,0:0:0:0:
308,172,67828,1,2,0:0:0:0:
328,152,67916,1,0,0:0:0:0:
336,124,68004,2,0,P|368:100|428:96,1,85,12|0,0:0|0:0,0:0:0:0:
422,276,68357,6,0,P|405:238|408:196,1,85,6|0,0:0|0:0,0:0:0:0:
492,36,68710,2,0,P|509:74|506:116,1,85,8|0,0:0|0:0,0:0:0:0:
328,176,69063,2,0,P|296:148|288:84,1,85,2|0,0:0|0:0,0:0:0:0:
316,36,69328,1,0,0:0:0:0:
316,36,69416,2,0,P|280:52|228:48,1,85,8|0,0:0|0:0,0:0:0:0:
156,16,69769,5,2,0:0:0:0:
68,164,69945,1,0,0:0:0:0:
216,252,70122,2,0,P|216:204|188:156,1,85,8|0,0:0|0:0,0:0:0:0:
140,328,70475,1,2,0:0:0:0:
140,328,70563,1,0,0:0:0:0:
140,328,70651,1,0,0:0:0:0:
260,371,70828,1,8,0:0:0:0:
324,232,71004,1,0,0:0:0:0:
440,332,71181,5,2,0:0:0:0:
412,164,71357,1,0,0:0:0:0:
368,328,71534,1,8,0:0:0:0:
480,200,71710,1,0,0:0:0:0:
348,260,71887,2,0,P|284:264|224:216,1,127.5,2|8,0:0|0:0,0:0:0:0:
204,188,72240,2,0,P|160:172|112:180,1,85,8|8,0:0|0:0,0:0:0:0:
84,208,72504,1,8,0:0:0:0:
84,208,72592,1,2,0:0:0:0:
140,348,72769,5,0,0:0:0:0:
156,308,72857,1,8,0:0:0:0:
152,264,72945,1,2,0:0:0:0:
20,156,73122,1,0,0:0:0:0:
60,168,73210,1,8,0:0:0:0:
100,160,73298,1,2,0:0:0:0:
132,132,73387,1,8,0:0:0:0:
148,92,73475,2,0,L|132:24,2,42.5,8|0|10,0:0|0:0|0:0,0:0:0:0:
256,224,73828,5,8,0:0:0:0:
296,232,73916,1,8,0:0:0:0:
336,216,74004,2,0,B|370:182|365:133|365:133|471:122,1,170,6|8,0:0|0:0,0:0:0:0:
284,148,74534,1,0,0:0:0:0:
504,84,74710,2,0,P|516:124|504:168,1,85,2|0,0:0|0:0,0:0:0:0:
436,240,75063,1,8,0:0:0:0:
392,48,75240,1,0,0:0:0:0:
310,108,75416,6,0,P|266:112|214:88,2,85,2|0|8,0:0|0:0|0:0,0:0:0:0:
405,145,75945,1,0,0:0:0:0:
429,190,76034,1,8,0:0:0:0:
436,240,76122,2,0,P|424:284|392:324,1,85,2|0,0:0|0:0,0:0:0:0:
224,342,76475,2,0,P|259:318|299:307,1,85,8|0,0:0|0:0,0:0:0:0:
124,336,76828,6,0,P|72:268|80:168,1,170,0|8,0:0|0:0,0:0:0:0:
176,52,77357,1,0,0:0:0:0:
232,168,77534,2,0,L|336:176,1,85,2|0,0:0|0:0,0:0:0:0:
400,116,77887,1,8,0:0:0:0:
484,244,78063,1,0,0:0:0:0:
312,320,78240,6,0,B|412:296|412:296|436:332|488:332,1,170,8|2,0:0|0:0,0:0:0:0:
508,160,78769,2,0,P|465:159|427:177,1,85,8|2,0:0|0:0,0:0:0:0:
400,208,79034,1,0,0:0:0:0:
400,208,79122,1,2,0:0:0:0:
434,374,79298,1,8,0:0:0:0:
248,352,79475,1,8,0:0:0:0:
200,364,79563,1,4,0:0:0:0:
152,352,79651,6,0,P|116:324|100:280,1,85,4|0,0:0|0:0,0:0:0:0:
199,132,80004,2,0,P|178:170|140:193,1,85,8|0,0:0|0:0,0:0:0:0:
103,206,80269,1,0,0:0:0:0:
103,206,80357,1,2,0:0:0:0:
65,60,80534,1,0,0:0:0:0:
200,132,80710,1,8,0:0:0:0:
372,96,80887,1,0,0:0:0:0:
452,276,81063,6,0,P|484:216|472:140,1,127.5,2|0,0:0|0:0,0:0:0:0:
452,116,81416,2,0,P|412:116|368:92,1,85,8|0,0:0|0:0,0:0:0:0:
336,12,81769,1,8,0:0:0:0:
212,100,81945,1,2,0:0:0:0:
168,104,82034,1,8,0:0:0:0:
128,88,82122,2,0,P|84:80|24:100,1,85,8|2,0:0|0:0,0:0:0:0:
24,260,82475,6,0,P|84:277|143:257,1,127.5,8|0,0:0|0:0,0:0:0:0:
172,224,82828,2,0,P|172:268|200:308,1,85,8|2,0:0|0:0,0:0:0:0:
232,320,83092,1,0,0:0:0:0:
272,304,83181,2,0,P|312:292|360:300,1,85,8|2,0:0|0:0,0:0:0:0:
468,356,83534,2,0,P|456:316|464:268,1,85,8|8,0:0|0:0,0:0:0:0:
500,208,83798,1,0,0:0:0:0:
500,208,83887,6,0,P|504:168|476:104,1,85,0|2,0:0|0:0,0:0:0:0:
333,79,84240,2,0,P|373:91|416:88,1,85,2|8,0:0|0:0,0:0:0:0:
272,8,84592,2,0,P|235:82|272:156,1,170,0|4,0:0|0:0,0:0:0:0:
271,155,85298,6,0,P|283:199|271:243,1,85,2|2,0:0|0:0,0:0:0:0:
117,271,85651,2,0,P|158:263|199:275,1,85,2|8,0:0|0:0,0:0:0:0:
155,347,86004,1,2,0:0:0:0:
184,180,86181,1,2,0:0:0:0:
316,324,86357,1,8,0:0:0:0:
445,314,86534,6,0,P|475:281|481:215,1,85,0|2,0:0|0:0,0:0:0:0:
304,127,86887,2,0,P|273:159|267:225,1,85,8|2,0:0|0:0,0:0:0:0:
268,238,87151,1,0,0:0:0:0:
268,238,87240,1,8,0:0:0:0:
392,124,87416,6,0,P|379:81|325:43,1,85,2|0,0:0|0:0,0:0:0:0:
348,200,87769,2,0,P|391:210|451:182,1,85,2|0,0:0|0:0,0:0:0:0:
484,56,88122,1,6,0:0:0:0:
